osu file format v9

[General]
AudioFilename: Cascada - Ready or not (Nightcore remix).mp3
AudioLeadIn: 1000
PreviewTime: 22980
Countdown: 0
SampleSet: Soft
StackLeniency: 0.5
Mode: 0
LetterboxInBreaks: 0

[Editor]
Bookmarks: 12390,44163,65344,75935,141465
DistanceSpacing: 1.1
BeatDivisor: 4
GridSize: 4

[Metadata]
Title:Ready Or Not (Nightcore Mix)
Artist:Cascada
Creator:hackSL
Version:Insane
Source:
Tags:Dark_Ai AlMod

[Difficulty]
HPDrainRate:6
CircleSize:4
OverallDifficulty:7
ApproachRate:8
SliderMultiplier:1.8
SliderTickRate:1

[Events]
//Background and Video events
0,0,"bg.jpg"
//Break Periods
2,76138,84457
//Storyboard Layer 0 (Background)
//Storyboard Layer 1 (Fail)
//Storyboard Layer 2 (Pass)
//Storyboard Layer 3 (Foreground)
//Storyboard Sound Samples
//Background Colour Transformations
3,100,0,0,0

[TimingPoints]
1787,331.034482758621,4,2,0,30,1,0
3111,-100,4,2,0,30,0,0
3193,-100,4,2,0,30,0,0
4435,-100,4,2,0,30,0,0
8407,-100,4,2,0,35,0,0
8904,-100,4,2,0,30,0,0
9731,-200,4,2,0,30,0,0
12380,-100,4,1,0,30,0,0
21980,-133.333333333333,4,1,0,35,0,0
22311,-200,4,1,0,30,0,0
22642,-200,4,1,0,30,0,0
22973,-100,4,1,1,40,0,0
25621,-100,4,1,1,35,0,0
28269,-100,4,1,1,50,0,0
30918,-100,4,2,0,50,0,0
33566,-100,4,1,1,50,0,0
36214,-100,4,1,1,50,0,0
38862,-100,4,1,1,50,0,0
42835,-100,4,2,1,50,0,0
44159,-100,4,1,1,50,0,1
46807,-100,4,1,1,50,0,1
52104,-100,4,2,0,50,0,0
54752,-100,4,1,1,50,0,1
62697,-100,4,1,1,40,0,1
64021,-100,4,2,0,30,0,1
65345,-133.333333333333,4,2,0,30,0,0
66007,-133.333333333333,4,2,0,50,0,0
75938,-100,4,1,1,30,0,0
86200,-100,4,1,1,30,0,0
86531,-100,4,1,1,50,0,0
94476,-100,4,1,1,50,0,0
97124,-100,4,1,1,50,0,0
105069,-100,4,1,1,40,0,0
105731,-100,4,1,1,35,0,0
106393,-100,4,1,1,30,0,0
107055,-100,4,1,1,30,0,0
108049,-100,4,1,1,30,0,0
109042,-100,4,1,1,50,0,1
117649,-100,4,1,1,45,0,1
118311,-100,4,1,1,40,0,1
118973,-100,4,1,1,35,0,1
119635,-100,4,1,1,40,0,0
130228,-100,4,1,1,50,0,1
139497,-100,4,1,1,40,0,0
140159,-100,4,1,1,35,0,0
140821,-100,4,1,0,30,0,0
141483,-100,4,1,1,30,0,0

[Colours]
Combo1 : 199,199,199
Combo2 : 255,91,13
Combo3 : 255,150,100
SliderBorder : 255,255,255

[HitObjects]
116,52,1787,1,4
116,52,2449,2,0,B|100:116|172:164|236:132,1,180
416,56,3111,1,4
396,332,3773,6,0,B|412:268|340:220|276:252,1,180
96,328,4435,1,4
256,56,5097,6,0,B|340:24,2,90
68,120,5759,2,0,B|24:208|68:296,1,180,4|0
256,328,6421,2,0,B|172:360,2,90
444,264,7083,2,0,B|488:176|444:88,1,180,4|0
248,64,7745,6,0,B|152:44,2,90
212,156,8242,1,0
136,204,8407,2,0,B|176:260|248:260|288:204,1,180,4|0
384,228,8904,1,0
356,132,9069,2,0,B|396:76|468:76|508:132,1,180,0|0
256,192,9731,12,0,10724
256,192,11055,12,0,12049
296,192,12380,6,0,B|312:104,1,90,4|0
216,192,12711,2,0,B|200:104,1,90
108,140,13042,2,0,B|75:224|115:315,1,180
396,314,13704,2,0,B|436:224|404:140,1,180
452,52,14200,1,0
352,60,14366,2,0,B|260:60,2,90
452,52,14862,1,0
452,52,15028,1,4
312,192,15359,6,0,B|382:248,1,90
316,324,15690,2,0,B|244:268,1,90
148,252,16021,1,0
192,164,16187,1,0
236,76,16352,2,0,B|316:32,2,90
136,68,16849,1,0
92,156,17014,2,0,B|64:244|4:312,1,180
420,156,17676,2,0,B|448:244|508:312,1,180,4|0
256,284,18338,6,0,B|240:372,1,90
248,124,18669,2,0,B|232:220,1,90
224,52,19000,2,0,B|272:12|348:20|380:76,1,180
256,100,19662,6,0,B|240:12,1,90
248,260,19993,2,0,B|232:164,1,90
224,332,20324,2,0,B|272:372|348:364|380:308,2,180
84,192,21318,1,0
256,48,21649,6,0,B|192:120,1,90
308,168,21980,2,0,B|228:180,1,67.4999979883433
264,280,22311,2,0,B|220:244,1,45
160,192,22642,1,0
308,60,22973,5,0
404,88,23138,1,0
424,184,23304,1,0
356,256,23469,1,0
356,256,23635,2,0,B|274:294,1,90
180,248,23966,2,0,B|260:208,1,90
260,108,24297,6,0,B|168:76,1,90
84,40,24628,1,0
56,136,24793,1,0
32,232,24959,2,0,B|8:324,1,90
108,340,25290,2,0,B|132:252,1,90
216,200,25621,6,0,B|204:156|168:124,1,90
204,20,25952,2,0,B|216:64|252:96,1,90,0|0
328,160,26283,2,0,B|368:188|372:240,2,90,0|0|0
260,28,26945,5,0
260,28,27276,2,0,B|168:28,1,90
56,100,27607,2,0,B|148:100,2,90
100,288,28269,5,0
196,268,28435,2,0,B|244:256|276:228,1,90,0|8
348,160,28766,1,0
412,84,28931,2,0,B|480:140,1,90
476,240,29262,2,0,B|408:304,1,90,8|0
248,328,29593,6,0,B|316:264,1,90
256,184,29924,1,8
156,144,30090,1,0
112,136,30173,1,0
72,112,30256,2,0,B|40:76|56:28,2,90,0|0|8
36,204,30752,1,0
36,204,30918,5,2
256,320,31249,1,8
476,204,31580,1,0
256,320,31911,1,8
44,192,32242,2,0,B|92:100,1,90
256,64,32573,2,0,B|212:152,1,90,8|0
256,320,32904,2,0,B|300:232,1,90,8|0
468,192,33235,2,0,B|420:284,1,90,8|0
256,192,33566,5,0
204,108,33731,1,0
152,192,33897,1,8
208,272,34062,1,0
256,192,34228,6,0,B|356:192,1,90
152,192,34559,2,0,B|52:192,1,90,8|0
280,120,34890,2,0,B|392:120,1,90
128,120,35221,2,0,B|24:120,1,90,8|0
208,64,35552,1,0
244,40,35635,1,0
288,32,35718,2,0,B|388:32,1,90,8|8
440,112,36049,1,0
356,272,36214,6,0,B|424:208,1,90
248,260,36545,2,0,B|304:172,1,90,8|0
136,264,36876,2,0,B|156:168,1,90
24,288,37207,2,0,B|24:196,1,90,8|0
36,112,37538,6,0,B|60:72|116:76,1,90
208,100,37869,2,0,B|260:112|296:76,1,90,8|0
476,272,38200,2,0,B|452:312|396:308,1,90
304,284,38531,2,0,B|252:272|216:308,1,90,8|0
256,192,38862,5,0
304,108,39027,1,0
356,192,39193,1,8
304,284,39358,1,0
256,192,39524,6,0,B|156:192,1,90
356,192,39855,2,0,B|456:192,1,90,8|0
232,120,40186,2,0,B|120:120,1,90
380,120,40517,2,0,B|484:120,1,90,8|0
304,64,40848,1,0
268,40,40931,1,0
224,32,41014,2,0,B|124:32,1,90,8|8
72,108,41345,1,0
112,200,41511,6,0,B|64:276,1,90
148,328,41842,1,8
240,296,42007,1,0
296,212,42173,2,0,B|344:136,1,90
396,52,42504,1,8
488,92,42669,1,0
480,192,42835,2,0,B|456:256|404:296|404:296|352:296,1,180,0|0
32,192,43497,2,0,B|56:256|108:296|108:296|160:296,1,180,0|0
256,272,43993,1,0
152,136,44159,6,0,B|68:96,1,90
360,136,44490,2,0,B|444:96,1,90,8|0
266,174,44821,2,0,B|207:218|199:293,1,135
276,284,45152,2,0,B|274:328|234:361,1,90,8|0
356,340,45483,6,0,B|440:340|444:256,1,135
368,264,45814,2,0,B|369:187|433:155,1,135,8|0
400,88,46145,2,0,B|448:68|488:100,2,90,0|0|8
308,120,46642,1,0
208,124,46807,6,0,B|116:128,1,90
224,220,47138,1,8
136,264,47304,1,0
60,204,47469,2,0,B|8:152|36:80,1,135
36,79,47800,1,8
124,124,47966,1,0
204,68,48131,6,0,B|264:25|330:65,1,135
330,65,48462,1,8
268,144,48628,1,0
252,240,48793,1,0
176,176,48959,1,0
176,176,49124,2,0,B|112:204|104:284,1,135,8|0
104,282,49455,2,0,B|16:282,1,90
376,262,49787,2,0,B|464:262,1,90,8|0
256,192,50118,2,0,B|256:104,2,90,0|0|8
256,32,50614,1,0
256,192,50780,6,0,B|256:288,1,90
148,256,51111,2,0,B|196:332,1,90,8|0
100,360,51442,1,8
32,288,51607,1,0
28,188,51773,1,8
88,108,51938,1,0
184,92,52104,6,0,B|264:40,1,90
360,40,52435,1,8
448,84,52600,1,0
188,192,52766,6,0,B|260:140,1,90
360,132,53097,1,8
444,184,53262,1,0
440,284,53428,6,0,B|424:336|372:344,1,90
280,344,53759,2,0,B|232:336|218:285,1,90,8|0
72,108,54090,6,0,B|88:56|140:48,1,90,8|0
232,48,54421,2,0,B|280:56|293:106,1,90,8|0
220,232,54752,6,0,B|176:312,1,90
292,156,55083,2,0,B|336:76,1,90,8|0
320,248,55414,1,0
220,232,55580,1,0
148,164,55745,2,0,B|100:148|60:180,1,90,8|0
120,260,56076,2,0,B|124:308|180:320,1,90
276,316,56407,2,0,B|324:308|362:344,1,90,8|0
456,356,56738,1,0
484,260,56904,1,0
432,176,57069,1,8
216,32,57400,6,0,B|264:128,1,90
156,124,57731,2,0,B|100:228,1,90,8|0
68,292,58062,1,0
160,328,58228,1,0
204,304,58311,1,0
248,280,58393,1,8
328,340,58559,1,0
396,268,58724,6,0,B|444:272|484:232|480:180,1,135
480,184,59055,1,8
380,172,59221,1,0
376,72,59387,2,0,B|300:80|284:160,1,135
284,157,59718,1,8
188,140,59883,1,0
216,320,60049,6,0,B|216:228,1,90
52,304,60380,2,0,B|119:236,1,90,8|0
24,152,60711,2,0,B|124:152,2,90,0|0|8
156,152,61207,1,0
256,68,61373,2,0,B|256:168,1,90
256,316,61704,2,0,B|256:216,1,90,8|0
340,192,62035,1,0
388,104,62200,1,0
456,32,62366,1,8
256,32,62697,6,0,B|168:44,2,90,0|0|8
256,120,63193,1,0
256,352,63359,2,0,B|344:340,2,90,0|0|8
256,264,63855,1,0
256,192,64021,12,0,65345
256,24,66007,6,0,B|308:76,1,67.4999979883433
256,192,66338,2,0,B|256:116,1,67.4999979883433,2|0
204,72,66669,2,0,B|176:36|120:28|80:60,1,134.999995976687,0|2
140,120,67166,1,0
208,156,67331,2,0,B|212:212|176:248|128:244,1,134.999995976687,0|2
56,232,67828,1,0
56,232,67993,1,4
124,364,68324,1,2
256,24,68655,6,0,B|204:76,1,67.4999979883433
256,192,68986,2,0,B|256:116,1,67.4999979883433,2|0
308,72,69317,2,0,B|336:36|392:28|432:60,1,134.999995976687,0|2
372,120,69814,1,0
304,156,69979,2,0,B|300:212|336:248|384:244,1,134.999995976687,0|2
456,232,70476,1,0
456,232,70641,1,4
388,364,70972,1,2
256,300,71304,6,0,B|256:232,1,67.4999979883433
284,164,71635,2,0,B|320:176|336:216,1,67.4999979883433,2|0
232,372,71966,2,0,B|196:360|180:320,1,67.4999979883433
176,252,72297,2,0,B|184:176|112:136,2,134.999995976687,2|0|2
256,48,73290,6,0,B|328:24|384:64,2,134.999995976687,4|4|0
256,192,74283,1,4
256,336,74614,2,0,B|184:360|128:320,2,134.999995976687,0|4|0
256,336,75607,1,4
460,192,75938,1,4
256,192,85207,12,0,86200
420,56,86531,6,0,B|392:96|340:100,1,90
256,56,86862,1,8
256,56,87028,1,0
92,56,87193,2,0,B|120:96|172:100,1,90
292,224,87524,6,0,B|376:276,1,90,8|0
220,224,87855,2,0,B|136:276,1,90
312,132,88187,2,0,B|392:184,1,90,8|0
200,132,88518,2,0,B|120:184,2,90,0|8|8
256,52,89014,1,0
356,52,89180,6,0,B|420:40|488:88|480:152,1,180,0|8
308,112,89676,1,0
392,164,89842,1,0
392,264,90007,1,0
320,332,90173,1,8
220,320,90338,1,0
280,240,90504,6,0,B|188:220,1,90
96,124,90835,2,0,B|188:144,1,90,8|0
320,148,91166,2,0,B|408:168,1,90,0|0
311,71,91497,2,0,B|224:52,1,90,8|0
120,8,91828,6,0,B|56:72|72:176,1,180,0|8
172,112,92324,1,0
264,152,92490,2,0,B|200:216|216:320,1,180,0|8
308,260,92987,1,0
376,188,93152,6,0,B|440:124|424:20,1,180,0|8
328,84,93649,1,0
236,44,93814,2,0,B|184:56|176:104,1,90,0|8
112,264,94145,2,0,B|164:252|172:204,1,90,8|0
236,44,94476,5,0
276,340,94807,1,8
408,192,95138,1,0
104,192,95469,1,8
408,192,95800,6,0,B|440:280,1,90
276,340,96131,2,0,B|248:240,1,90,8|0
236,44,96462,2,0,B|264:136,1,90,8|0
104,192,96793,2,0,B|72:104,1,90,8|0
188,192,97124,5,0
324,192,97290,1,0
188,192,97455,2,0,B|188:288,1,90,8|0
256,356,97787,1,0
320,284,97952,1,0
420,284,98118,2,0,B|484:212|444:112,1,180,8|0
92,284,98780,2,0,B|28:212|68:112,1,180,8|0
132,40,99276,1,0
196,116,99442,1,8
256,304,99773,6,0,B|240:260|240:260|256:220,1,90
256,80,100104,2,0,B|272:124|272:124|256:164,1,90,8|0
352,192,100435,2,0,B|448:192,1,90
160,192,100766,2,0,B|64:192,1,90,8|0
44,96,101097,1,0
140,112,101262,1,0
184,24,101428,1,8
328,360,101759,1,0
184,24,102090,1,8
252,160,102421,6,0,B|276:222|347:253|398:216,1,180,0|8
344,144,102918,1,0
252,160,103083,2,0,B|196:124|120:140|100:200,1,180,0|8
188,236,103580,1,0
256,308,103745,2,0,B|360:308,2,90,0|0|8
160,324,104242,1,0
92,252,104407,2,0,B|4:252,2,90,0|8|8
160,180,104904,1,0
256,196,105069,6,0,B|364:208|404:116,1,180,0|8
500,96,105566,2,0,B|480:48|436:32,1,90
340,32,105897,2,0,B|299:46|279:94,2,90,0|8|0
204,44,106393,2,0,B|172:100|215:173|278:179,1,180
332,280,107055,6,0,B|276:356,2,90
268,204,107552,1,0
264,104,107718,2,0,B|200:100|148:180|180:236,1,180
256,36,109042,5,0
192,112,109207,1,0
256,188,109373,1,8
320,112,109538,1,0
256,188,109704,2,0,B|192:268,1,90
268,332,110035,1,8
172,352,110200,1,0
100,284,110366,6,0,B|88:236|120:196,1,90
192,52,110697,2,0,B|204:100|172:140,1,90,8|0
100,72,111028,1,0
192,52,111193,1,0
288,24,111359,1,8
416,192,111690,6,0,B|436:84,1,90
476,236,112021,2,0,B|456:344,1,90,8|0
416,192,112352,2,0,B|312:192,1,90
292,284,112683,1,8
220,216,112849,1,0
252,124,113014,6,0,B|240:68|160:32|96:56,1,180,0|8
328,260,113676,2,0,B|273:280|193:244|181:188,1,180,0|8
380,196,114338,5,0
448,124,114504,1,0
416,32,114669,1,8
448,124,114835,1,0
380,196,115000,2,0,B|320:216|248:164|256:104,1,180,0|8
168,60,115497,1,0
176,160,115662,6,0,B|164:224|80:248|32:192,1,180,0|8
92,116,116159,1,0
252,112,116324,1,0
340,156,116490,1,8
300,244,116655,2,0,B|340:264|392:244,1,90,8|0
212,244,116987,6,0,B|172:264|120:244,1,90
168,156,117318,1,8
68,164,117483,1,0
112,76,117649,2,0,B|140:40|192:44,1,90
292,48,117980,1,8
376,100,118145,1,0
408,192,118311,2,0,B|420:252|360:316|296:300,1,180,0|8
308,204,118807,1,0
208,212,118973,2,0,B|196:152|256:88|320:104,1,180,0|8
132,32,119635,6,0,B|88:112,1,90
132,352,119966,2,0,B|88:272,1,90,0|0
144,192,120297,2,0,B|240:192,1,90
312,128,120628,1,0
388,64,120793,1,0
408,160,120959,2,0,B|360:204|376:288|448:304,1,180
488,216,121455,1,0
408,160,121621,2,0,B|456:116|440:32|368:16,1,180
280,192,122283,6,0,B|188:176|188:176|96:192,1,180
288,264,122945,2,0,B|380:276|380:276|472:264,1,180
256,76,123607,1,0
96,192,123938,1,0
256,308,124269,1,0
416,192,124600,1,0
220,212,124931,6,0,B|312:236,1,90
336,140,125262,2,0,B|240:116,1,90
220,212,125593,2,0,B|188:296,1,90
336,140,125924,2,0,B|368:56,2,90
176,244,126587,2,0,B|144:328,2,90
204,148,127083,1,0
304,160,127249,2,0,B|372:192|416:120|480:144,1,180
256,192,127911,5,0
452,192,128242,1,0
60,192,128573,1,0
256,192,128904,2,0,B|292:280,1,90
452,192,129235,2,0,B|416:104,1,90,0|0
60,192,129566,2,0,B|96:280,1,90,0|0
256,192,129897,2,0,B|256:72,1,90,0|0
348,240,130228,6,0,B|336:304|240:328|196:272,1,180,0|8
116,324,130724,1,0
132,224,130890,2,0,B|144:136,1,90
256,32,131221,1,8
244,132,131387,1,0
336,96,131552,2,0,B|400:88|460:148|440:208,1,180,0|8
340,196,132049,1,0
244,184,132214,2,0,B|180:176|120:236|140:296,1,180,0|8
236,272,132711,1,0
172,348,132876,6,0,B|304:348,1,90
340,36,133207,2,0,B|208:36,1,90,8|0
320,192,133538,2,0,B|416:192,2,90,0|0|8
236,140,134035,1,0
236,240,134200,2,0,B|220:304|132:328|84:280,1,180,0|8
148,192,134697,1,0
236,140,134862,2,0,B|252:76|340:52|388:100,1,180,0|8
328,180,135359,1,0
420,216,135524,6,0,B|420:312,1,90
264,248,135855,2,0,B|340:312,1,90,8|0
244,348,136187,2,0,B|176:368|108:316|120:256,1,180,0|8
172,176,136683,1,0
112,100,136849,2,0,B|32:164,2,90,0|0|8
256,100,137345,1,0
400,100,137511,2,0,B|480:164,2,90,0|8|8
324,164,138007,1,0
324,164,138173,5,0
256,348,138504,1,8
188,164,138835,1,0
256,348,139166,1,8
256,36,139497,1,4
256,36,139662,2,0,B|300:28|344:52,1,90
256,348,140159,6,0,B|212:356|168:332,2,90
332,284,140655,1,0
404,216,140821,1,4
