osu file format v9

[General]
AudioFilename: Cascada - Last Christmas (Nightcore Mix).mp3
AudioLeadIn: 0
PreviewTime: 13058
Countdown: 0
SampleSet: Soft
StackLeniency: 0.3
Mode: 1
LetterboxInBreaks: 0

[Editor]
DistanceSpacing: 0.9
BeatDivisor: 4
GridSize: 8

[Metadata]
Title:Last Christmas (Nightcore Mix)
Artist:Cascada
Creator:osuplayer111
Version:Taiko Oni
Source:
Tags:Xmas Louis Cyphre Lucifer climbb65588 Aleks719

[Difficulty]
HPDrainRate:5
CircleSize:5
OverallDifficulty:5
ApproachRate:5
SliderMultiplier:1.4
SliderTickRate:1

[Events]
//Background and Video events
0,0,"taikobg.jpg"
//Break Periods
//Storyboard Layer 0 (Background)
//Storyboard Layer 1 (Fail)
//Storyboard Layer 2 (Pass)
//Storyboard Layer 3 (Foreground)
//Storyboard Sound Samples
//Background Colour Transformations
3,100,255,94,94

[TimingPoints]
1335,369.230769230769,4,2,1,90,1,0
13150,-100,4,2,1,90,0,1
36781,-100,4,2,1,90,0,0
72227,-100,4,2,1,90,0,1
95858,-100,4,2,1,90,0,0
131304,-100,4,2,1,90,0,1
166750,-100,4,2,1,90,0,0

[Colours]
Combo1 : 255,94,255
Combo2 : 255,146,94
Combo3 : 255,94,94
Combo4 : 94,255,174
SliderBorder : 224,224,224

[HitObjects]
168,208,13150,1,0
168,208,13519,1,8
168,208,13703,1,8
168,208,13888,1,0
168,208,14073,1,0
168,208,14257,1,8
168,208,14442,1,8
232,232,14627,1,0
168,208,14811,1,8
232,232,14996,1,0
152,200,15181,1,8
208,224,15365,1,0
208,224,15458,1,8
208,224,15550,1,8
208,224,15734,1,0
208,224,15919,1,0
208,224,16011,1,0
208,224,16104,1,0
160,168,16288,1,8
208,216,16473,1,0
96,112,16842,1,0
208,216,17211,1,0
160,168,17396,1,8
208,216,17581,1,0
168,176,17673,1,0
168,176,17765,1,8
168,176,17950,1,0
168,176,18134,1,8
168,176,18319,1,0
168,176,18688,1,0
40,240,19058,1,0
168,176,19427,1,0
112,200,19611,1,8
240,152,19704,1,8
152,184,19796,1,0
184,240,19981,1,8
184,240,20165,1,0
192,224,20258,1,0
200,200,20350,1,8
200,200,20534,1,0
200,200,20719,1,8
200,200,20904,1,0
200,200,20996,1,0
200,200,21088,1,8
184,168,21181,1,8
168,128,21273,1,0
168,128,21458,1,8
168,128,21642,1,0
168,128,21827,1,8
168,128,22011,1,0
168,128,22104,1,0
168,128,22196,1,8
168,128,22381,1,0
224,200,22565,1,8
184,200,22658,1,8
192,160,22750,1,0
192,160,22934,1,8
184,200,23027,1,8
192,160,23119,1,0
192,160,23304,1,8
184,200,23488,1,0
96,192,23673,1,8
40,192,23858,1,0
128,200,24042,1,0
144,120,24227,1,8
112,264,24596,1,0
144,120,24965,5,4
176,208,25150,1,8
200,264,25334,1,0
160,248,25427,1,0
176,200,25519,1,8
200,264,25704,1,0
296,312,25888,1,8
248,288,26073,1,0
224,264,26165,1,8
184,192,26350,1,8
200,224,26442,1,0
200,224,26627,1,8
200,224,26811,1,0
160,216,26904,1,0
200,224,26996,1,8
120,208,27181,1,0
192,224,27365,1,8
192,224,27550,1,0
192,224,27642,1,8
184,192,27827,1,0
184,192,27919,1,8
192,224,28104,1,8
192,224,28288,1,0
192,224,28658,1,0
192,224,29027,1,8
192,224,29211,1,8
152,160,29396,1,0
176,200,29488,1,0
192,224,29581,1,8
192,224,29765,1,0
192,224,29951,1,8
152,160,30134,1,0
208,232,30319,1,0
240,296,30504,1,8
160,168,30873,1,0
176,200,31058,1,0
176,200,31150,1,0
176,200,31242,1,8
176,200,31427,1,8
176,200,31611,1,0
176,200,31704,1,0
176,200,31796,1,8
176,200,31981,1,0
176,200,32165,1,8
176,200,32350,1,0
176,200,32442,1,0
176,200,32534,1,0
176,200,32627,1,0
176,200,32719,1,8
96,184,32904,1,8
192,232,33088,1,0
64,144,33458,1,8
128,184,33642,1,8
184,224,33827,1,0
128,184,33919,1,0
128,184,34011,1,8
128,184,34196,1,0
128,184,34288,1,0
128,184,34381,1,8
128,184,34565,1,0
160,112,34750,1,8
144,192,34934,1,0
160,120,35119,1,8
160,120,35211,1,8
160,120,35304,1,0
160,120,35488,1,8
160,120,35673,1,0
128,184,35858,1,8
200,32,36227,1,8
160,104,36411,1,8
176,72,36781,5,0
176,72,37150,1,8
176,72,37334,1,8
176,72,37519,1,0
280,200,37888,1,8
232,144,38073,1,8
232,144,38258,1,0
232,144,38442,1,0
232,144,38627,1,8
232,144,38811,1,0
216,64,38996,1,0
216,80,39088,1,0
200,128,39181,1,8
232,144,39365,1,0
216,64,39550,1,8
232,136,39734,1,0
224,112,40104,1,8
224,112,40288,1,8
224,112,40473,1,0
224,112,40842,1,8
224,112,41027,1,8
224,112,41211,1,0
224,112,41396,1,0
224,112,41581,1,8
224,112,41765,1,8
224,112,41950,1,0
240,128,42042,1,0
224,112,42134,1,8
224,112,42319,1,0
224,112,42504,1,8
224,112,42688,1,0
224,112,43058,1,8
224,112,43242,1,8
224,112,43427,1,0
224,112,43796,1,8
224,112,43981,1,8
224,112,44165,1,0
224,112,44350,1,0
224,112,44534,1,8
224,112,44719,1,8
224,112,44904,1,0
224,112,45088,1,8
208,120,45181,1,8
216,112,45273,1,0
224,112,45458,1,8
224,112,45642,1,0
224,112,46011,1,8
224,112,46196,1,8
224,112,46381,1,0
224,112,46750,1,8
224,112,46934,1,8
240,160,47119,1,0
240,160,47304,1,0
240,160,47488,1,8
240,160,47673,1,0
240,160,47858,1,0
240,160,47950,1,0
240,160,48042,1,8
240,160,48227,1,8
280,280,48596,5,0
240,168,48965,1,0
288,272,49334,1,0
264,224,49519,1,8
240,160,49611,1,8
216,160,49704,1,0
160,152,49888,1,8
216,160,50073,1,0
192,160,50165,1,0
280,224,50258,1,8
192,160,50350,1,8
240,176,50442,1,0
304,208,50627,1,8
256,184,50811,1,0
232,208,50904,1,8
184,224,51088,1,8
192,240,51181,1,0
168,256,51273,1,0
224,160,51365,1,8
176,176,51550,1,0
192,160,51919,1,0
176,176,52104,1,8
176,176,52288,1,0
176,176,52381,1,8
176,176,52473,1,0
176,176,52658,1,0
176,176,52842,1,8
176,176,53027,1,0
176,176,53119,1,0
176,144,53211,1,0
192,160,53304,1,8
192,160,53396,1,0
176,176,53581,1,8
184,112,53765,1,0
192,80,53858,1,8
176,144,54042,1,8
176,144,54134,1,0
176,144,54319,1,8
176,144,54504,1,0
176,144,54873,1,0
176,144,55058,1,8
176,112,55150,1,8
160,152,55242,1,0
232,176,55427,1,8
200,120,55519,1,8
216,144,55611,1,0
176,104,55796,1,8
176,104,55981,1,0
176,104,56165,1,8
176,104,56350,1,0
176,104,56534,1,8
176,104,56627,1,8
176,104,56719,1,0
176,104,56904,1,8
176,104,57088,1,0
120,136,57458,1,0
144,120,57642,1,8
160,96,57734,1,8
200,104,57827,1,0
144,120,58011,1,8
176,72,58196,1,0
176,72,58288,1,8
176,72,58381,1,0
176,72,58565,1,0
176,72,58934,1,0
176,72,59119,1,8
176,72,59304,1,0
176,72,59488,1,8
176,72,59581,1,8
176,72,59673,1,0
176,72,59858,1,8
208,184,60227,1,0
200,152,60319,1,0
192,120,60411,5,8
192,120,60596,1,0
192,120,60781,1,8
176,72,60873,1,8
192,120,60965,1,8
192,120,61150,1,0
176,72,61242,1,0
192,120,61334,1,0
192,120,61519,1,8
176,72,61611,1,8
192,120,61704,1,8
136,144,61888,1,0
136,144,62073,1,0
136,144,62258,1,8
136,144,62442,1,0
136,144,62627,1,0
136,144,62996,1,8
232,224,63365,1,0
184,184,63550,1,0
208,208,63642,1,0
208,208,63734,1,8
208,264,63919,1,8
208,328,64104,1,0
208,328,64196,1,8
208,328,64381,1,0
208,296,64473,1,8
208,296,64658,1,0
208,296,64842,1,0
208,296,64934,1,0
208,296,65027,1,0
208,296,65211,1,8
208,296,65304,1,8
208,296,65396,1,8
208,296,65581,1,0
208,296,65950,1,8
144,248,66134,1,8
168,184,66319,1,0
208,64,66688,1,8
184,128,66873,1,8
200,72,67058,1,0
192,112,67150,1,8
200,56,67334,1,0
200,88,67427,1,8
208,64,67611,1,0
208,64,67796,1,0
208,64,67888,1,0
208,64,67981,1,0
208,64,68165,1,8
200,72,68350,1,8
248,120,68534,1,0
240,184,68719,1,0
168,40,68904,1,8
200,72,68996,1,8
256,128,69088,1,8
240,192,69273,1,0
240,192,69642,1,8
240,192,69827,1,8
240,184,70011,1,0
240,184,70104,1,0
240,192,70196,1,0
176,200,70381,1,8
176,200,70565,1,8
176,200,70658,1,8
176,200,70750,1,8
176,200,70934,1,8
176,200,71119,1,8
176,200,71396,1,8
176,200,71673,1,8
176,200,71858,1,8
176,200,72042,1,8
200,168,72134,1,8
256,168,72227,5,0
224,160,72319,1,0
200,168,72411,1,0
200,168,72504,1,0
152,176,72596,1,8
152,176,72781,1,0
152,176,72873,1,0
168,144,72965,1,0
152,176,73058,1,0
152,176,73150,1,0
128,216,73334,1,8
104,264,73519,1,0
128,216,73704,1,0
104,272,73888,1,8
120,240,73981,1,8
128,216,74073,1,0
128,216,74258,1,8
112,160,74442,1,0
120,192,74534,1,8
120,192,74719,1,0
120,192,74811,1,8
128,216,74996,1,8
136,264,75088,1,8
144,240,75181,1,0
168,184,75365,1,8
168,184,75458,1,8
168,184,75550,1,0
168,184,75734,1,8
168,184,75827,1,8
168,184,75919,1,0
168,184,76104,1,8
168,184,76288,1,0
168,184,76473,1,8
168,184,76658,1,0
168,184,76750,1,0
168,184,76842,1,0
168,184,76934,1,0
168,184,77027,1,8
168,184,77211,1,8
168,184,77396,1,0
168,184,77765,1,0
168,184,78134,1,0
168,184,78227,1,0
168,184,78319,1,0
168,184,78411,1,0
168,184,78504,1,8
168,184,78688,1,0
168,184,78781,1,0
168,184,78873,1,0
168,184,78965,1,0
168,184,79058,1,0
168,184,79242,1,8
168,184,79427,1,0
128,144,79611,1,0
152,168,79704,1,0
152,168,79796,1,0
152,168,79981,1,8
152,168,80073,1,8
152,168,80165,1,8
152,168,80350,1,0
152,168,80719,1,8
128,144,80904,1,0
128,144,81088,1,0
128,144,81181,1,0
128,144,81273,1,8
128,144,81458,1,0
136,168,81550,1,0
136,168,81642,1,8
128,144,81827,1,0
128,144,82011,1,8
128,144,82196,1,0
128,144,82381,1,8
128,144,82473,1,8
128,144,82565,1,0
128,144,82658,1,0
128,144,82750,1,0
136,168,82934,1,8
136,168,83119,1,8
136,168,83304,1,0
136,168,83488,1,0
136,168,83581,1,0
136,168,83673,1,8
136,168,84042,5,4
120,232,84227,1,8
136,200,84319,1,8
136,168,84411,1,0
136,200,84596,1,8
136,200,84781,1,0
144,232,84873,1,8
144,232,85058,1,0
144,232,85150,1,8
136,184,85334,1,8
144,216,85427,1,8
144,216,85519,1,0
136,200,85704,1,0
136,200,85796,1,8
136,200,85888,1,0
136,200,86073,1,8
136,200,86258,1,0
136,200,86350,1,8
136,184,86534,1,8
136,184,86627,1,0
136,184,86719,1,8
168,192,86811,1,8
168,192,86996,1,0
168,192,87181,1,0
160,168,87273,1,0
160,168,87365,1,8
160,168,87734,1,0
184,48,88104,1,8
136,80,88288,1,0
96,120,88473,1,0
96,120,88565,1,0
96,120,88658,1,0
96,120,88750,1,0
96,120,88842,1,8
96,120,89027,1,8
96,120,89211,1,0
96,120,89581,1,8
96,120,89673,1,8
96,120,89765,1,8
96,120,89950,1,0
96,120,90319,1,0
144,120,90504,1,8
96,120,90596,1,8
128,120,90688,1,0
128,120,90873,1,8
128,120,90965,1,8
128,120,91058,1,0
136,72,91242,1,8
128,112,91427,1,0
144,120,91519,1,0
128,112,91611,1,8
128,112,91796,1,0
144,120,91981,1,8
144,120,92165,1,0
144,120,92350,1,0
144,120,92442,1,8
144,120,92534,1,0
144,120,92719,1,8
144,120,92811,1,8
144,120,92904,1,0
144,120,93088,1,8
144,120,93273,1,0
120,160,93365,1,0
144,120,93458,1,8
144,120,93642,1,0
144,120,93827,1,8
144,120,94011,1,0
144,120,94196,1,8
144,120,94381,1,0
144,120,94565,1,8
200,96,94750,1,0
144,112,94934,1,8
144,112,95027,1,8
112,136,95119,1,0
144,112,95304,1,8
144,112,95396,1,8
248,72,95488,1,0
144,120,95858,5,12
112,152,96596,1,8
112,152,97334,1,8
112,152,98073,1,8
112,152,98258,1,8
112,152,98442,1,8
176,192,98627,1,8
112,152,98811,1,8
96,152,99181,1,8
96,152,99550,1,8
96,152,100288,1,8
88,112,101027,1,8
88,112,101211,1,8
88,112,101396,1,8
88,112,101581,1,8
88,112,101765,1,8
88,112,102504,1,8
88,112,103242,1,8
88,112,103981,1,8
144,152,104165,1,8
144,152,104350,1,8
144,152,104534,1,8
144,152,104719,1,8
144,152,105458,1,8
144,152,106196,1,8
144,152,106934,1,8
144,152,107119,1,8
144,152,107304,1,8
144,152,107673,5,4
24,120,108042,1,0
144,160,108411,1,0
80,136,108504,1,0
80,136,108596,1,8
80,136,108781,1,0
80,136,109150,1,0
112,80,109334,1,8
80,136,109519,1,0
80,136,109704,1,8
80,136,109796,1,8
80,136,109888,1,0
80,136,110073,1,8
112,80,110165,1,8
112,80,110258,1,0
56,80,110442,1,8
112,88,110627,1,0
80,80,110811,1,8
80,80,110996,1,0
80,80,111365,1,0
80,80,111550,1,8
80,80,111734,1,0
80,80,111827,1,8
80,80,111919,1,0
80,80,112104,1,0
80,80,112381,1,8
80,80,112473,1,0
80,80,112658,1,8
80,80,112842,1,0
88,56,112934,1,0
104,16,113027,1,8
88,56,113211,1,0
88,56,113581,1,0
144,104,113673,1,0
120,96,113765,1,0
168,120,113950,1,8
296,144,114319,1,0
264,136,114411,1,0
224,128,114504,1,0
152,120,114688,1,8
72,16,115058,1,0
112,64,115150,1,0
112,64,115242,1,0
112,64,115427,1,8
112,64,115796,1,0
112,64,115888,1,0
112,64,115981,1,0
112,64,116165,1,8
112,64,116534,1,0
112,64,116719,1,0
112,64,116811,1,0
112,64,116904,1,8
112,64,117088,1,0
112,64,117273,1,0
144,24,117458,1,0
144,24,117550,1,0
112,64,117642,1,8
144,24,117827,1,0
152,32,118011,1,0
152,32,118104,1,0
144,24,118196,1,0
152,32,118288,1,0
152,32,118381,1,8
144,24,118565,1,8
144,24,118750,1,0
152,32,119119,1,8
152,152,119488,5,4
152,32,119858,1,8
152,96,120042,1,0
152,144,120227,1,0
152,112,120319,1,0
152,80,120411,1,0
152,80,120596,1,8
152,80,120781,1,0
152,80,120873,1,0
152,80,120965,1,0
152,80,121150,1,0
152,80,121334,1,8
152,80,121427,1,8
152,80,121519,1,0
152,144,121611,1,0
152,80,121704,1,0
152,144,121888,1,0
152,144,122073,1,8
152,144,122442,1,0
152,144,122811,1,8
176,104,123088,1,8
152,144,123180,1,0
176,104,123365,1,0
176,104,123550,1,8
104,168,123827,1,8
128,144,123919,1,0
192,96,124104,1,0
176,104,124288,1,8
160,120,124473,1,0
168,96,124565,1,0
176,104,124658,1,0
192,56,124842,1,0
192,56,125027,1,8
192,56,125119,1,8
192,56,125211,1,8
192,56,125396,1,0
192,56,125765,1,8
192,56,125950,1,0
192,56,126042,1,8
192,56,126134,1,0
192,56,126504,1,8
192,56,126688,1,0
192,56,126781,1,8
192,56,126873,1,0
192,56,127058,1,0
192,56,127242,1,8
192,56,127334,1,8
192,56,127427,1,0
176,104,127611,1,0
136,216,127981,1,8
160,160,128165,1,0
176,96,128350,1,0
176,112,128442,1,0
160,160,128534,1,0
184,96,128719,1,8
176,120,128811,1,8
160,160,128904,1,8
176,96,129088,1,0
200,88,129273,1,0
160,96,129458,1,8
176,96,129642,1,8
160,120,129734,1,8
176,96,129827,1,8
184,96,130011,1,8
184,96,130196,1,8
120,24,130473,1,8
176,88,130750,1,8
176,88,130934,1,8
176,88,131119,1,8
176,56,131211,1,8
176,56,131304,5,0
176,56,131396,1,0
176,56,131488,1,0
176,56,131581,1,0
176,56,131673,1,8
176,56,131858,1,0
176,56,131950,1,0
176,56,132042,1,0
176,56,132134,1,0
176,56,132227,1,0
176,56,132319,1,0
176,56,132411,1,8
176,56,132596,1,0
176,56,132688,1,0
176,56,132781,1,0
176,56,132965,1,0
176,56,133150,1,8
176,56,133334,1,0
144,112,133519,1,0
176,56,133704,1,0
160,88,133796,1,0
176,56,133888,1,8
176,56,134073,1,0
176,56,134258,1,0
176,56,134350,1,0
176,56,134442,1,0
176,56,134534,1,0
176,56,134627,1,8
176,56,134811,1,0
176,56,134996,1,0
176,56,135088,1,0
176,56,135181,1,0
176,56,135273,1,0
176,56,135365,1,8
176,56,135550,1,0
176,56,135734,1,0
176,56,135827,1,0
176,56,135919,1,8
176,56,136104,1,0
176,56,136196,1,0
176,56,136288,1,8
176,56,136473,1,0
176,56,136658,1,8
176,56,136842,1,0
176,56,137211,1,0
176,56,137581,1,8
176,56,137765,1,0
176,56,137950,1,0
176,56,138042,1,8
176,56,138227,1,0
176,56,138319,1,8
112,64,138504,1,0
144,72,138688,1,0
144,64,138781,1,0
160,72,138873,1,0
184,88,138965,1,0
160,72,139058,1,8
184,88,139242,1,8
184,88,139427,1,0
184,88,139796,1,8
184,88,139981,1,0
184,88,140165,1,0
184,88,140258,1,8
184,88,140350,1,0
184,88,140534,1,8
184,88,140719,1,0
184,88,140811,1,0
184,88,140904,1,0
184,88,141088,1,0
184,88,141273,1,8
184,88,141458,1,0
184,88,141550,1,0
184,88,141642,1,0
160,24,141827,1,0
184,80,142011,1,8
184,80,142104,1,8
184,80,142196,1,0
152,48,142288,1,0
144,80,142381,1,0
152,48,142473,1,0
144,80,142565,1,0
136,120,142658,1,0
144,80,142750,1,8
240,8,143119,5,4
176,56,143304,1,8
176,56,143396,1,8
176,56,143488,1,0
176,56,143673,1,0
176,56,143765,1,0
176,56,143858,1,0
176,56,143950,1,0
176,56,144042,1,0
176,56,144134,1,0
176,56,144227,1,8
176,56,144411,1,0
176,56,144596,1,0
176,56,144781,1,0
176,56,144873,1,0
176,56,144965,1,8
176,56,145150,1,0
176,56,145242,1,0
176,56,145334,1,0
128,72,145519,1,0
176,64,145704,1,8
48,88,146073,1,0
112,96,146258,1,0
176,64,146442,1,8
128,72,146534,1,8
128,72,146627,1,8
128,72,146811,1,0
128,72,147181,1,8
128,88,147273,1,8
128,72,147365,1,8
128,128,147550,1,0
128,152,147642,1,0
128,72,147734,1,0
128,72,147919,1,8
128,72,148104,1,0
128,152,148196,1,0
128,152,148288,1,0
128,152,148473,1,0
128,152,148658,1,8
128,152,149027,1,0
128,152,149211,1,0
128,152,149304,1,0
128,152,149396,1,8
128,152,149581,1,0
176,112,149765,1,0
152,128,149858,1,8
152,128,150042,1,0
152,128,150134,1,8
152,128,150319,1,0
152,128,150504,1,0
152,128,150688,1,0
152,128,150781,1,8
152,128,150873,1,0
152,128,151058,1,0
152,128,151242,1,8
152,128,151334,1,0
152,128,151519,1,0
152,128,151611,1,8
152,128,151796,1,0
152,128,151981,1,8
152,128,152073,1,8
152,128,152165,1,8
152,128,152258,1,8
152,128,152350,1,0
152,128,152534,1,8
176,160,152719,1,0
128,104,152904,1,8
152,128,153088,1,0
152,128,153273,1,8
152,96,153365,1,8
152,128,153458,1,8
152,96,153642,1,8
152,96,153827,1,8
152,160,154011,1,8
152,160,154104,1,8
152,160,154196,1,8
152,160,154381,1,8
152,160,154565,1,8
152,160,154750,1,8
152,160,154842,1,8
152,160,154934,5,0
152,160,155304,1,8
152,160,155488,1,0
168,128,155581,1,0
152,160,155673,1,0
152,160,156042,1,8
152,160,156134,1,8
200,144,156227,1,0
176,152,156319,1,0
152,160,156411,1,0
152,160,156781,1,8
152,96,156965,1,0
152,64,157058,1,0
152,64,157150,1,0
152,64,157519,1,8
168,96,157611,1,8
184,128,157704,1,0
184,128,157796,1,0
184,128,157888,1,0
296,80,158258,1,8
240,104,158442,1,0
216,112,158534,1,0
184,128,158627,1,0
216,112,158811,1,0
216,112,158996,1,8
216,112,159088,1,8
216,112,159181,1,0
200,128,159273,1,0
216,112,159365,1,0
200,128,159550,1,0
200,128,159734,1,8
200,128,159919,1,0
200,128,160011,1,0
200,128,160104,1,0
200,128,160196,1,0
200,128,160288,1,0
200,128,160381,1,0
200,128,160473,1,8
160,80,160658,1,0
192,120,160842,1,0
192,120,161211,1,8
192,120,161396,1,8
192,120,161581,1,0
192,120,161950,1,8
192,120,162134,1,0
192,120,162227,1,0
192,120,162319,1,0
192,120,162504,1,0
192,120,162688,1,8
192,120,162873,1,0
192,120,163058,1,0
192,120,163150,1,8
192,120,163242,1,0
192,120,163427,1,8
192,120,163611,1,0
144,160,163796,1,0
144,160,163888,1,8
192,120,163981,1,0
192,120,164165,1,8
192,120,164350,1,0
192,120,164442,1,0
192,120,164534,1,0
192,120,164719,1,0
192,120,164811,1,0
192,120,164904,1,8
192,120,165088,1,0
192,120,165273,1,0
144,160,165365,1,8
192,120,165458,1,0
192,120,165642,1,8
192,120,165827,1,0
192,120,165919,1,0
192,120,166011,1,0
192,120,166196,1,0
192,120,166288,1,0
192,120,166381,1,8
192,128,166750,5,12
280,216,167119,1,0
320,256,167304,1,8
320,256,167488,1,8
320,256,167858,1,0
320,256,168042,1,8
320,256,168227,1,8
320,256,168411,1,8
320,256,168596,1,0
320,256,168781,1,8
320,256,169150,1,8
320,256,169334,1,0
320,256,169519,1,8
320,256,169704,1,8
320,256,170073,1,0
320,256,170258,1,8
320,256,170442,1,8
320,256,170811,1,0
320,256,170996,1,8
320,256,171181,1,8
320,256,171365,1,8
320,256,171550,1,0
320,256,171734,1,8
216,192,172104,1,8
168,160,172288,1,0
168,160,172473,1,8
168,160,172658,1,8
168,160,173027,1,0
168,160,173211,1,8
168,160,173396,1,8
168,160,173765,1,0
168,160,173950,1,8
168,160,174134,1,8
168,160,174319,1,8
168,160,174504,1,0
168,160,174688,1,8
168,160,175058,1,8
168,160,175242,1,0
160,144,175427,1,8
136,120,175519,1,8
168,160,175611,1,8
136,120,175981,1,8
160,144,176719,1,8
160,144,176904,1,8
232,144,177088,1,8
160,144,177273,1,8
160,144,177458,1,8
160,144,177642,1,8
160,144,178011,1,8
160,144,178381,1,8
256,192,178750,12,0,184104
