osu file format v9

[General]
AudioFilename: Cascada - Last Christmas (Nightcore Mix).mp3
AudioLeadIn: 500
PreviewTime: 13058
Countdown: 0
SampleSet: Soft
StackLeniency: 0.3
Mode: 0
LetterboxInBreaks: 0

[Editor]
DistanceSpacing: 0.9
BeatDivisor: 4
GridSize: 8

[Metadata]
Title:Last Christmas (Nightcore Mix)
Artist:Cascada
Creator:osuplayer111
Version:Insane
Source:
Tags:Xmas Louis Cyphre Lucifer climbb65588 Aleks719

[Difficulty]
HPDrainRate:8
CircleSize:4
OverallDifficulty:7
ApproachRate:8
SliderMultiplier:1.8
SliderTickRate:1

[Events]
//Background and Video events
0,0,"kawaii.jpg"
//Break Periods
2,36981,47846
2,96058,106923
//Storyboard Layer 0 (Background)
//Storyboard Layer 1 (Fail)
//Storyboard Layer 2 (Pass)
//Storyboard Layer 3 (Foreground)
//Storyboard Sound Samples
Sample,14258,0,"normal-hitclap.wav",70
Sample,26073,0,"normal-hitclap.wav",70
Sample,73334,0,"normal-hitclap.wav",70
Sample,85150,0,"normal-hitclap.wav",70
Sample,132411,0,"normal-hitclap.wav",70
Sample,144227,0,"normal-hitclap.wav",70
Sample,158996,0,"normal-hitclap.wav",70
Sample,166381,0,"normal-hitclap.wav",70
//Background Colour Transformations
3,100,255,94,94

[TimingPoints]
1335,369.230769230769,4,2,1,80,1,0
12596,-100,4,1,1,80,0,0
12781,-100,4,2,1,80,0,0
12965,-100,4,1,1,80,0,0
13150,-100,4,1,1,80,0,1
24596,-100,4,1,1,80,0,0
24965,-100,4,1,1,80,0,1
36042,-100,4,1,1,60,0,1
36411,-100,4,1,1,80,0,0
36781,-100,4,1,1,80,0,1
36873,-100,4,1,1,80,0,0
72227,-100,4,1,1,80,0,1
83673,-100,4,1,1,80,0,0
84042,-100,4,1,1,80,0,1
95488,-100,4,1,1,80,0,0
95858,-100,4,1,1,80,0,1
95950,-100,4,1,1,80,0,0
131304,-100,4,1,1,80,0,1
142750,-100,4,1,1,80,0,0
143119,-100,4,1,1,80,0,1
154842,-100,4,1,1,80,0,0
154934,-100,4,1,1,80,0,1
166750,-100,4,2,1,80,0,0
178565,-100,4,2,1,5,0,0

[Colours]
Combo1 : 255,94,255
Combo2 : 255,146,94
Combo3 : 255,94,94
Combo4 : 94,255,174
SliderBorder : 224,224,224

[HitObjects]
184,88,1335,2,0,B|256:142|256:142|328:88,1,180,0|2
256,48,1888,1,0
256,48,2073,2,0,B|256:232,1,180,0|2
200,288,2627,2,0,B|160:368,1,90
256,368,2996,1,0
312,288,3181,2,0,B|352:368,1,90,2|0
256,227,3734,1,0
184,184,3919,6,0,B|208:136|256:128|304:136|328:184,2,180,2|0|2
112,152,4842,1,0
72,224,5027,2,0,B|24:200|16:152|24:104|72:80,1,180,0|2
136,32,5581,1,0
216,24,5765,2,0,B|216:72|176:104,1,90
296,24,6134,2,0,B|296:72|336:104,1,90,2|0
256,336,6688,1,0
328,304,6873,6,0,B|424:304|480:216,2,180,2|0|2
256,336,7796,1,0
184,304,7981,2,0,B|88:304|32:216,1,180,0|2
104,176,8534,2,0,B|152:176|176:224,1,90
256,256,8904,1,0
408,176,9088,2,0,B|360:176|336:224,1,90,2|0
256,48,9642,1,0
256,48,9827,1,2
256,240,10196,6,0,B|328:240|328:240|360:264|360:264|432:264,1,180,0|2
464,192,10750,1,0
428,120,10934,2,0,B|360:120|360:120|328:144|328:144|256:144,1,180,0|2
176,144,11488,2,0,B|128:144|96:104,1,90
72,192,11858,1,0
176,240,12042,2,0,B|128:240|96:280,1,90,2|0
256,192,12596,6,0,B|344:192,1,90,0|2
392,128,12965,1,0
392,128,13058,1,0
392,128,13150,2,0,B|448:144|464:192|448:240|392:256,1,180,4|8
344,192,13704,2,0,B|528:192,2,180
304,264,14627,1,0
232,232,14811,1,0
232,152,14996,1,8
304,120,15181,1,0
152,64,15550,6,0,B|104:64|72:104,1,90,0|8
152,320,15919,2,0,B|104:320|72:280,1,90
32,192,16288,1,0
32,192,16473,2,0,B|216:192,1,180,8|0
336,80,17211,5,8
408,112,17396,1,0
432,192,17581,1,0
408,272,17765,1,0
336,304,17950,1,8
256,304,18134,2,0,B|168:304|168:304|104:232,1,180
256,80,18688,6,0,B|168:80|168:80|104:152,2,180,8|0|8
336,80,19611,2,0,B|432:80|488:168,1,180
424,216,20165,2,0,B|376:216|352:264,1,90,8|0
424,296,20534,1,0
352,336,20719,1,0
280,296,20904,1,8
280,216,21088,2,0,B|216:216|184:264|184:264|112:264,1,180
115,264,21642,1,8
64,200,21827,6,0,B|16:120,1,90
64,40,22196,2,0,B|112:120,1,90,0|8
152,184,22565,2,0,B|224:104|168:16,1,180
256,32,23119,1,8
341,18,23304,2,0,B|288:104|359:183,1,180
359,183,23858,1,8
184,256,24227,1,0
256,296,24412,1,0
328,256,24596,1,8
256,32,24965,6,0,B|256:216,1,180,4|8
184,256,25519,2,0,B|257:309|257:309|328:256,2,180
136,320,26442,2,0,B|216:376,1,90
376,320,26811,2,0,B|296:376,1,90,8|0
184,256,27365,6,0,B|136:176,1,90,0|8
256,102,27734,2,0,B|256:192,1,90
328,256,28104,2,0,B|376:176,1,90,0|8
256,352,28658,1,0
168,96,29027,6,0,B|160:48|112:32,2,90,8|0|0
344,96,29581,2,0,B|352:48|400:32,2,90,0|8|0
256,236,30319,1,0
192,184,30504,6,0,B|248:168|256:128|256:128|264:168|320:184,2,180,8|0|8
128,232,31427,2,0,B|112:288|72:296|72:296|112:304|128:360,1,180
128,360,31981,1,8
180,296,32165,1,0
216,368,32350,1,0
296,368,32534,1,0
332,296,32719,1,8
383,231,32904,2,0,B|400:288|440:296|440:296|400:304|383:360,1,180
383,360,33458,1,8
332,296,33642,6,0,B|300:264|300:264|300:216,1,90
256,152,34011,1,0
180,296,34196,2,0,B|212:264|212:264|212:216,1,90,8|0
176,56,34750,1,0
256,32,34934,1,8
336,56,35119,2,0,B|384:80|392:128|384:176|336:200,1,180
176,328,35673,2,0,B|128:304|120:256|128:208|176:184,1,180,8|0
256,152,36227,2,0,B|256:240,1,90,0|8
256,242,36781,1,4
184,72,48596,6,0,B|208:120|256:128|304:120|328:72,2,180,4|0|0
256,44,49519,2,0,B|256:224,1,180
256,224,50073,1,0
128,136,50442,1,0
128,136,50627,2,0,B|128:232|32:280,1,180
96,336,51181,2,0,B|144:336|176:296,1,90
256,280,51550,6,0,B|256:192,2,90
337,298,52104,2,0,B|368:336|416:336,1,90
476,278,52473,2,0,B|384:232|384:136,1,180
384,56,53027,1,0
312,96,53211,2,0,B|232:96|232:160|144:160,1,180
56,296,53950,2,0,B|136:296|136:232|224:232,1,180
220,232,54504,1,0
368,304,54873,6,0,B|416:304|448:264,1,90
446,266,55150,1,0
448,144,55427,2,0,B|352:144|296:56,1,180
232,112,55981,1,0
168,56,56165,1,0
88,56,56350,1,0
24,112,56534,2,0,B|48:160,1,45
96,264,56904,2,0,B|192:264|256:336,1,180
255,335,57458,6,0,B|320:272,1,90
448,256,57827,2,0,B|383:319,1,90
328,280,58196,1,0
328,280,58288,1,0
328,280,58381,2,0,B|328:184|400:120,1,180
336,72,58934,1,0
256,96,59119,1,0
176,72,59304,1,0
112,120,59488,2,0,B|184:184|184:280,1,180
256,96,60227,6,0,B|256:40,2,45,0|0|4
256,240,60781,1,8
192,296,60965,2,0,B|256:360|256:360|320:296,1,180
376,240,61519,2,0,B|408:208|408:152,1,90,8|0
328,176,61888,1,0
256,136,62073,1,0
184,176,62258,1,8
136,240,62442,2,0,B|104:208|104:152,1,90
256,40,62996,1,8
168,344,63365,5,0
216,280,63550,1,0
296,280,63734,1,8
344,344,63919,2,0,B|384:304|384:264|384:224|344:184,1,180
256,184,64473,1,8
168,183,64658,6,0,B|128:224|128:264|128:304|168:344,1,180
216,280,65211,1,8
256,352,65396,1,0
296,280,65581,1,0
208,112,65950,1,8
208,112,66319,6,0,B|248:72|256:37|256:37|264:72|304:112,1,180,0|8
336,184,66873,2,0,B|256:224|256:224|176:184,1,180
128,248,67427,2,0,B|48:200,1,90,8|0
384,248,68165,2,0,B|464:200,1,90,8|0
176,352,68719,6,0,B|216:328|216:272,1,90,0|8
336,352,69088,2,0,B|296:328|296:272,1,90
256,120,69642,1,8
184,88,69827,2,0,B|208:40|256:32|304:40|328:88,1,180,0|0
360,160,70381,1,8
400,232,70565,1,0
384,256,70658,1,0
368,280,70750,2,0,B|320:280|296:328,1,90
144,280,71119,2,0,B|192:280|216:328,1,90,8|0
215,326,71396,1,0
256,192,71673,6,0,B|168:192,1,90,0|8
120,256,72042,1,0
120,256,72135,1,0
120,256,72227,2,0,B|64:240|48:192|64:144|120:128,1,180,4|8
168,192,72781,2,0,B|-16:192,2,180
208,120,73704,1,0
280,152,73888,1,0
280,232,74073,1,8
208,264,74258,1,0
360,320,74627,6,0,B|408:320|440:280,1,90,0|8
360,64,74996,2,0,B|408:64|440:104,1,90
480,192,75365,1,0
480,192,75550,2,0,B|296:192,1,180,8|0
176,304,76288,5,8
104,272,76473,1,0
80,192,76658,1,0
104,112,76842,1,0
176,80,77027,1,8
256,80,77211,2,0,B|344:80|344:80|408:152,1,180
256,304,77765,6,0,B|344:304|344:304|408:232,2,180,8|0|8
176,304,78688,2,0,B|80:304|24:216,1,180
88,168,79242,2,0,B|136:168|160:120,1,90,8|0
88,88,79611,1,0
160,48,79796,1,0
232,88,79981,1,8
232,168,80165,2,0,B|296:168|328:120|328:120|400:120,1,180
397,120,80719,1,8
448,184,80904,6,0,B|496:264,1,90
448,344,81273,2,0,B|400:264,1,90,0|8
360,200,81642,2,0,B|288:280|344:368,1,180
256,352,82196,1,8
170,365,82381,2,0,B|224:280|153:201,1,180
152,200,82934,1,8
328,128,83304,1,0
256,88,83489,1,0
184,128,83673,1,8
256,352,84042,6,0,B|256:168,1,180,4|8
328,128,84596,2,0,B|255:75|255:75|184:128,2,180
376,64,85519,2,0,B|296:8,1,90
136,64,85888,2,0,B|216:8,1,90,8|0
328,128,86442,6,0,B|376:208,1,90,0|8
256,282,86811,2,0,B|256:192,1,90
184,128,87181,2,0,B|136:208,1,90,0|8
256,32,87735,1,0
344,288,88104,6,0,B|352:336|400:352,2,90,8|0|0
168,288,88658,2,0,B|160:336|112:352,2,90,0|8|0
256,148,89396,1,0
320,200,89581,6,0,B|264:216|256:256|256:256|248:216|192:200,2,180,8|0|8
384,152,90504,2,0,B|400:96|440:88|440:88|400:80|384:24,1,180
384,24,91058,1,8
332,88,91242,1,0
296,16,91427,1,0
216,16,91611,1,0
180,88,91796,1,8
129,153,91981,2,0,B|112:96|72:88|72:88|112:80|129:24,1,180
129,24,92535,1,8
180,88,92719,6,0,B|212:120|212:120|212:168,1,90
256,232,93088,1,0
332,88,93273,2,0,B|300:120|300:120|300:168,1,90,8|0
336,328,93827,1,0
256,352,94011,1,8
176,328,94196,2,0,B|128:304|120:256|128:208|176:184,1,180
336,56,94750,2,0,B|384:80|392:128|384:176|336:200,1,180,8|0
256,232,95304,2,0,B|256:144,1,90,0|8
256,142,95858,1,4
200,248,107673,6,0,B|216:296|256:315|256:315|296:296|312:248,2,180,4|0|0
256,192,108596,1,0
312,136,108781,2,0,B|296:88|256:69|256:69|216:88|200:136,1,180
136,192,109334,2,0,B|48:192,2,90
256,304,110073,2,0,B|328:304|328:304|360:280|360:280|432:280,1,180
488,232,110627,1,0
488,152,110811,5,0
428,104,110996,2,0,B|360:104|360:104|328:80|328:80|256:80,1,180
176,80,111550,1,0
104,112,111734,1,0
104,192,111919,2,0,B|160:200|152:256|152:256|200:272|200:328,1,180
256,384,112473,1,0
312,323,112658,2,0,B|312:272|360:256|360:256|352:200|408:192,1,180
256,48,113396,2,0,B|256:136,1,90
192,192,113765,6,0,B|128:256,1,90,0|8
256,362,114134,2,0,B|256:272,1,90
320,192,114504,2,0,B|384:256,1,90,0|8
400,96,115058,1,0
336,48,115242,1,0
256,32,115427,2,0,B|208:32|184:80,1,90,8|0
185,78,115704,2,0,B|113:80|113:80|73:128,1,135
152,152,116165,1,8
96,208,116350,1,0
152,264,116534,6,0,B|240:264|304:352,1,180,0|8
302,349,117088,2,0,B|376:296,1,90
392,176,117458,2,0,B|318:229,2,90,0|8|0
448,240,118011,1,0
375,296,118196,1,0
319,229,118381,1,8
392,176,118565,1,0
448,240,118750,1,0
64,240,119119,6,0,B|144:192|144:88,2,180,8|4|8
24,168,120042,1,0
64,96,120227,1,0
144,88,120411,1,0
208,136,120596,2,0,B|256:136|280:88,1,90,8|0
424,80,120965,2,0,B|376:80|352:128,1,90
279,89,121334,1,8
352,126,121519,2,0,B|384:224|304:288,1,180
300,368,122073,2,0,B|204:368,1,90,8|0
207,287,122442,6,0,B|128:224|159:126,1,180,0|8
176,48,122996,2,0,B|128:48|96:8,2,90
256,56,123550,1,8
336,48,123734,2,0,B|384:48|416:8,2,90
256,56,124288,1,8
208,120,124473,6,0,B|160:152|168:200|168:200|216:224|184:272,1,180
216,344,125027,1,8
296,344,125211,1,0
326,270,125396,2,0,B|296:224|344:200|344:200|352:152|304:120,1,180,0|8
256,56,125950,1,0
304,120,126134,2,0,B|380:64|477:95,1,180,0|8
464,176,126688,2,0,B|448:264,1,90
352,320,127058,2,0,B|368:232,2,90,0|8|0
192,320,127796,6,0,B|144:320|112:360,1,90,0|8
32,360,128165,1,0
72,288,128350,2,0,B|32:256|32:208,1,90
112,216,128719,1,8
152,144,128904,2,0,B|192:120|192:64,1,90
256,16,129273,1,0
320,67,129458,6,0,B|320:120|360:144,1,90,8|0
384,160,129734,1,0
408,176,129827,2,0,B|496:176,1,90
456,256,130196,2,0,B|360:256,1,90
366,256,130473,2,0,B|288:256|264:336,1,135
184,330,130934,1,0
128,272,131119,1,0
144,256,131211,1,0
160,240,131304,6,0,B|224:176|184:72,1,180,4|8
327,72,131858,2,0,B|288:176|352:240,2,180
408,72,132781,2,0,B|456:72|480:120,1,90
408,152,133150,1,8
480,192,133334,2,0,B|480:288|392:344,1,180
312,344,133888,6,0,B|264:344|232:304,1,90,8|0
224,224,134258,2,0,B|272:224|304:264,1,90
233,306,134627,2,0,B|164:306|164:306|136:336|136:336|64:336,1,180,8|0
32,176,135365,2,0,B|80:176|104:128,1,90,8|0
32,96,135734,1,0
104,56,135919,2,0,B|192:56,1,90,0|8
272,80,136288,2,0,B|296:144|360:144|360:144|424:144,1,180
272,304,136842,6,0,B|296:240|360:240|360:240|424:240,2,180,8|0|8
352,320,137765,2,0,B|352:256|320:200|264:176,1,180
192,216,138319,2,0,B|144:216|118:263,1,90,8|0
38,263,138688,1,0
40,184,138873,2,0,B|88:184|113:136,1,90,0|8
176,88,139242,2,0,B|264:88|264:88|328:24,1,180
329,22,139796,6,0,B|408:80,1,90,8|0
464,128,140165,1,0
464,208,140350,2,0,B|416:208|392:256,1,90,0|8
464,288,140719,2,0,B|440:336|388:336|388:336|336:336|312:368,1,180
256,312,141273,1,8
199,367,141458,2,0,B|176:336|124:336|124:336|72:336|48:288,1,180
120,256,142011,2,0,B|183:193|183:193|120:128,1,180,8|0
72,192,142565,1,0
72,192,142750,6,0,B|256:192,1,180,8|4
424,192,143488,1,8
376,124,143673,2,0,B|328:44|224:44,2,180
336,192,144596,2,0,B|336:240|384:264,1,90
424,192,144965,1,8
464,264,145150,6,0,B|468:309|426:348|371:360|333:326,1,180
256,360,145704,1,8
256,280,145888,2,0,B|256:192,2,90
178,326,146442,2,0,B|141:360|86:348|44:309|48:264,2,180,8|0|8
129,263,147365,2,0,B|176:240|176:192,1,90
88,192,147734,1,0
24,144,147919,1,8
88,96,148104,2,0,B|136:96|152:56|152:16|152:16|216:16,1,180
423,95,148658,6,0,B|376:96|360:56|360:16|360:16|295:16,2,180,8|0|8
480,152,149581,2,0,B|480:248|376:288,1,180
296,296,150134,2,0,B|296:248|336:216,1,90,8|0
256,192,150504,1,0
216,296,150688,2,0,B|216:248|176:216,1,90,0|8
132,286,151058,2,0,B|32:248|32:152,1,180
80,88,151611,1,8
144,40,151796,2,0,B|192:40|216:88,1,90
368,40,152165,2,0,B|320:40|296:88,1,90,0|8
336,160,152534,6,0,B|256:200|256:200|176:160,1,180
136,232,153088,2,0,B|216:272,1,90,8|0
216,272,153365,1,0
448,192,153642,1,0
376,232,153827,2,0,B|296:272,1,90,8|0
295,272,154104,1,0
64,192,154381,1,0
104,120,154565,2,0,B|152:120|176:72,1,90,8|0
192,56,154842,1,0
208,40,154934,6,0,B|280:40|280:40|312:64|312:64|384:64,1,180,4|8
448,24,155488,2,0,B|483:63|448:104,1,90
392,168,155858,1,0
312,168,156042,2,0,B|264:168|232:208,1,90,8|0
304,248,156411,2,0,B|339:289|304:328,2,90,0|0|8
232,288,156965,2,0,B|416:288,1,180
464,232,157519,6,0,B|504:204|504:152,1,90,8|0
456,88,157888,2,0,B|360:88|296:16,1,180,0|8
256,88,158442,2,0,B|256:176,1,90
56,88,158811,2,0,B|152:88|216:16,1,180
184,136,159365,2,0,B|184:216|184:216|215:260|184:312,1,180,0|8
326,309,159919,2,0,B|297:260|328:216|328:216|328:136,1,180
328,56,160473,1,8
256,96,160658,1,0
184,56,160842,6,0,B|88:56|32:144,1,180,0|8
96,192,161396,1,0
34,243,161581,2,0,B|88:328|184:328,1,180,0|8
264,328,162134,2,0,B|312:328|344:288,1,90
272,248,162504,1,0
336,192,162688,2,0,B|424:192,2,90,8|0|0
272,136,163242,1,0
342,93,163427,6,0,B|312:56|264:56,1,90,8|0
184,56,163796,1,0
144,128,163981,2,0,B|143:176|106:206,1,90,0|8
24,208,164350,2,0,B|20:253|62:292|117:304|155:270,1,180
154,270,164904,1,8
232,272,165088,6,0,B|280:272|312:312,1,90
240,352,165458,2,0,B|288:264,1,90,0|8
368,264,165827,2,0,B|372:219|330:180|275:168|237:202,2,180
408,336,166750,6,0,B|480:280|480:176,1,180,4|2
432,112,167304,2,0,B|384:32|280:32,1,180
200,32,167858,1,2
136,80,168042,2,0,B|88:104|88:152,1,90
136,304,168411,2,0,B|88:280|88:232,1,90,0|2
160,192,168781,2,0,B|344:192,1,180
336,112,169334,6,0,B|384:112|384:112|424:136,1,90,2|0
480,192,169704,1,0
420,250,169888,2,0,B|384:272|384:272|336:272,1,90,0|2
176,272,170442,2,0,B|80:272|32:176,1,180,0|2
32,96,170996,1,0
88,40,171181,2,0,B|136:40|168:80,1,90
216,144,171550,1,2
264,80,171734,2,0,B|360:80|424:152,1,180,0|0
264,304,172288,6,0,B|360:304|424:232,2,180,2|0|2
184,304,173211,2,0,B|96:304|96:240|16:240,1,180
24,160,173765,1,2
96,120,173950,2,0,B|144:96|144:40,1,90
264,40,174319,2,0,B|216:64|216:120,1,90,0|2
216,111,174688,2,0,B|312:112|376:184,1,180
375,183,175242,1,2
336,256,175427,6,0,B|296:344,1,90
176,256,175796,2,0,B|216:344,1,90,0|2
256,248,176165,2,0,B|256:64,1,180
256,68,176719,1,2
176,96,176904,2,0,B|128:96|96:136,1,90
336,96,177273,2,0,B|384:96|416:136,1,90,0|2
345,176,177642,2,0,B|161:176,1,180
165,176,178196,1,2
165,176,178381,1,0
256,192,178565,12,0,184104
