osu file format v6

[General]
AudioFilename: Cascada - Evacuate The Dancefloor.mp3
AudioLeadIn: 0
PreviewTime: 39190
Countdown: 1
SampleSet: Normal
StackLeniency: 0.7
Mode: 0
LetterboxInBreaks: 1

[Editor]
Bookmarks: 8009
DistanceSpacing: 1.20000004768372
BeatDivisor: 4
GridSize: 8

[Metadata]
Title:Evacuate The Dancefloor
Artist:Cascada
Creator:Symbolic
Version:Gladi
Source:
Tags:gladi symbolic lesjuh

[Difficulty]
HPDrainRate:4
CircleSize:4
OverallDifficulty:3
SliderMultiplier:1.4
SliderTickRate:1

[Events]
//Background and Video events
0,0,"Background.jpg"
//Break Periods
2,68211,74602
//Storyboard Layer 0 (Background)
//Storyboard Layer 1 (Fail)
//Storyboard Layer 2 (Pass)
//Storyboard Layer 3 (Foreground)
//Storyboard Sound Samples
//Background Colour Transformations
3,100,0,0,0

[TimingPoints]
452,472.44094488189,4,1,0,80,1,0
22538,-100,4,2,0,100,0,0
23129,-100,4,1,0,80,0,0
23365,-100,4,2,0,100,0,0
23719,-100,4,1,0,80,0,0
23955,-100,4,2,0,100,0,0
24900,-100,4,1,0,80,0,0
25137,-100,4,2,0,100,0,0
25727,-100,4,1,0,80,0,0
26200,-100,4,2,0,100,0,0
26908,-100,4,1,0,80,0,0
27144,-100,4,2,0,100,0,0
27499,-100,4,1,0,80,0,0
27735,-100,4,2,0,100,0,0
28680,-100,4,1,0,80,0,0
28916,-100,4,2,0,100,0,0
29507,-100,4,1,0,80,0,0
29979,-100,4,2,0,100,0,0
30688,-100,4,1,0,80,0,0
30924,-100,4,2,0,100,0,0
31278,-100,4,1,0,80,0,0
31514,-100,4,2,0,100,0,0
32577,-100,4,1,0,80,0,0
32814,-100,4,2,0,100,0,0
33286,-100,4,1,0,80,0,0
33759,-100,4,2,0,100,0,0
34231,-100,4,1,0,80,0,0
34585,-100,4,2,0,100,0,0
38129,-100,4,1,0,100,0,1
69428,-100,4,1,0,80,0,0
82892,-100,4,2,0,100,0,0
83601,-100,4,1,0,80,0,0
83837,-100,4,2,0,100,0,0
84192,-100,4,1,0,80,0,0
84428,-100,4,2,0,100,0,0
85491,-100,4,1,0,80,0,0
85727,-100,4,2,0,100,0,0
86200,-100,4,1,0,80,0,0
86672,-100,4,2,0,100,0,0
87381,-100,4,1,0,80,0,0
87617,-100,4,2,0,100,0,0
87971,-100,4,1,0,100,0,0
88207,-100,4,2,0,80,0,0
89270,-100,4,1,0,100,0,0
89507,-100,4,2,0,80,0,0
89979,-100,4,1,0,100,0,0
90452,-100,4,2,0,80,0,0
91160,-100,4,1,0,100,0,0
91396,-100,4,2,0,80,0,0
91751,-100,4,1,0,100,0,0
91987,-100,4,2,0,80,0,0
92932,-100,4,1,0,100,0,0
93286,-100,4,2,0,80,0,0
93759,-100,4,1,0,100,0,0
94231,-100,4,2,0,80,0,0
94703,-100,4,1,0,100,0,0
95058,-100,4,2,0,80,0,0
97656,-100,4,2,0,0,0,0
98601,-100,4,1,0,80,0,1
129900,-100,4,1,0,100,0,0

[HitObjects]
136,96,8011,5,4
64,136,8247,1,0
136,176,8483,2,0,B|160:256|128:336,1,140,8|0
376,208,9428,2,0,B|352:128|384:48,1,140,8|0
456,104,10137,2,0,B|456:192,1,70,0|8
376,208,10609,2,2,B|288:192|272:328|168:264,1,210,0|8
96,136,11790,1,4
80,56,12026,5,0
160,80,12263,1,8
328,64,12735,2,0,B|416:80,1,70
456,136,13207,2,0,B|368:152,1,70,8|0
328,208,13680,2,0,B|288:280|304:360,1,140,0|8
384,320,14389,2,2,B|488:248|448:104,1,210,0|8
304,64,15570,1,4
224,96,15806,5,0
288,144,16042,1,8
128,200,16514,2,0,B|104:280,1,70
168,320,16987,2,0,B|224:256|208:160,1,140,8|0
352,280,17932,1,8
400,216,18168,2,2,B|344:152|360:56,1,140,0|0
356,86,18877,1,8
280,48,19113,2,2,B|272:128,1,70,0|4
200,152,19585,5,0
264,200,19822,1,8
432,176,20294,2,0,B|464:256|432:328,1,140,0|8
368,360,21003,2,2,B|352:320|368:280,1,70,0|4
320,224,21475,5,0
280,296,21711,1,8
168,64,22420,1,0
88,48,22656,1,4
112,128,22892,6,2,B|120:184,2,35,2|0|0
184,280,23601,1,6
256,232,23837,1,0
264,312,24074,2,0,B|336:280|432:328,1,140,0|6
400,232,24782,1,0
472,280,25018,1,0
440,112,25491,1,6
272,96,25963,1,0
104,112,26436,1,6
168,160,26672,6,2,B|184:128,2,35,2|0|0
336,168,27381,1,6
392,232,27617,1,0
312,248,27853,2,0,B|256:224|232:296|176:264,1,140,0|6
176,184,28562,1,0
104,232,28798,1,0
88,64,29270,1,6
256,48,29743,1,0
424,64,30215,1,6
360,120,30452,6,2,B|344:88,2,35,2|0|0
216,200,31160,1,6
136,168,31396,1,0
152,248,31633,2,0,B|72:240|8:272,2,140,0|6|0
88,88,33050,1,6
256,72,33522,1,0
424,88,33995,1,6
336,232,34467,5,0
256,248,34703,1,0
176,232,34940,1,4
256,192,35412,12,2,37302
128,96,38247,5,4
64,152,38483,1,2
144,176,38719,2,2,B|200:168|248:232|296:208,2,140,10|2|10
88,232,39900,1,2
248,288,40373,1,0
328,280,40609,2,2,B|352:248|352:184,1,70,10|2
328,136,41081,2,6,B|256:112|168:144,2,140,6|14|4
400,96,42263,5,2
400,176,42499,2,2,B|376:232|448:256|416:312,2,140,10|2|10
472,136,43680,1,2
312,88,44152,1,0
232,112,44389,2,2,B|192:144|192:184,1,70,10|2
184,248,44861,2,6,B|256:272|344:240,2,140,6|14|4
128,184,46042,5,2
104,264,46278,1,10
24,112,46751,1,2
24,112,46987,1,2
96,72,47223,1,8
176,56,47459,2,2,B|248:112|240:200,1,140,2|0
248,256,48168,2,2,B|288:256|312:208,2,70,10|2|2
176,224,48877,1,0
184,304,49113,2,2,B|136:280|96:360|48:320,1,140,10|6
256,192,49822,12,8,52892
152,104,53365,5,4
80,152,53601,1,0
152,184,53837,2,2,B|208:160|248:232|296:200,2,140,10|2|10
152,264,55018,2,2,B|208:288|248:216|296:248,1,140,2|0
360,224,55727,2,2,B|440:224,1,70,10|2
496,176,56200,2,6,B|440:120|456:32,2,140,6|14|6
430,224,57381,6,2,B|360:224,1,70,2|10
240,104,58089,1,2
176,160,58326,2,2,B|160:232,1,70,2|10
224,288,58798,2,2,B|312:288|304:192,1,140,2|0
328,120,59507,1,10
384,184,59743,1,2
384,184,59979,2,6,B|424:144|496:184|520:136,2,140,6|14|6
328,248,61160,5,2
248,224,61396,2,2,B|208:152|248:80,1,140,10|2
312,40,62105,1,2
312,40,62341,2,2,B|328:120,1,70,10|2
488,160,63050,1,0
408,144,63286,1,10
432,224,63522,2,2,B|448:296,2,70,2|2|0
352,208,64231,2,2,B|288:200|280:272|192:224,1,140,14|6
256,192,64940,12,8,68011
152,120,76042,6,0,B|192:104|240:184|288:152,1,140,4|8
360,128,76751,1,0
344,208,76987,1,0
224,320,77459,2,0,B|152:352|72:312,2,140,8|0|8
304,296,78640,2,0,B|376:264|456:304,1,140
439,296,79349,1,8
424,216,79585,2,2,B|456:152,1,70,0|4
456,72,80058,5,0
376,112,80294,1,8
216,56,80766,2,0,B|176:144|224:216,1,140,0|8
288,168,81475,2,2,B|296:216|272:264,1,70,0|4
208,272,81948,2,0,B|160:264,2,35,0|0|8
376,280,82656,1,0
400,112,83129,1,4
400,112,83365,6,2,B|432:72,2,35,0|0|0
248,48,84074,1,6
168,72,84310,1,0
224,128,84546,2,0,B|240:208|208:288,1,140,0|6
136,240,85255,2,0,B|144:320,1,70
88,152,85963,1,6
256,136,86436,1,0
424,152,86908,1,6
352,192,87144,6,0,B|392:248,2,35,0|0|0
200,264,87853,1,6
128,216,88089,1,0
208,184,88326,2,0,B|240:112|208:40,1,140,0|6
128,24,89034,2,0,B|128:80|144:112,1,70
88,256,89743,1,6
256,272,90215,1,0
424,256,90688,1,6
368,192,90924,6,0,B|344:248,2,35,0|0|0
232,88,91633,1,6
152,96,91869,1,0
200,168,92105,2,0,B|208:248|152:328,1,140,0|6
88,272,92814,1,0
104,352,93050,1,0
88,160,93522,1,6
256,144,93995,1,0
424,160,94467,1,6
336,304,94940,5,0
256,320,95176,1,0
176,304,95412,1,6
256,192,95885,12,0,97774
384,96,98719,5,4
448,152,98955,1,2
368,176,99192,2,2,B|312:168|264:232|216:208,2,140,10|2|10
424,232,100373,1,2
264,288,100845,1,0
184,280,101081,2,2,B|160:248|160:184,1,70,10|2
184,136,101554,2,6,B|256:112|344:144,2,140,6|14|4
112,96,102735,5,2
112,176,102971,2,2,B|136:232|64:256|96:312,2,140,10|2|10
40,136,104152,1,2
200,88,104625,1,0
280,112,104861,2,2,B|320:144|320:184,1,70,10|2
328,248,105333,2,6,B|256:272|168:240,2,140,6|14|4
384,184,106514,5,2
408,264,106751,1,10
488,112,107223,1,2
488,112,107459,1,2
416,72,107696,1,8
336,56,107932,2,2,B|264:112|272:200,1,140,2|0
264,256,108640,2,2,B|224:256|200:208,2,70,10|2|2
336,224,109349,1,0
328,304,109585,2,2,B|376:280|416:360|464:320,1,140,10|6
256,192,110294,12,8,113365
360,104,113837,5,4
432,152,114074,1,0
360,184,114310,2,2,B|304:160|264:232|216:200,2,140,10|2|10
360,264,115491,2,2,B|304:288|264:216|216:248,1,140,2|0
152,224,116200,2,2,B|72:224,1,70,10|2
16,176,116672,2,6,B|72:120|56:32,2,140,6|14|6
82,224,117853,6,2,B|152:224,1,70,2|10
272,104,118562,1,2
336,160,118798,2,2,B|352:232,1,70,2|10
288,288,119270,2,2,B|200:288|208:192,1,140,2|0
184,120,119979,1,10
128,184,120215,1,2
128,184,120451,2,6,B|88:144|16:184|-8:136,2,140,6|14|6
184,248,121633,5,2
264,224,121869,2,2,B|304:152|264:80,1,140,10|2
200,40,122577,1,2
200,40,122814,2,2,B|184:120,1,70,10|2
24,160,123522,1,0
104,144,123759,1,10
80,224,123995,2,2,B|64:296,2,70,2|2|0
160,208,124703,2,2,B|224:200|232:272|320:224,1,140,14|6
256,192,125412,12,8,128483
