osu file format v6

[General]
AudioFilename: Cascada - Evacuate The Dancefloor.mp3
AudioLeadIn: 3000
PreviewTime: 39190
Countdown: 1
SampleSet: Soft
StackLeniency: 0.7
Mode: 0
LetterboxInBreaks: 1

[Editor]
Bookmarks: 8261,23615,38261,68497,80072,84088,98733,113851,128969
DistanceSpacing: 1
BeatDivisor: 4
GridSize: 8

[Metadata]
Title:Evacuate The Dancefloor
Artist:Cascada
Creator:Symbolic
Version:Easy
Source:
Tags:gladi symbolic lesjuh

[Difficulty]
HPDrainRate:4
CircleSize:3
OverallDifficulty:4
SliderMultiplier:1.8
SliderTickRate:2

[Events]
//Background and Video events
0,0,"Background.jpg"
//Break Periods
2,68211,78738
//Storyboard Layer 0 (Background)
//Storyboard Layer 1 (Fail)
//Storyboard Layer 2 (Pass)
//Storyboard Layer 3 (Foreground)
//Storyboard Sound Samples
//Background Colour Transformations
3,100,0,0,0

[TimingPoints]
452,472.44094488189,4,2,0,100,1,0
23365,-100,4,1,0,50,0,0
35412,-100,4,1,0,0,0,0
38247,-100,4,1,0,100,0,1
38483,-100,4,1,0,80,0,1
39192,-100,4,1,0,100,0,1
39428,-100,4,1,0,80,0,1
42026,-100,4,1,0,100,0,1
42263,-100,4,1,0,80,0,1
42971,-100,4,1,0,100,0,1
43207,-100,4,1,0,80,0,1
45333,-100,4,2,0,100,0,1
45806,-100,4,1,0,100,0,1
46042,-100,4,1,0,80,0,1
46751,-100,4,1,0,100,0,1
46987,-100,4,1,0,80,0,1
49349,-100,4,2,0,100,0,0
53365,-100,4,1,0,100,0,1
53601,-100,4,1,0,80,0,1
54310,-100,4,1,0,100,0,1
54664,-100,4,1,0,80,0,1
57144,-100,4,1,0,100,0,1
57381,-100,4,1,0,80,0,1
58089,-100,4,1,0,100,0,1
58326,-100,4,1,0,80,0,1
60452,-100,4,2,0,100,0,1
60924,-100,4,1,0,100,0,1
61160,-100,4,1,0,80,0,1
61869,-100,4,1,0,100,0,1
62105,-100,4,1,0,80,0,1
64467,-100,4,2,0,100,0,0
84074,-100,4,1,0,50,0,0
95885,-100,4,1,0,0,0,0
98719,-100,4,1,0,100,0,1
98955,-100,4,1,0,80,0,1
99428,-100,4,1,0,100,0,1
99900,-100,4,1,0,80,0,1
102263,-100,4,1,0,100,0,1
102735,-100,4,1,0,80,0,1
103207,-100,4,1,0,100,0,1
103680,-100,4,1,0,80,0,1
105806,-100,4,2,0,100,0,1
106042,-100,4,1,0,100,0,1
106514,-100,4,1,0,80,0,1
107223,-100,4,1,0,100,0,1
107459,-100,4,1,0,80,0,1
110176,-100,4,2,0,100,0,0
113837,-100,4,1,0,100,0,1
114074,-100,4,1,0,80,0,1
114782,-100,4,1,0,100,0,1
115018,-100,4,1,0,80,0,1
115255,-100,4,1,0,80,0,1
117617,-100,4,1,0,100,0,1
117853,-100,4,1,0,80,0,1
118562,-100,4,1,0,100,0,1
118798,-100,4,1,0,80,0,1
119034,-100,4,1,0,80,0,1
120924,-100,4,2,0,100,0,1
121160,-100,4,1,0,100,0,1
121633,-100,4,1,0,80,0,1
122341,-100,4,1,0,100,0,1
122577,-100,4,1,0,80,0,1
125294,-100,4,2,0,100,0,0

[HitObjects]
168,112,8011,2,0,B|88:192|184:296,1,180,0|8
344,272,8955,2,0,B|424:192|328:88,1,180,0|8
346,110,9900,1,0
165,273,10373,1,8
165,273,10609,1,0
488,192,11790,5,0
336,104,12263,2,0,B|256:24|152:120,1,180,8|0
176,280,13207,2,0,B|256:360|360:264,2,180,8|0|8
128,208,14389,1,0
440,72,15333,6,0,B|320:72|280:192,1,180
218,225,16042,2,0,B|192:312|72:312,1,180,8|0
24,240,16751,2,0,B|8:136,1,90,0|8
184,224,17459,6,0,B|224:128|312:264|328:136,1,180,0|8
324,155,18168,1,0
56,184,18877,1,2
280,336,19585,5,0
192,320,19822,2,0,B|208:232|312:232|344:272,2,180,8|0|8
232,48,21475,5,0
320,64,21711,2,0,B|304:152|200:152|168:112,2,180,8|0|8
64,320,23601,6,0,B|152:264,2,90,8|0|0
256,320,24546,2,0,B|256:224,2,90,8|0|0
448,320,25491,2,0,B|360:264,2,90,8|0|0
296,216,26436,1,8
296,216,26672,1,0
64,64,27381,6,0,B|152:120,2,90,8|0|0
256,64,28326,2,0,B|256:160,2,90,8|0|0
448,64,29270,2,0,B|360:120,2,90,8|0|0
296,168,30215,1,8
296,168,30452,1,0
72,320,31160,6,0,B|152:264|248:248,1,180,8|0
312,296,31869,1,0
320,208,32105,2,0,B|248:136|224:40,1,180,8|0
408,56,33050,6,0,B|480:128|504:224,1,180,8|0
432,264,33759,1,0
344,264,33995,1,8
256,264,34231,1,0
168,264,34467,1,0
80,264,34703,1,0
256,192,35412,12,0,37302
104,192,37774,6,0,B|224:136,1,90
256,208,38247,1,2
432,232,38719,1,8
392,56,39192,1,2
392,56,39428,1,0
304,56,39664,5,8
304,56,39900,2,2,B|277:154|171:178,1,180
180,81,40609,2,0,B|82:119|26:215,2,180,8|2|10
256,208,42026,5,2
80,232,42499,1,8
120,56,42971,1,2
120,56,43207,1,0
208,56,43444,5,8
208,56,43680,2,2,B|234:154|340:178,1,180
331,81,44389,2,0,B|429:119|485:215,2,180,8|0|12
352,264,45806,6,0,B|160:288|192:112,2,270,2|2|8
440,256,47459,6,2,B|472:160|448:56,1,180
360,72,48168,1,8
184,56,48640,1,0
360,72,49113,1,8
256,320,49822,5,0
168,304,50058,2,0,B|40:152,2,180,8|0|8
256,320,51239,1,0
344,304,51475,2,0,B|472:152,2,180,0|8|0
344,304,52656,1,0
344,304,52892,1,8
256,176,53365,5,2
80,152,53837,1,8
120,328,54310,1,2
120,328,54546,1,0
208,328,54782,5,8
208,328,55018,2,2,B|234:229|340:205,1,180
331,302,55727,2,0,B|429:264|485:168,2,180,8|2|10
256,176,57144,5,2
432,152,57617,1,8
392,328,58089,1,2
392,328,58326,1,0
304,328,58562,5,8
304,328,58798,2,2,B|277:229|171:205,1,180
180,302,59507,2,0,B|82:264|26:168,2,180,0|0|12
160,120,60924,6,0,B|352:96|320:272,2,270,2|2|8
72,128,62577,6,2,B|40:224|64:328,1,180
152,312,63286,1,8
328,328,63759,1,0
152,312,64231,1,8
256,64,64940,5,0
344,80,65176,2,0,B|472:232,2,180,8|0|8
256,64,66357,1,0
168,80,66593,2,0,B|40:232,2,180,0|8|0
168,80,67774,1,0
168,80,68011,1,8
48,336,80058,5,0
136,320,80294,2,0,B|176:232|256:376|280:256,1,180,8|0
360,240,81003,1,0
440,272,81239,1,8
464,48,81948,5,0
376,64,82184,2,0,B|336:152|256:8|232:128,1,180,8|0
152,144,82892,1,0
72,112,83129,1,8
448,320,84074,6,0,B|360:264,2,90,8|0|0
256,320,85018,2,0,B|256:224,2,90,8|0|0
64,320,85963,2,0,B|152:264,2,90,8|0|0
216,216,86908,1,8
216,216,87144,1,0
448,64,87853,6,0,B|360:120,2,90,8|0|0
256,64,88798,2,0,B|256:160,2,90,8|0|0
64,64,89743,2,0,B|152:120,2,90,8|0|0
216,168,90688,1,8
216,168,90924,1,0
440,320,91633,6,0,B|360:264|264:248,1,180,8|0
200,296,92341,1,0
192,208,92577,2,0,B|264:136|288:40,1,180,8|0
104,56,93522,6,0,B|32:128|8:224,1,180,8|0
80,264,94231,1,0
168,264,94467,1,8
256,264,94703,1,0
344,264,94940,1,0
432,264,95176,1,0
256,192,95885,12,0,97774
408,192,98247,6,0,B|288:136,1,90
256,208,98719,1,2
80,232,99192,1,8
120,56,99664,1,2
120,56,99900,1,0
208,56,100137,5,8
208,56,100373,2,2,B|235:154|341:178,1,180
332,81,101081,2,0,B|430:119|486:215,2,180,8|2|10
256,208,102499,5,2
432,232,102971,1,8
392,56,103444,1,2
392,56,103680,1,0
304,56,103916,5,8
304,56,104152,2,2,B|278:154|172:178,1,180
181,81,104861,2,0,B|83:119|27:215,2,180,8|0|12
160,264,106278,6,0,B|352:288|320:112,2,270,2|2|8
72,256,107932,6,2,B|40:160|64:56,1,180
152,72,108640,1,8
328,56,109113,1,0
152,72,109585,1,8
256,320,110294,5,0
344,304,110530,2,0,B|472:152,2,180,8|0|8
256,320,111711,1,0
168,304,111948,2,0,B|40:152,2,180,0|8|0
168,304,113129,1,0
168,304,113365,1,8
256,176,113837,5,2
432,152,114310,1,8
392,328,114782,1,2
392,328,115018,1,0
304,328,115255,5,8
304,328,115491,2,2,B|278:229|172:205,1,180
181,302,116200,2,0,B|83:264|27:168,2,180,8|2|10
256,176,117617,5,2
80,152,118089,1,8
120,328,118562,1,2
120,328,118798,1,0
208,328,119034,5,8
208,328,119270,2,2,B|235:229|341:205,1,180
332,302,119979,2,0,B|430:264|486:168,2,180,8|0|12
352,120,121396,6,0,B|160:96|192:272,2,270,2|2|8
440,128,123050,6,2,B|472:224|448:328,1,180
360,312,123759,1,8
184,328,124231,1,0
360,312,124703,1,8
256,64,125412,5,0
168,80,125648,2,0,B|40:232,2,180,8|0|8
256,64,126829,1,0
344,80,127066,2,0,B|472:232,2,180,0|8|0
344,80,128247,1,0
344,80,128483,1,8
