osu file format v13

[General]
AudioFilename: Dream on Dreamer (chincore mix).mp3
AudioLeadIn: 0
PreviewTime: 31031
Countdown: 0
SampleSet: None
StackLeniency: 0.7
Mode: 0
LetterboxInBreaks: 0
EpilepsyWarning: 1
WidescreenStoryboard: 1

[Editor]
DistanceSpacing: 1
BeatDivisor: 4
GridSize: 4
TimelineZoom: 1.9

[Metadata]
Title:Dream on Dreamer (Nightcore Mix)
TitleUnicode:Dream on Dreamer (Nightcore Mix)
Artist:Cascada
ArtistUnicode:Cascada
Creator:XinCrin
Version:Normal
Source:
Tags:rave trance techno perfect day remix mancusojuanmattos mancuso_JM_ DJ Manian
BeatmapID:489001
BeatmapSetID:205777

[Difficulty]
HPDrainRate:4
CircleSize:3.5
OverallDifficulty:4
ApproachRate:5
SliderMultiplier:0.999999999999999
SliderTickRate:1

[Events]
//Background and Video events
0,0,"BG.jpg",0,0
//Break Periods
2,105858,115709
//Storyboard Layer 0 (Background)
//Storyboard Layer 1 (Fail)
//Storyboard Layer 2 (Pass)
//Storyboard Layer 3 (Foreground)
//Storyboard Sound Samples

[TimingPoints]
179,351.596835628479,4,1,1,100,1,0
2640,-100,4,2,1,40,0,0
25406,-100,4,1,1,40,0,0
30943,-100,4,1,1,60,0,0
34723,-100,4,1,2,40,0,0
34899,-100,4,1,1,60,0,0
40876,-100,4,2,1,80,0,0
42282,-100,4,1,1,70,0,0
55028,-100,4,1,2,70,0,1
64784,-100,4,2,1,50,0,0
66279,-100,4,1,1,80,0,1
76123,-100,4,1,1,70,0,0
87287,-100,4,2,1,70,0,0
88693,-100,4,1,1,70,0,0
97131,-100,4,1,2,70,0,0
100208,-100,4,1,2,70,0,0
116909,-100,4,1,2,40,0,0
128160,-100,4,1,1,70,0,1
129566,-100,4,1,2,70,0,1
129918,-100,4,1,1,60,0,1
139323,-100,4,2,1,50,0,0
139411,-100,4,1,1,70,0,1
150750,-100,4,1,1,70,0,0
150838,-100,4,2,1,5,0,0

[Colours]
Combo1 : 85,170,255
Combo2 : 185,115,115
Combo3 : 180,126,156
Combo4 : 132,131,186

[HitObjects]
316,40,2991,6,0,L|424:44,1,99.9999999999999,2|0,0:0|0:0,0:0:0:0:
456,72,3519,2,0,P|472:124|428:208,1,150
332,224,4398,2,0,L|232:232,1,99.9999999999999,2|0,0:0|0:0,0:0:0:0:
184,240,4925,2,0,P|144:268|44:252,1,150
108,172,5804,6,0,B|88:120|88:120|96:88|96:88|72:28,2,150,2|2|0,0:0|0:0|0:0,0:0:0:0:
208,168,7210,2,0,L|308:176,1,99.9999999999999,2|0,0:0|0:0,0:0:0:0:
352,208,7738,2,0,P|400:252|436:256,1,99.9999999999999,2|2,0:0|0:0,0:0:0:0:
480,244,8265,1,0,0:0:0:0:
432,156,8617,6,0,B|424:116|384:100|384:100|352:88,1,99.9999999999999,2|0,0:0|0:0,0:0:0:0:
316,84,9144,2,0,L|152:92,1,150
140,188,10023,2,0,B|152:236|152:236|184:276|256:268,2,150,2|0|0,0:0|0:0|0:0,0:0:0:0:
180,96,11430,5,2,0:0:0:0:
272,60,11781,2,0,B|332:76|348:140|348:140|396:132|436:164|452:204|436:256|404:272,2,300,0|2|0,0:0|0:0|0:0,0:0:0:0:
172,40,14242,6,0,B|100:56|76:128|76:128|56:188,1,200,4|8,0:0|0:0,0:0:0:0:
108,272,15297,1,0,0:0:0:0:
200,312,15649,2,0,B|244:284|312:296|312:296|340:332|400:332,1,200,2|8,0:0|0:0,0:0:0:0:
464,268,16704,1,0,0:0:0:0:
388,204,17055,6,0,P|332:172|312:140,1,99.9999999999999
264,56,17758,1,8,0:0:0:0:
200,132,18110,1,0,0:0:0:0:
116,188,18462,2,0,P|92:128|172:32,2,200,2|8|2,0:0|0:0|0:0,0:0:0:0:
276,312,20571,6,0,L|380:320,1,99.9999999999999,8|0,0:0|0:0,0:0:0:0:
456,264,21274,2,0,B|476:176|476:176|420:188|372:140,1,200,2|8,0:0|0:0,0:0:0:0:
304,76,22329,1,0,0:0:0:0:
212,116,22681,2,0,P|156:152|44:92,2,200,2|8|2,0:0|0:0|0:0,0:0:0:0:
408,152,24790,2,0,L|356:248,1,99.9999999999999,2|2,0:0|0:0,0:0:0:0:
304,324,25493,6,0,B|352:352|404:328,2,99.9999999999999,4|0|0,0:0|0:0|0:0,0:0:0:0:
256,236,26548,1,0,0:0:0:0:
208,324,26900,2,0,B|160:352|112:329,1,99.9999999999999,0|0,0:0|0:0,0:0:0:0:
32,268,27603,1,0,0:0:0:0:
72,176,27955,1,0,0:0:0:0:
256,192,28306,12,4,31119,0:0:0:0:
164,220,31822,6,0,P|152:172|164:120,1,99.9999999999999,0|8,0:0|0:0,0:0:0:0:
76,72,32525,2,0,P|52:156|76:264,1,200
160,316,33580,1,8,0:0:0:0:
260,300,33932,6,0,L|364:288,1,99.9999999999999,0|8,0:0|0:0,0:0:0:0:
456,264,34635,2,0,P|464:216|448:156,1,99.9999999999999,0|8,0:0|0:0,0:0:0:0:
416,72,35338,1,0,0:0:0:0:
312,96,35690,1,8,0:0:0:0:
216,124,36041,2,0,P|164:140|120:132,1,99.9999999999999,0|8,0:0|0:0,0:0:0:0:
48,204,36745,6,0,P|100:224|160:296,1,150
180,340,37448,2,0,L|280:340,1,99.9999999999999,0|8,0:0|0:0,0:0:0:0:
332,256,38151,1,0,0:0:0:0:
432,264,38503,1,8,0:0:0:0:
468,172,38854,2,0,B|464:136|472:112|472:112|456:96|444:68,1,99.9999999999999,0|8,0:0|0:0,0:0:0:0:
360,36,39557,1,0,0:0:0:0:
276,88,39909,1,8,0:0:0:0:
188,44,40261,6,0,P|136:44|88:60,1,99.9999999999999,0|8,0:0|0:0,0:0:0:0:
48,148,40964,1,2,0:0:0:0:
72,244,41315,1,2,0:0:0:0:
164,284,41667,2,0,P|213:284|261:269,1,99.9999999999999,2|0,0:0|0:0,0:0:0:0:
360,252,42370,6,0,P|328:184|324:104,1,150,4|0,0:0|0:0,0:0:0:0:
296,68,43073,2,0,L|192:68,1,99.9999999999999,0|8,0:0|0:0,0:0:0:0:
104,108,43777,2,0,B|104:148|116:164|116:164|100:184|96:208,1,99.9999999999999,0|8,0:0|0:0,0:0:0:0:
124,296,44480,1,0,0:0:0:0:
220,268,44831,1,8,0:0:0:0:
264,296,45007,1,0,0:0:0:0:
304,320,45183,6,0,P|344:344|404:344,1,99.9999999999999,0|8,0:0|0:0,0:0:0:0:
448,260,45886,2,0,B|444:224|464:200|464:200|464:164,1,99.9999999999999,0|8,0:0|0:0,0:0:0:0:
396,88,46589,1,0,0:0:0:0:
300,116,46941,2,0,P|252:132|196:124,1,99.9999999999999,8|0,0:0|0:0,0:0:0:0:
104,100,47644,1,8,0:0:0:0:
68,192,47996,6,0,L|124:336,1,150
168,352,48699,2,0,B|200:348|224:328|224:328|260:344,1,99.9999999999999,0|8,0:0|0:0,0:0:0:0:
356,360,49402,2,0,P|412:352|448:328,1,99.9999999999999,0|8,0:0|0:0,0:0:0:0:
416,232,50105,1,0,0:0:0:0:
460,144,50457,1,8,0:0:0:0:
400,64,50808,2,0,B|348:36|304:56|304:56|260:32|204:44,1,200
136,116,51863,1,8,0:0:0:0:
256,192,52215,12,4,53621,3:0:0:0:
84,192,55028,6,0,P|88:140|72:92,1,99.9999999999999,4|0,0:0|0:0,0:0:0:0:
156,40,55731,2,0,P|181:89|169:247,1,200
148,328,56786,1,0,0:0:0:0:
248,328,57137,2,0,P|300:312|352:320,1,99.9999999999999
444,340,57840,6,0,P|480:256|476:144,1,200
404,80,58895,2,0,P|432:56|456:44,2,50,0|0|0,0:0|0:0|0:0,0:0:0:0:
328,148,59598,1,0,0:0:0:0:
244,200,59950,2,0,P|184:216|136:208,1,99.9999999999999
60,264,60653,6,0,P|40:224|36:164,1,99.9999999999999
88,84,61356,1,0,0:0:0:0:
184,64,61708,2,0,P|172:32|156:12,2,50,0|0|0,0:0|0:0|0:0,0:0:0:0:
252,140,62411,2,0,L|360:152,1,99.9999999999999
448,120,63114,2,0,L|468:60,2,50,0|0|0,0:0|0:0|0:0,0:0:0:0:
436,220,63818,5,0,0:0:0:0:
488,308,64169,1,0,0:0:0:0:
396,348,64521,1,0,0:0:0:0:
300,320,64872,2,0,P|248:308|196:316,1,99.9999999999999,2|2,0:0|0:0,0:0:0:0:
108,344,65576,2,0,L|84:300,1,50,0|2,1:0|0:0,0:0:0:0:
80,252,65927,2,0,L|52:196,1,50,0|2,1:0|1:2,0:0:0:0:
72,164,66279,6,0,B|100:144|112:116|112:116|148:108,1,99.9999999999999,4|0,0:0|0:0,0:0:0:0:
244,132,66982,2,0,P|300:144|348:136,1,99.9999999999999
384,108,67509,2,0,P|420:96|440:96,1,50
488,180,68037,2,0,L|480:292,1,99.9999999999999
392,324,68740,1,0,0:0:0:0:
344,332,68916,1,0,0:0:0:0:
296,340,69091,1,0,0:0:0:0:
212,288,69443,5,0,0:0:0:0:
116,320,69795,1,0,0:0:0:0:
60,236,70146,2,0,L|8:208,2,50,0|0|0,0:0|0:0|0:0,0:0:0:0:
156,212,70849,2,0,P|168:164|159:114,1,99.9999999999999
80,56,71553,2,0,L|28:28,2,50,0|0|0,0:0|0:0|0:0,0:0:0:0:
176,28,72256,5,0,0:0:0:0:
256,88,72607,1,0,0:0:0:0:
348,48,72959,2,0,P|384:36|408:32,2,50,0|0|0,0:0|0:0|0:0,0:0:0:0:
324,144,73662,2,0,L|324:252,1,99.9999999999999
368,332,74365,2,0,P|404:332|428:324,2,50,0|0|0,0:0|0:0|0:0,0:0:0:0:
268,348,75069,5,0,0:0:0:0:
176,312,75420,1,0,0:0:0:0:
124,228,75772,1,0,0:0:0:0:
256,192,76123,12,4,77530,0:0:0:0:
112,256,78233,6,0,L|216:256,1,99.9999999999999,0|8,0:0|0:0,0:0:0:0:
304,292,78936,2,0,P|348:308|400:296,2,99.9999999999999,0|8|0,0:0|0:0|0:0,0:0:0:0:
284,192,79991,1,8,0:0:0:0:
240,100,80343,6,0,P|308:92|348:112,2,99.9999999999999,0|8|0,0:0|0:0|0:0,0:0:0:0:
180,180,81397,1,8,0:0:0:0:
112,256,81749,2,0,L|180:344,1,99.9999999999999,0|8,0:0|0:0,0:0:0:0:
276,348,82452,1,0,0:0:0:0:
368,312,82804,1,8,0:0:0:0:
468,300,83155,6,0,B|484:224|484:224|424:192|424:112,1,200
356,52,84210,2,0,L|252:32,1,99.9999999999999,8|0,0:0|0:0,0:0:0:0:
220,124,84913,2,0,L|116:104,1,99.9999999999999,8|0,0:0|0:0,0:0:0:0:
32,152,85617,1,8,0:0:0:0:
36,252,85968,2,0,B|76:324|148:324|148:324|216:320,2,200,0|0|2,0:0|0:0|0:0,0:0:0:0:
392,68,88781,6,0,P|424:104|436:156,1,99.9999999999999,4|8,0:0|0:0,0:0:0:0:
360,216,89484,1,0,0:0:0:0:
408,304,89836,1,8,0:0:0:0:
316,344,90187,2,0,L|100:360,1,200
52,284,91242,1,8,0:0:0:0:
104,196,91594,6,0,P|112:140|172:56,1,150,0|0,0:0|0:0,0:0:0:0:
208,44,92297,2,0,L|328:32,1,99.9999999999999,0|8,0:0|0:0,0:0:0:0:
384,88,93000,2,0,L|408:140,1,50
472,208,93527,2,0,P|472:264|444:304,1,99.9999999999999
400,312,94055,2,0,L|296:320,1,99.9999999999999,8|0,0:0|0:0,0:0:0:0:
220,256,94758,5,8,0:0:0:0:
124,288,95110,1,0,0:0:0:0:
92,192,95461,2,0,B|88:152|64:136|64:136|76:100,1,99.9999999999999,8|0,0:0|0:0,0:0:0:0:
160,48,96164,1,8,0:0:0:0:
236,112,96516,1,0,0:0:0:0:
316,48,96868,1,8,0:0:0:0:
404,100,97219,6,0,B|444:132|448:200|384:236|384:236|396:256|404:276,2,200,0|0|0,0:0|0:0|0:0,0:0:0:0:
256,232,99329,1,0,0:0:0:0:
108,100,100032,6,0,B|68:132|64:200|128:236|128:236|116:256|108:276,2,200,0|0|0,0:0|0:0|0:0,0:0:0:0:
256,232,102142,1,0,0:0:0:0:
256,192,102845,12,4,105658,0:0:0:0:
36,252,116909,5,0,0:0:0:0:
132,272,117260,1,0,0:0:0:0:
220,320,117612,2,0,L|336:328,1,99.9999999999999
420,328,118315,2,0,P|456:288|464:232,1,99.9999999999999
404,164,119018,1,0,0:0:0:0:
312,200,119370,1,0,0:0:0:0:
216,172,119721,6,0,B|176:168|176:168|152:176|152:176|108:168,1,99.9999999999999
68,84,120425,2,0,P|32:116|16:164,1,99.9999999999999
52,256,121128,1,0,0:0:0:0:
132,316,121479,2,0,L|240:328,1,99.9999999999999
312,268,122183,1,0,0:0:0:0:
400,312,122534,6,0,B|464:256|464:256|420:216|424:148,1,200
360,76,123589,2,0,P|408:56|464:64,2,99.9999999999999,0|0|0,0:0|0:0|0:0,0:0:0:0:
284,140,124644,2,0,L|184:152,1,99.9999999999999
176,252,125347,2,0,L|76:264,2,99.9999999999999,0|0|0,0:0|0:0|0:0,0:0:0:0:
272,280,126402,1,0,0:0:0:0:
256,192,126753,12,4,128160,0:0:0:0:
124,312,128863,6,0,L|116:212,1,99.9999999999999,0|8,0:0|0:0,0:0:0:0:
188,140,129566,2,0,P|236:130|285:138,1,99.9999999999999,0|8,0:0|0:0,0:0:0:0:
356,212,130269,2,0,P|404:220|460:208,2,99.9999999999999,0|8|0,0:0|0:0|0:0,0:0:0:0:
348,112,131324,5,8,0:0:0:0:
256,68,131676,1,0,0:0:0:0:
156,68,132027,1,8,0:0:0:0:
160,116,132203,2,0,L|148:220,1,99.9999999999999,0|0,0:0|0:0,0:0:0:0:
144,260,132731,2,0,P|188:288|236:288,1,99.9999999999999,8|0,0:0|0:0,0:0:0:0:
324,244,133434,1,8,0:0:0:0:
416,284,133785,6,0,B|428:248|420:216|420:216|444:212|460:200,1,99.9999999999999,0|8,0:0|0:0,0:0:0:0:
412,112,134488,2,0,P|356:112|312:96,1,99.9999999999999,0|8,0:0|0:0,0:0:0:0:
264,100,135016,2,0,L|212:120,1,50
116,116,135543,1,8,0:0:0:0:
52,192,135895,1,0,0:0:0:0:
104,276,136246,1,8,0:0:0:0:
204,260,136598,6,0,L|304:260,1,99.9999999999999,0|8,0:0|0:0,0:0:0:0:
376,328,137301,2,0,P|416:296|436:244,1,99.9999999999999,0|8,0:0|0:0,0:0:0:0:
416,152,138004,2,0,P|460:152|508:180,2,99.9999999999999,0|8|0,0:0|0:0|0:0,0:0:0:0:
328,196,139059,1,8,0:0:0:0:
288,228,139235,1,0,0:0:0:0:
244,252,139411,6,0,P|164:284|92:268,1,150,2|0,2:0|0:0,0:0:0:0:
84,228,140114,2,0,P|96:180|96:128,1,99.9999999999999,0|8,0:0|0:0,0:0:0:0:
148,44,140817,2,0,L|252:44,1,99.9999999999999,0|8,0:0|0:0,0:0:0:0:
312,120,141520,1,0,0:0:0:0:
404,84,141872,2,0,L|416:36,2,50,8|0|0,0:0|0:0|0:0,0:0:0:0:
396,184,142575,6,0,P|376:232|376:280,1,99.9999999999999,8|0,0:0|0:0,0:0:0:0:
300,344,143278,2,0,L|192:348,1,99.9999999999999,8|0,0:0|0:0,0:0:0:0:
140,268,143982,1,8,0:0:0:0:
56,216,144333,1,0,0:0:0:0:
104,128,144685,2,0,P|164:76|192:68,1,99.9999999999999,8|0,0:0|0:0,0:0:0:0:
280,88,145388,6,0,L|392:96,1,99.9999999999999,8|0,0:0|0:0,0:0:0:0:
396,192,146091,2,0,L|508:200,2,99.9999999999999,8|0|8,0:0|0:0|0:0,0:0:0:0:
320,260,147146,1,0,0:0:0:0:
256,336,147498,1,8,0:0:0:0:
192,260,147849,5,0,0:0:0:0:
188,160,148201,2,0,P|208:104|208:60,1,99.9999999999999,8|0,0:0|0:0,0:0:0:0:
303,63,148904,2,0,P|305:113|324:160,1,99.9999999999999,8|0,0:0|0:0,0:0:0:0:
404,220,149607,1,0,0:0:0:0:
494,264,149959,1,0,0:0:0:0:
450,354,150310,1,0,0:0:0:0:
404,332,150486,1,0,0:0:0:0:
360,310,150662,1,4,0:0:0:0:
256,192,150838,12,0,153475,0:0:0:0:
