osu file format v13

[General]
AudioFilename: Dream on Dreamer (chincore mix).mp3
AudioLeadIn: 0
PreviewTime: 31031
Countdown: 0
SampleSet: Normal
StackLeniency: 0.7
Mode: 0
LetterboxInBreaks: 0
EpilepsyWarning: 1
WidescreenStoryboard: 1

[Editor]
DistanceSpacing: 1.3
BeatDivisor: 4
GridSize: 4
TimelineZoom: 1.9

[Metadata]
Title:Dream on Dreamer (Nightcore Mix)
TitleUnicode:Dream on Dreamer (Nightcore Mix)
Artist:Cascada
ArtistUnicode:Cascada
Creator:XinCrin
Version:Insane
Source:
Tags:rave trance techno perfect day remix mancusojuanmattos mancuso_JM_ DJ Manian
BeatmapID:485540
BeatmapSetID:205777

[Difficulty]
HPDrainRate:7.5
CircleSize:4
OverallDifficulty:8
ApproachRate:8.5
SliderMultiplier:1.8
SliderTickRate:1

[Events]
//Background and Video events
0,0,"BG.jpg",0,0
//Break Periods
2,105858,116234
//Storyboard Layer 0 (Background)
//Storyboard Layer 1 (Fail)
//Storyboard Layer 2 (Pass)
//Storyboard Layer 3 (Foreground)
//Storyboard Sound Samples

[TimingPoints]
179,351.596835628479,4,1,1,100,1,0
2640,-133.333333333333,4,2,1,40,0,0
25406,-133.333333333333,4,1,1,40,0,0
28306,-133.333333333333,4,1,1,30,0,0
28658,-133.333333333333,4,1,1,40,0,0
29009,-133.333333333333,4,1,1,50,0,0
30943,-100,4,1,1,60,0,0
40876,-100,4,2,1,80,0,0
42282,-100,4,1,1,70,0,0
55028,-100,4,1,1,70,0,1
64784,-100,4,2,1,50,0,0
66279,-100,4,1,1,80,0,1
76123,-100,4,1,1,70,0,0
87287,-100,4,2,1,70,0,0
88693,-100,4,1,1,70,0,0
97131,-133.333333333333,4,1,2,70,0,0
100208,-100,4,1,1,70,0,0
116909,-133.333333333333,4,1,1,40,0,0
128160,-100,4,1,1,70,0,1
139323,-100,4,2,1,50,0,0
139411,-100,4,1,1,70,0,1
149256,-100,4,1,1,40,0,1
150750,-100,4,1,1,70,0,0
150838,-100,4,2,1,5,0,0

[Colours]
Combo1 : 85,170,255
Combo2 : 185,115,115
Combo3 : 180,126,156
Combo4 : 132,131,186

[HitObjects]
85,93,2815,5,0,0:0:0:0:
28,160,2991,2,0,P|90:181|149:153,1,135.000005149842,2|0,0:0|0:0,0:0:0:0:
212,224,3519,2,0,B|276:168|212:72|212:72|264:80|312:48,1,270.000010299683
392,24,4398,6,0,B|428:48|472:48|472:48|464:84|464:104,1,135.000005149842,2|0,0:0|0:0,0:0:0:0:
424,176,4925,2,0,B|384:240|468:268|408:364|324:356|284:316,1,270.000010299683
332,240,5804,6,0,P|264:228|212:264,1,135.000005149842,2|0,0:0|0:0,0:0:0:0:
176,344,6331,2,0,B|184:184|184:184|128:208|72:176,1,270.000010299683,2|0,0:0|0:0,0:0:0:0:
136,112,7210,6,0,P|208:100|260:132,1,135.000005149842,2|0,0:0|0:0,0:0:0:0:
280,216,7738,2,0,B|284:36|284:36|328:56|376:44,1,270.000010299683,2|0,0:0|0:0,0:0:0:0:
400,128,8617,6,0,L|400:264,1,135.000005149842,2|0,0:0|0:0,0:0:0:0:
460,328,9144,2,0,B|392:276|328:320|328:320|200:292,1,270.000010299683,0|0,0:0|0:0,0:0:0:0:
120,324,10023,6,0,B|112:276|140:236|140:236|100:228|92:208,1,135.000005149842,2|0,0:0|0:0,0:0:0:0:
48,152,10551,1,0,0:0:0:0:
48,152,10902,2,0,B|92:128|140:148|140:148|120:96|164:32|264:28|288:116,2,337.500012874604,0|0|0,0:0|0:0|0:0,0:0:0:0:
96,228,12836,6,0,P|156:240|220:196,1,135.000005149842,2|2,0:0|0:0,0:0:0:0:
300,232,13363,2,0,B|276:284|236:308|236:308|236:352,1,135.000005149842,2|2,0:0|0:0,0:0:0:0:
416,328,14067,1,0,0:0:0:0:
436,244,14242,6,0,L|440:108,1,135.000005149842,6|0,0:0|0:0,0:0:0:0:
376,48,14770,1,0,0:0:0:0:
292,72,14946,2,0,B|252:88|212:68|212:68|188:88|156:84,1,135.000005149842,8|0,0:0|0:0,0:0:0:0:
76,80,15473,1,0,0:0:0:0:
40,160,15649,6,0,L|64:296,1,135.000005149842,2|0,0:0|0:0,0:0:0:0:
152,308,16176,1,0,0:0:0:0:
228,264,16352,2,0,B|272:244|316:268|316:268|368:264,1,135.000005149842,8|0,0:0|0:0,0:0:0:0:
440,300,16879,1,0,0:0:0:0:
476,220,17055,6,0,B|484:164|484:164|476:136|476:136|484:84,1,135.000005149842,2|0,0:0|0:0,0:0:0:0:
412,32,17583,1,0,0:0:0:0:
328,56,17758,2,0,B|280:84|228:64|228:64|196:72,1,135.000005149842,8|0,0:0|0:0,0:0:0:0:
160,152,18286,1,0,0:0:0:0:
84,196,18462,6,0,B|52:260|52:260|80:264|104:296,1,135.000005149842,2|0,0:0|0:0,0:0:0:0:
184,324,18989,1,0,0:0:0:0:
256,276,19165,2,0,L|256:136,1,135.000005149842,8|0,0:0|0:0,0:0:0:0:
308,72,19692,1,0,0:0:0:0:
392,48,19868,6,0,B|428:56|472:32|472:32|460:56|468:88,1,135.000005149842,2|0,0:0|0:0,0:0:0:0:
448,168,20395,1,0,0:0:0:0:
480,248,20571,2,0,P|424:256|368:200,1,135.000005149842,8|0,0:0|0:0,0:0:0:0:
328,128,21099,1,0,0:0:0:0:
252,88,21274,6,0,B|152:80|152:80|120:96,1,135.000005149842,2|0,0:0|0:0,0:0:0:0:
60,160,21802,1,0,0:0:0:0:
96,240,21978,2,0,B|196:248|196:248|227:232,2,135.000005149842,8|0|2,0:0|0:0|0:0,0:0:0:0:
244,336,23032,6,0,L|320:340,1,67.5000025749208
372,276,23384,2,0,B|408:260|448:296|448:296|432:256|436:232,1,135.000005149842,8|0,0:0|0:0,0:0:0:0:
484,172,23911,1,0,0:0:0:0:
416,116,24087,6,0,P|352:136|280:104,1,135.000005149842,2|0,0:0|0:0,0:0:0:0:
208,84,24614,2,0,B|160:88|112:56|112:56|120:80|116:104,1,135.000005149842,2|2,0:0|0:0,0:0:0:0:
132,176,25142,2,0,P|136:212|132:248,1,67.5000025749208
96,324,25493,6,0,P|144:276|216:268,1,135.000005149842,0|0,1:0|0:0,0:0:0:0:
368,336,26197,2,0,P|433:325|480:278,1,135.000005149842,0|0,1:0|0:0,0:0:0:0:
376,136,26900,2,0,P|310:146|263:193,2,135.000005149842,0|0|0,1:0|0:0|0:0,0:0:0:0:
284,284,27955,1,0,0:0:0:0:
64,308,28306,6,0,P|24:305|-3:293,1,67.5000025749208
56,188,28658,2,0,P|26:161|10:134,1,67.5000025749208
120,88,29009,2,0,P|128:49|143:21,1,67.5000025749208,0|0,0:0|0:0,0:0:0:0:
244,92,29361,2,0,P|281:78|313:76,1,67.5000025749208
444,132,29713,5,0,0:0:0:0:
452,157,29800,1,0,0:0:0:0:
455,184,29888,1,0,0:0:0:0:
449,210,29976,1,0,0:0:0:0:
434,232,30064,1,0,0:0:0:0:
411,247,30152,1,0,0:0:0:0:
386,254,30240,1,0,0:0:0:0:
359,256,30328,1,0,0:0:0:0:
332,253,30416,5,0,0:0:0:0:
306,249,30504,1,0,0:0:0:0:
290,270,30591,1,0,0:0:0:0:
273,291,30679,1,0,0:0:0:0:
256,313,30767,1,0,0:0:0:0:
180,248,30943,1,0,0:0:0:0:
68,312,31119,6,0,P|124:268|104:160,1,180,4|8,0:0|0:0,0:0:0:0:
40,220,31646,1,0,0:0:0:0:
188,324,31822,2,0,B|324:336|324:336|364:300,1,180,0|8,0:0|0:0,0:0:0:0:
448,308,32350,6,0,B|440:236|372:216|372:216|424:208|432:180,1,180
364,124,32877,2,0,P|324:96|304:56,1,90,8|0,0:0|0:0,0:0:0:0:
147,123,33229,2,0,P|185:98|206:59,1,90
120,32,33580,1,8,0:0:0:0:
60,100,33756,6,0,B|48:244|48:244|64:280,1,180
148,308,34283,1,8,0:0:0:0:
236,324,34459,2,0,B|292:352|352:328|352:328|408:304,1,180
492,336,34987,1,8,0:0:0:0:
428,216,35162,6,0,B|416:168|448:112|448:112|408:120|376:112,1,180
295,139,35690,2,0,P|339:136|377:112,1,90,8|0,0:0|0:0,0:0:0:0:
244,52,36041,2,0,P|199:55|161:79,1,90
116,160,36393,1,8,0:0:0:0:
184,220,36569,1,0,0:0:0:0:
42,301,36745,6,0,P|129:288|184:220,1,180,0|8,0:0|0:0,0:0:0:0:
256,164,37272,1,0,0:0:0:0:
327,219,37448,2,0,P|382:288|469:301,1,180,0|8,0:0|0:0,0:0:0:0:
464,212,37975,6,0,B|420:224|404:180|404:180|428:152|432:104|408:72,1,180
268,65,38503,2,0,P|308:86|332:124,1,90,8|0,0:0|0:0,0:0:0:0:
284,300,38854,2,0,L|192:288,1,90
148,212,39206,1,8,0:0:0:0:
72,160,39382,6,0,P|124:124|224:164,1,180
148,212,39909,2,0,P|120:252|84:272,1,90,8|0,0:0|0:0,0:0:0:0:
136,348,40261,2,0,P|92:360|44:352,1,90
148,212,40612,1,8,0:0:0:0:
228,252,40788,1,0,0:0:0:0:
308,292,40964,6,0,B|372:316|372:316|400:316,1,90,2|2,0:0|0:0,0:0:0:0:
444,240,41315,2,0,B|444:212|476:200|476:200|464:184|460:164,1,90,2|2,0:0|0:0,0:0:0:0:
384,124,41667,2,0,P|412:92|468:76,1,90,2|2,0:0|0:0,0:0:0:0:
444,240,42019,1,2,0:0:0:0:
408,320,42194,1,0,0:0:0:0:
272,356,42370,6,0,B|124:348|124:348|92:328,1,180,4|8,0:0|0:0,0:0:0:0:
84,240,42898,2,0,P|92:192|76:144,1,90
160,32,43249,2,0,P|151:75|162:119,1,90,0|8,0:0|0:0,0:0:0:0:
260,212,43601,6,0,P|336:224|416:160,1,180
496,132,44128,2,0,L|480:240,1,90,8|0,0:0|0:0,0:0:0:0:
424,288,44480,1,0,0:0:0:0:
340,320,44655,1,0,0:0:0:0:
252,344,44831,2,0,B|192:356|192:356|160:352,1,90,8|0,0:0|0:0,0:0:0:0:
88,300,45183,5,0,0:0:0:0:
68,212,45359,2,0,B|48:188|24:188|24:188|48:172|48:144,1,90,0|8,0:0|0:0,0:0:0:0:
119,107,45710,2,0,P|87:77|44:67,1,90
180,188,46062,2,0,L|280:188,1,90,0|8,0:0|0:0,0:0:0:0:
392,260,46413,6,0,P|360:328|260:340,1,180
300,260,46941,1,8,0:0:0:0:
348,184,47117,2,0,P|372:148|416:128,1,90
300,260,47468,1,0,0:0:0:0:
184,328,47644,1,8,0:0:0:0:
172,320,47996,6,0,L|156:132,1,180,0|8,0:0|0:0,0:0:0:0:
72,108,48523,1,0,0:0:0:0:
248,152,48699,2,0,B|288:152|312:112|300:72|300:72|320:112|352:124,1,180,0|8,0:0|0:0,0:0:0:0:
396,196,49226,6,0,P|432:156|384:44,1,180
312,228,49754,2,0,B|292:296|292:296|296:324,1,90,8|0,0:0|0:0,0:0:0:0:
384,320,50105,2,0,P|428:320|472:344,1,90
295,315,50457,2,0,P|250:314|210:294,1,90,8|0,0:0|0:0,0:0:0:0:
132,196,50808,5,0,0:0:0:0:
176,120,50984,2,0,B|180:96|156:72|156:72|184:72|204:56,1,90,0|8,0:0|0:0,0:0:0:0:
280,44,51336,2,0,L|372:32,1,90,0|0,0:0|0:0,0:0:0:0:
440,88,51687,1,0,0:0:0:0:
392,164,51863,2,0,L|302:175,1,90,8|0,0:0|0:0,0:0:0:0:
256,304,52215,5,4,0:0:0:0:
256,192,52303,12,4,53621,3:0:0:0:
160,348,55028,6,0,B|160:296|100:268|100:268|136:264|164:232,1,180,4|0,0:0|0:0,0:0:0:0:
348,233,55731,2,0,B|376:264|412:268|412:268|352:296|352:348,1,180,0|0,0:0|0:0,0:0:0:0:
444,352,56258,2,0,P|484:328|504:284,1,90
68,352,56786,6,0,P|28:328|4:188,1,180
444,352,57489,2,0,P|484:328|504:284,1,90
464,208,57840,6,0,B|424:164|448:100|448:100|412:108|376:100,1,180
127,101,58544,2,0,B|100:108|64:100|64:100|88:164|48:208,1,180
84,292,59071,2,0,P|119:264|139:225,1,90
256,88,59598,1,0,0:0:0:0:
312,260,59950,2,0,L|304:352,1,90
207,349,60302,2,0,L|200:260,1,90
342,171,60653,6,0,B|292:160|256:188|256:188|220:160|172:172,2,180,0|0|0,0:0|0:0|0:0,0:0:0:0:
80,328,61708,2,0,P|84:280|60:232,1,90
20,168,62060,2,0,B|44:128|12:80|12:80|56:88|96:72,1,180
416,72,62763,2,0,B|456:88|500:80|500:80|468:128|492:168,1,180
460,252,63290,1,0,0:0:0:0:
472,340,63466,6,0,P|400:320|376:224,1,180
136,226,64169,2,0,P|120:310|40:340,1,180
52,252,64697,1,0,0:0:0:0:
301,261,64872,6,0,P|311:305|300:348,1,90,2|0,0:0|0:0,0:0:0:0:
212,345,65224,2,0,P|201:303|212:260,1,90,2|0,0:0|0:0,0:0:0:0:
356,192,65576,2,0,L|452:192,1,90,2|0,0:0|1:0,0:0:0:0:
156,192,65927,2,0,L|66:192,1,90,0|0,1:0|1:0,0:0:0:0:
312,88,66279,6,0,P|352:68|412:64,1,90,4|0,0:0|0:0,0:0:0:0:
200,88,66630,2,0,P|160:68|100:64,1,90,0|0,0:0|0:0,0:0:0:0:
44,116,66982,2,0,P|64:188|60:296,1,180
60,292,67509,1,0,0:0:0:0:
188,244,67685,6,0,P|212:208|252:184,1,90
392,212,68037,2,0,P|366:248|328:271,1,90
344,136,68388,2,0,P|408:120|488:200,1,180
468,280,68916,1,0,0:0:0:0:
344,136,69091,6,0,L|296:56,1,90
177,30,69443,2,0,L|224:108,1,90,0|0,0:0|0:0,0:0:0:0:
190,225,69795,2,0,L|92:68,1,180,0|0,0:0|0:0,0:0:0:0:
94,72,70322,1,0,0:0:0:0:
40,196,70498,6,0,B|64:240|44:288|44:288|64:320|128:320,1,180
208,312,71025,2,0,P|252:328|300:324,1,90
442,269,71377,2,0,P|400:253|356:256,1,90
388,340,71728,1,0,0:0:0:0:
484,188,71904,6,0,P|440:120|324:68,1,180
277,112,72432,2,0,P|320:101|355:72,1,90
208,56,72783,2,0,P|164:66|130:95,1,90
108,184,73135,1,0,0:0:0:0:
192,288,73311,5,0,0:0:0:0:
272,248,73486,1,0,0:0:0:0:
336,312,73662,2,0,B|400:332|404:332|404:332|432:324,2,90,0|0|0,0:0|0:0|0:0,0:0:0:0:
192,288,74190,1,0,0:0:0:0:
104,308,74365,1,0,0:0:0:0:
36,248,74541,1,0,0:0:0:0:
60,160,74717,6,0,P|104:108|232:68,1,180
329,212,75244,2,0,L|240:216,1,90
280,120,75596,2,0,L|369:116,1,90
400,272,75948,1,0,0:0:0:0:
256,192,76123,12,0,77178,0:0:0:0:
112,260,77530,6,0,B|100:184|100:184|72:164|72:164|60:96,1,180,0|8,0:0|0:0,0:0:0:0:
128,40,78057,2,0,B|184:20|236:40|236:40|256:80|288:88,1,180
372,104,78585,2,0,P|416:96|456:68,1,90,8|0,0:0|0:0,0:0:0:0:
380,20,78936,6,0,L|448:188,1,180,0|8,0:0|0:0,0:0:0:0:
464,276,79464,2,0,B|404:288|364:224|364:224|372:264|360:292,1,180
292,336,79991,2,0,P|240:344|196:332,1,90,8|0,0:0|0:0,0:0:0:0:
116,340,80343,6,0,P|192:308|232:220,1,180,0|8,0:0|0:0,0:0:0:0:
192,144,80870,2,0,B|144:152|96:116|96:116|112:80|92:36,1,180
12,80,81397,2,0,P|8:128|28:172,1,90,8|0,0:0|0:0,0:0:0:0:
128,252,81749,5,0,0:0:0:0:
216,236,81925,1,0,0:0:0:0:
260,316,82101,1,8,0:0:0:0:
260,316,82276,2,0,P|324:348|432:328,1,180
448,244,82804,2,0,B|448:216|428:204|428:204|452:196|468:168,1,90,8|0,0:0|0:0,0:0:0:0:
480,88,83155,6,0,B|420:84|392:120|392:120|404:72|364:28,1,180,0|8,0:0|0:0,0:0:0:0:
308,100,83683,2,0,L|124:124,1,180
96,208,84210,2,0,P|112:248|104:296,1,90,8|0,0:0|0:0,0:0:0:0:
124,88,84562,6,0,L|303:65,1,180,0|8,0:0|0:0,0:0:0:0:
388,144,85089,2,0,B|444:200|396:264|396:264|432:272|452:296,1,180
380,352,85617,2,0,P|336:336|312:300,1,90,8|0,0:0|0:0,0:0:0:0:
236,256,85968,6,0,P|160:280|56:248,2,180,0|8|0,0:0|0:0|0:0,0:0:0:0:
212,168,86847,2,0,P|176:144|152:104,1,90,0|8,0:0|0:0,0:0:0:0:
328,72,87375,5,2,0:0:0:0:
328,72,87726,2,0,B|320:128|352:128|352:128|392:128|380:160|380:160|368:192|400:192|400:192|432:200|416:232|416:232|400:264|432:264|432:264|464:264|460:296|460:296|456:316|432:336,1,360
168,344,88781,6,0,P|84:336|48:248,1,180,4|8,0:0|0:0,0:0:0:0:
136,268,89308,1,0,0:0:0:0:
256,328,89484,2,0,B|392:344|392:344|432:320,1,180,0|8,0:0|0:0,0:0:0:0:
408,232,90011,1,0,0:0:0:0:
332,120,90187,6,0,B|196:104|196:104|159:126,1,180,0|8,0:0|0:0,0:0:0:0:
132,212,90715,1,0,0:0:0:0:
56,260,90890,2,0,P|100:296|212:256,1,180,0|8,0:0|0:0,0:0:0:0:
132,212,91418,1,0,0:0:0:0:
280,316,91594,6,0,B|300:272|356:260|356:260|352:300|380:336,1,180,0|8,0:0|0:0,0:0:0:0:
444,272,92121,1,0,0:0:0:0:
484,148,92297,2,0,B|464:192|408:204|408:204|412:164|384:128,1,180,0|8,0:0|0:0,0:0:0:0:
304,84,92824,1,0,0:0:0:0:
220,112,93000,6,0,P|176:128|124:128,1,90
48,104,93352,1,8,0:0:0:0:
52,192,93527,2,0,P|80:248|184:304,1,180
264,272,94055,2,0,P|248:228|216:192,1,90,8|0,0:0|0:0,0:0:0:0:
179,303,94406,6,0,L|364:320,1,180,0|8,0:0|0:0,0:0:0:0:
448,320,94934,2,0,B|444:252|376:232|376:232|412:216|424:196,1,180
432,108,95461,2,0,P|404:72|356:52,1,90,8|0,0:0|0:0,0:0:0:0:
164,159,95813,6,0,L|344:144,1,180,0|8,0:0|0:0,0:0:0:0:
312,228,96340,2,0,L|132:243,1,180,0|0,0:0|0:0,0:0:0:0:
76,312,96868,1,8,0:0:0:0:
13,144,97219,6,0,B|97:192|154:140|154:140|256:36|358:140|358:140|415:192|499:144,2,540.000020599366,0|0|0,0:0|0:0|0:0,0:0:0:0:
0,240,100384,6,0,P|88:264|184:240,1,180
512,240,101087,2,0,P|424:264|328:240,1,180
195,81,101790,2,0,P|254:24|315:79,2,180,0|0|0,0:0|0:0|0:0,0:0:0:0:
256,192,102845,12,4,105658,0:0:0:0:
12,128,116909,5,0,0:0:0:0:
60,196,117260,2,0,L|200:200,1,135.000005149842
256,144,117963,2,0,P|276:204|244:268,1,135.000005149842
292,332,118667,2,0,B|332:304|344:264|344:264|364:276|392:276,1,135.000005149842
460,240,119370,6,0,L|460:104,1,135.000005149842
380,100,120073,2,0,P|323:133|261:113,1,135.000005149842,0|0,0:0|0:0,0:0:0:0:
192,72,120776,1,0,0:0:0:0:
112,84,121128,2,0,B|76:136|136:168|108:220,1,135.000005149842
76,288,121831,1,0,0:0:0:0:
152,316,122183,2,0,L|292:336,1,135.000005149842
308,256,122886,6,0,L|174:236,1,135.000005149842
100,204,123589,1,0,0:0:0:0:
20,188,123941,2,0,B|32:136|84:124|84:124|56:112|52:88,1,135.000005149842
76,20,124644,1,0,0:0:0:0:
147,64,124995,1,0,0:0:0:0:
148,64,125347,6,0,B|186:86|186:86|200:112|200:112|253:144,1,135.000005149842
268,224,126050,2,0,P|316:192|328:120,1,135.000005149842
464,108,126753,5,0,0:0:0:0:
467,134,126840,1,0,0:0:0:0:
467,161,126928,1,0,0:0:0:0:
463,188,127016,1,0,0:0:0:0:
456,214,127104,1,0,0:0:0:0:
445,239,127192,1,0,0:0:0:0:
431,262,127280,1,0,0:0:0:0:
414,282,127368,1,0,0:0:0:0:
394,301,127456,5,0,0:0:0:0:
372,316,127544,1,0,0:0:0:0:
348,328,127631,1,0,0:0:0:0:
322,337,127719,1,0,0:0:0:0:
296,342,127807,1,0,0:0:0:0:
248,268,127984,1,0,0:0:0:0:
148,272,128160,6,0,B|180:216|128:172|128:172|96:180|48:160,1,180,4|8,0:0|0:0,0:0:0:0:
104,76,128687,1,0,0:0:0:0:
196,112,128863,2,0,L|396:120,1,180,0|8,0:0|0:0,0:0:0:0:
420,204,129390,6,0,P|468:128|436:44,1,180
332,224,129918,2,0,P|352:264|396:288,1,90,8|0,0:0|0:0,0:0:0:0:
256,264,130269,2,0,L|256:354,1,90
180,224,130621,2,0,P|160:264|116:288,1,90,8|0,0:0|0:0,0:0:0:0:
84,192,130973,5,0,0:0:0:0:
144,112,131148,1,0,0:0:0:0:
80,36,131324,2,0,L|-12:20,2,90,8|0|0,0:0|0:0|0:0,0:0:0:0:
228,64,131852,1,0,0:0:0:0:
320,32,132027,1,8,0:0:0:0:
372,116,132203,6,0,P|400:168|504:236,1,180
360,284,132731,2,0,P|308:272|268:276,1,90,8|0,0:0|0:0,0:0:0:0:
144,344,133082,2,0,P|99:346|55:335,1,90
28,248,133434,1,8,0:0:0:0:
76,172,133609,1,0,0:0:0:0:
168,72,133785,6,0,B|296:52|296:52|352:60,1,180,0|8,0:0|0:0,0:0:0:0:
404,128,134313,1,0,0:0:0:0:
440,212,134488,2,0,P|488:168|468:60,1,180,0|8,0:0|0:0,0:0:0:0:
348,204,135016,6,0,P|320:244|312:284,1,90
256,152,135367,2,0,L|256:60,1,90,0|8,0:0|0:0,0:0:0:0:
164,204,135719,2,0,P|190:240|199:283,1,90
128,340,136071,1,0,0:0:0:0:
256,368,136246,1,8,0:0:0:0:
384,340,136422,1,0,0:0:0:0:
456,208,136598,6,0,B|448:160|448:160|440:120|392:100|332:120,1,180,0|8,0:0|0:0,0:0:0:0:
256,152,137125,1,0,0:0:0:0:
172,117,137301,2,0,B|120:100|72:120|64:160|64:160|56:208,1,180,0|8,0:0|0:0,0:0:0:0:
104,284,137829,1,0,0:0:0:0:
164,352,138004,6,0,L|260:364,1,90
368,264,138356,2,0,L|278:252,1,90,8|0,0:0|0:0,0:0:0:0:
376,132,138708,2,0,L|472:144,1,90,2|2,1:2|1:2,0:0:0:0:
480,296,139059,1,8,0:0:0:0:
364,344,139235,1,2,1:2:0:0:
232,220,139411,6,0,P|172:176|68:156,1,180,2|8,2:0|0:0,0:0:0:0:
140,320,139938,2,0,P|184:336|228:336,2,90,0|0|0,0:0|0:0|0:0,0:0:0:0:
68,264,140466,1,8,0:0:0:0:
160,88,140641,6,0,P|243:58|332:70,1,180,0|0,0:0|0:0,0:0:0:0:
376,152,141169,2,0,P|416:164|468:156,1,90,8|0,0:0|0:0,0:0:0:0:
332,70,141520,1,0,0:0:0:0:
284,188,141696,1,0,0:0:0:0:
384,264,141872,1,8,0:0:0:0:
284,344,142048,6,0,B|256:308|260:268|260:268|204:280|184:324,1,180,0|0,0:0|0:0,0:0:0:0:
108,276,142575,2,0,P|136:236|168:208,1,90,8|0,0:0|0:0,0:0:0:0:
403,275,142927,2,0,P|378:238|345:208,1,90
256,22,143278,2,0,L|256:112,1,90,8|0,0:0|0:0,0:0:0:0:
424,176,143630,5,0,0:0:0:0:
488,240,143806,2,0,P|428:320|344:336,1,180
276,292,144333,2,0,P|232:288|188:300,1,90
36,260,144685,2,0,B|56:304|112:316|112:316|108:276|136:240,1,180,8|0,0:0|0:0,0:0:0:0:
340,100,145212,6,0,P|376:80|428:72,1,90,0|8,0:0|0:0,0:0:0:0:
408,160,145564,2,0,P|456:164|496:188,1,90
428,248,145915,2,0,P|460:280|476:328,1,90,0|8,0:0|0:0,0:0:0:0:
320,300,146267,6,0,P|244:336|148:328,1,180
312,204,146794,2,0,P|320:152|340:116,1,90,8|0,0:0|0:0,0:0:0:0:
174,119,147146,2,0,P|194:159|200:204,1,90
256,48,147498,1,8,0:0:0:0:
132,36,147673,1,0,0:0:0:0:
76,148,147849,6,0,L|104:356,1,180,0|8,0:0|0:0,0:0:0:0:
188,352,148377,1,0,0:0:0:0:
272,316,148552,2,0,B|300:280|356:272|356:272|376:312|420:320,1,180,0|8,0:0|0:0,0:0:0:0:
440,232,149080,1,0,0:0:0:0:
424,144,149256,5,0,0:0:0:0:
399,124,149343,1,0,0:0:0:0:
371,110,149431,1,0,0:0:0:0:
340,104,149519,1,0,0:0:0:0:
309,106,149607,1,0,0:0:0:0:
279,115,149695,1,0,0:0:0:0:
249,126,149783,1,0,0:0:0:0:
219,136,149871,1,0,0:0:0:0:
188,142,149959,5,0,0:0:0:0:
157,143,150047,1,0,0:0:0:0:
126,136,150134,1,0,0:0:0:0:
98,122,150222,1,0,0:0:0:0:
76,104,150310,2,0,P|52:76|44:60,4,45,0|0|0|0|4,0:0|0:0|0:0|0:0|0:0,0:0:0:0:
256,192,150750,12,0,153475,0:0:0:0:
