osu file format v13

[General]
AudioFilename: Dream on Dreamer (chincore mix).mp3
AudioLeadIn: 0
PreviewTime: 31031
Countdown: 0
SampleSet: Normal
StackLeniency: 0.7
Mode: 0
LetterboxInBreaks: 0
EpilepsyWarning: 1
WidescreenStoryboard: 1

[Editor]
DistanceSpacing: 1.1
BeatDivisor: 4
GridSize: 4
TimelineZoom: 1.9

[Metadata]
Title:Dream on Dreamer (Nightcore Mix)
TitleUnicode:Dream on Dreamer (Nightcore Mix)
Artist:Cascada
ArtistUnicode:Cascada
Creator:XinCrin
Version:Easy
Source:
Tags:rave trance techno perfect day remix mancusojuanmattos mancuso_JM_ DJ Manian
BeatmapID:489000
BeatmapSetID:205777

[Difficulty]
HPDrainRate:2
CircleSize:3
OverallDifficulty:2
ApproachRate:3
SliderMultiplier:0.799999999999999
SliderTickRate:1

[Events]
//Background and Video events
0,0,"BG.jpg",0,0
//Break Periods
2,105858,115469
//Storyboard Layer 0 (Background)
//Storyboard Layer 1 (Fail)
//Storyboard Layer 2 (Pass)
//Storyboard Layer 3 (Foreground)
//Storyboard Sound Samples

[TimingPoints]
179,351.596835628479,4,1,1,100,1,0
2640,-100,4,2,1,40,0,0
25406,-100,4,1,2,40,0,0
30943,-100,4,1,1,60,0,0
40876,-100,4,2,1,60,0,0
42282,-100,4,1,1,70,0,0
55028,-100,4,1,2,70,0,1
64784,-100,4,2,2,50,0,0
66279,-100,4,1,2,80,0,1
76123,-100,4,1,1,70,0,0
87287,-100,4,2,1,70,0,0
88693,-100,4,1,1,70,0,0
97131,-100,4,1,2,70,0,0
100208,-100,4,1,2,70,0,0
116909,-100,4,1,2,40,0,0
128160,-100,4,1,1,70,0,1
139323,-100,4,2,1,50,0,0
139411,-100,4,1,1,70,0,1
150750,-100,4,1,1,70,0,0
150838,-100,4,2,1,5,0,0

[Colours]
Combo1 : 85,170,255
Combo2 : 185,115,115
Combo3 : 180,126,156
Combo4 : 132,131,186

[HitObjects]
132,88,2991,6,0,B|118:87|72:124|72:124|46:87|42:39,2,160,2|0|2,0:0|0:0|0:0,0:0:0:0:
256,212,5101,1,0,0:0:0:0:
380,88,5804,2,0,B|394:87|440:124|440:124|466:87|470:39,2,160,2|0|2,0:0|0:0|0:0,0:0:0:0:
256,212,7914,1,0,0:0:0:0:
112,312,8617,6,0,P|60:244|48:164,1,160,2|0,0:0|0:0,0:0:0:0:
180,56,10023,2,0,B|220:44|256:68|256:68|292:44|336:56,1,160,2|0,0:0|0:0,0:0:0:0:
464,172,11430,2,0,P|449:250|400:312,1,160,2|0,0:0|0:0,0:0:0:0:
256,192,12836,12,4,14242,0:0:0:0:
313,243,15649,6,0,P|375:290|452:276,2,160,4|8|0,0:0|0:0|0:0,0:0:0:0:
256,176,17407,1,0,0:0:0:0:
198,243,17758,2,0,P|136:290|59:276,1,160,8|2,0:0|0:0,0:0:0:0:
21,104,19165,6,0,P|83:57|160:72,1,160,8|2,0:0|0:0,0:0:0:0:
316,136,20571,2,0,B|376:140|408:88|408:88|444:116|468:116,2,160,8|2|8,0:0|0:0|0:0,0:0:0:0:
256,72,22329,1,0,0:0:0:0:
196,136,22681,2,0,B|136:140|104:88|104:88|80:108|60:113,2,160,2|8|2,0:0|0:0|0:0,0:0:0:0:
256,300,24790,1,2,0:0:0:0:
320,136,25493,6,0,P|336:84|444:64,2,160,4|0|0,0:0|0:0|0:0,0:0:0:0:
244,176,27251,2,0,P|204:184|156:172,1,79.9999999999999
104,112,27955,1,0,0:0:0:0:
256,192,28306,12,4,31119,0:0:0:0:
192,236,32525,6,0,P|252:212|348:236,1,160
392,308,33580,2,0,P|424:276|432:244,1,79.9999999999999,8|0,0:0|0:0,0:0:0:0:
416,156,34283,5,8,0:0:0:0:
372,80,34635,2,0,P|412:68|452:76,2,79.9999999999999,0|8|0,0:0|0:0|0:0,0:0:0:0:
300,128,35690,2,0,L|220:136,1,79.9999999999999,8|0,0:0|0:0,0:0:0:0:
136,108,36393,1,8,0:0:0:0:
72,168,36745,6,0,B|52:208|36:216|36:216|64:232|84:260|76:304,1,160
156,336,37799,2,0,P|200:344|236:336,1,79.9999999999999,8|0,0:0|0:0,0:0:0:0:
296,272,38503,2,0,P|335:264|374:272,1,79.9999999999999,8|0,0:0|0:0,0:0:0:0:
452,312,39206,1,8,0:0:0:0:
476,228,39557,6,0,B|484:172|484:172|472:128|472:128|476:64,1,160
392,56,40612,2,0,L|388:136,1,79.9999999999999,8|2,0:0|0:0,0:0:0:0:
328,200,41315,1,2,0:0:0:0:
256,148,41667,1,2,0:0:0:0:
184,200,42019,1,0,0:0:0:0:
148,280,42370,6,0,P|196:316|304:336,1,160,4|0,0:0|0:0,0:0:0:0:
348,268,43425,2,0,P|384:236|416:224,1,79.9999999999999,8|0,0:0|0:0,0:0:0:0:
464,152,44128,1,8,0:0:0:0:
392,100,44480,2,0,P|355:84|326:56,1,79.9999999999999,0|8,0:0|0:0,0:0:0:0:
240,40,45183,6,0,L|80:64,1,160
44,144,46238,2,0,P|60:184|64:224,1,79.9999999999999,8|0,0:0|0:0,0:0:0:0:
64,308,46941,1,8,0:0:0:0:
148,336,47292,2,0,L|236:332,1,79.9999999999999,0|8,0:0|0:0,0:0:0:0:
308,296,47996,6,0,P|383:314|442:264,1,160
364,228,49050,1,8,0:0:0:0:
411,155,49402,2,0,P|336:144|280:200,1,160
256,284,50457,1,8,0:0:0:0:
188,340,50808,6,0,B|140:360|88:344|88:344|52:308|52:284,1,160
44,208,51863,1,8,0:0:0:0:
256,192,52215,12,4,53621,3:0:0:0:
217,271,55028,6,0,P|257:264|296:272,1,79.9999999999999,4|0,0:0|0:0,0:0:0:0:
332,192,55731,2,0,P|256:176|176:192,1,160
116,256,56786,2,0,P|92:220|88:180,1,79.9999999999999
128,104,57489,1,0,0:0:0:0:
212,76,57840,6,0,P|284:88|372:64,1,160
448,100,58895,2,0,P|428:140|420:176,1,79.9999999999999
432,260,59598,1,0,0:0:0:0:
360,312,59950,2,0,B|332:316|316:328|316:328|292:328|272:328,1,79.9999999999999
212,276,60653,5,0,0:0:0:0:
124,296,61005,1,0,0:0:0:0:
36,296,61356,2,0,P|48:248|68:220,1,79.9999999999999
72,136,62060,1,0,0:0:0:0:
148,96,62411,2,0,P|184:80|212:48,1,79.9999999999999
301,50,63114,2,0,P|327:79|364:96,1,79.9999999999999
452,100,63818,5,0,0:0:0:0:
484,180,64169,1,0,0:0:0:0:
436,252,64521,1,0,0:0:0:0:
356,288,64872,2,0,B|296:324|240:280|240:280|188:240|128:276,1,240,2|0,0:0|1:0,0:0:0:0:
64,216,66279,6,0,P|104:188|136:176,1,79.9999999999999,4|0,0:0|0:0,0:0:0:0:
200,120,66982,2,0,L|212:36,1,79.9999999999999
300,41,67685,2,0,L|312:121,1,79.9999999999999
379,177,68388,2,0,P|415:193|448:217,1,79.9999999999999,0|0,0:0|0:0,0:0:0:0:
432,304,69091,6,0,P|376:344|280:352,1,160
208,316,70146,1,0,0:0:0:0:
120,332,70498,2,0,P|80:304|64:276,1,79.9999999999999
24,200,71201,1,0,0:0:0:0:
44,112,71553,1,0,0:0:0:0:
132,104,71904,6,0,L|296:72,1,160
372,104,72959,2,0,B|388:140|388:140|432:156,1,79.9999999999999
500,200,73662,2,0,P|496:248|480:280,1,79.9999999999999
396,300,74365,1,0,0:0:0:0:
316,336,74717,2,0,B|260:352|220:312|220:312|180:264,1,160
136,196,75772,1,0,0:0:0:0:
256,192,76123,12,4,77530,0:0:0:0:
228,336,78936,6,0,P|316:340|388:312,1,160
400,228,79991,2,0,P|400:180|412:144,1,79.9999999999999,8|0,0:0|0:0,0:0:0:0:
464,80,80694,5,8,0:0:0:0:
400,20,81046,1,0,0:0:0:0:
316,52,81397,2,0,P|272:60|228:56,1,79.9999999999999,8|0,0:0|0:0,0:0:0:0:
152,40,82101,1,8,0:0:0:0:
84,96,82452,2,0,B|100:160|100:160|92:208|40:236,1,160
52,320,83507,6,0,P|92:336|132:340,1,79.9999999999999,8|0,0:0|0:0,0:0:0:0:
208,304,84210,2,0,B|240:280|284:288,1,79.9999999999999,8|0,0:0|0:0,0:0:0:0:
356,332,84913,1,8,0:0:0:0:
444,316,85265,2,0,P|476:292|496:252,1,79.9999999999999,0|8,0:0|0:0,0:0:0:0:
472,172,85968,2,0,B|440:152|440:108|440:108|392:120|356:84,2,160,0|0|2,0:0|0:0|0:0,0:0:0:0:
156,324,88781,6,0,P|80:316|48:244,1,160,4|0,0:0|0:0,0:0:0:0:
92,168,89836,2,0,P|116:128|124:92,1,79.9999999999999,8|0,0:0|0:0,0:0:0:0:
180,28,90539,2,0,L|272:28,1,79.9999999999999,8|0,0:0|0:0,0:0:0:0:
316,96,91242,1,8,0:0:0:0:
404,92,91594,6,0,B|444:132|444:132|476:168|464:236,1,160
408,300,92648,2,0,P|368:316|332:320,1,79.9999999999999,8|0,0:0|0:0,0:0:0:0:
256,276,93352,1,8,0:0:0:0:
180,319,93703,2,0,P|140:315|104:300,1,79.9999999999999,0|8,0:0|0:0,0:0:0:0:
76,216,94406,6,0,B|88:148|48:116|48:116|76:68,2,160,0|0|0,0:0|0:0|0:0,0:0:0:0:
104,300,96164,2,0,P|140:315|180:319,1,79.9999999999999,8|0,0:0|0:0,0:0:0:0:
256,276,96868,1,8,0:0:0:0:
340,304,97219,6,0,B|420:316|420:316|492:300|528:176|440:128,1,320
280,56,99329,1,0,0:0:0:0:
172,196,100032,6,0,P|120:236|36:204,2,160,0|0|0,0:0|0:0|0:0,0:0:0:0:
280,56,102142,1,0,0:0:0:0:
256,192,102845,12,4,105658,0:0:0:0:
344,304,116909,6,0,B|352:224|352:224|412:256|516:192|468:80,2,320,0|0|0,0:0|0:0|0:0,0:0:0:0:
256,152,120425,1,0,0:0:0:0:
168,304,121128,2,0,B|160:224|160:224|100:256|-4:192|44:80,2,320,0|0|0,0:0|0:0|0:0,0:0:0:0:
256,152,124644,5,0,0:0:0:0:
420,84,125347,1,0,0:0:0:0:
256,24,126050,1,0,0:0:0:0:
92,84,126753,2,0,B|68:148|16:192|16:192|0:292|108:336,1,320,0|4,0:0|0:0,0:0:0:0:
284,320,128863,6,0,P|256:284|224:264,1,79.9999999999999,0|8,0:0|0:0,0:0:0:0:
140,256,129566,2,0,B|152:204|204:184|204:184|176:160|168:124,1,160
196,52,130621,2,0,P|240:60|280:52,1,79.9999999999999,8|0,0:0|0:0,0:0:0:0:
360,28,131324,5,8,0:0:0:0:
424,92,131676,2,0,P|416:136|416:172,1,79.9999999999999,0|8,0:0|0:0,0:0:0:0:
460,248,132379,2,0,P|452:312|356:340,1,160
296,300,133434,1,8,0:0:0:0:
212,324,133785,6,0,L|48:340,2,160,0|0|0,0:0|0:0|0:0,0:0:0:0:
296,300,135543,2,0,P|308:252|308:208,1,79.9999999999999,8|0,0:0|0:0,0:0:0:0:
268,144,136246,1,8,0:0:0:0:
188,108,136598,6,0,P|228:64|328:80,2,160,0|0|0,0:0|0:0|0:0,0:0:0:0:
152,188,138356,2,0,P|104:196|72:192,2,79.9999999999999,8|2|8,0:0|1:2|0:0,0:0:0:0:
232,220,139411,6,0,B|272:232|300:276|300:276|372:280,1,160,2|0,2:0|0:0,0:0:0:0:
452,248,140466,2,0,P|464:200|460:160,1,79.9999999999999,8|0,0:0|0:0,0:0:0:0:
400,108,141169,2,0,L|304:100,1,79.9999999999999,8|0,0:0|0:0,0:0:0:0:
244,60,141872,1,8,0:0:0:0:
176,116,142224,6,0,B|120:144|64:124|64:124|20:136,2,160,0|0|0,0:0|0:0|0:0,0:0:0:0:
256,152,143982,2,0,P|248:200|252:232,1,79.9999999999999,8|0,0:0|0:0,0:0:0:0:
320,288,144685,1,8,0:0:0:0:
392,336,145036,6,0,L|220:352,2,160,0|0|0,0:0|0:0|0:0,0:0:0:0:
448,268,146794,2,0,P|468:224|472:188,1,79.9999999999999,8|0,0:0|0:0,0:0:0:0:
416,124,147498,1,8,0:0:0:0:
332,96,147849,6,0,B|260:104|232:52|232:52|180:64,2,160,0|0|0,0:0|0:0|0:0,0:0:0:0:
416,124,149607,2,0,P|440:168|440:200,2,79.9999999999999,0|0|0,0:0|0:0|0:0,0:0:0:0:
356,188,150662,1,4,0:0:0:0:
256,192,150838,12,0,153475,0:0:0:0:
