osu file format v8

[General]
AudioFilename: Nightcore__Dangerous.mp3
AudioLeadIn: 993
PreviewTime: 50242
Countdown: 0
SampleSet: Soft
StackLeniency: 0.7
Mode: 0
LetterboxInBreaks: 0

[Editor]
Bookmarks: 82786
DistanceSpacing: 0.8
BeatDivisor: 4
GridSize: 8

[Metadata]
Title:Dangerous (Nightcore Mix)
Artist:Cascada
Creator:Feno
Version:Risky
Source:
Tags:Techno Trance Speed Teras Odaril Nekoo[]

[Difficulty]
HPDrainRate:2
CircleSize:4
OverallDifficulty:3
ApproachRate:3
SliderMultiplier:1.2
SliderTickRate:1

[Events]
//Background and Video events
0,0,"2a1c588c73a465ae95149687c03282fc.jpg"
//Break Periods
2,12346,12693
2,49753,60031
2,79877,81548
2,106526,107037
//Storyboard Layer 0 (Background)
//Storyboard Layer 1 (Fail)
//Storyboard Layer 2 (Pass)
//Storyboard Layer 3 (Foreground)
Sprite,Foreground,Centre,"Pulse.jpg",320,240 L,62441,11 F,2,0,800,1,0 S,2,0,800,1,1.2 F,2,61441,62441,1,0 S,2,61441,62441,1,1.2 F,2,98846,99100,1,0 S,2,98846,99100,1,1.2
//Storyboard Sound Samples
//Background Colour Transformations
3,100,163,162,255

[TimingPoints]
3540,331.034482758621,4,2,0,100,1,0
19098,-100,4,2,2,100,0,0
28365,-100,4,1,0,100,0,0
61418,-100,4,2,1,100,0,1
71992,-100,4,1,0,100,0,0
98877,-100,4,1,0,100,0,1
118408,-100,4,1,0,100,0,0

[Colours]
Combo1 : 231,52,164
Combo2 : 242,83,255
Combo3 : 223,40,227
Combo4 : 239,192,226
Combo5 : 252,158,254

[HitObjects]
256,192,3540,1,2
256,96,3871,1,0
64,96,4533,1,0
64,192,4864,1,0
160,192,5195,1,2
256,192,5526,1,0
256,64,6188,5,2
160,64,6519,1,0
32,64,7181,2,2,B|32:128,1,60
32,216,7677,1,2
32,312,8008,2,0,B|32:400,1,60,0|2
160,232,8836,5,2
256,232,9167,1,0
256,40,9829,1,0
352,40,10160,1,0
448,40,10491,1,2
352,40,10822,2,0,B|504:104|456:232|320:224|360:112|456:24|496:48|504:72|504:88|496:256|496:232|496:280,1,480,0|0
256,128,14133,5,2
352,128,14464,1,0
352,320,15126,1,0
256,320,15457,1,0
256,224,15788,1,2
352,224,16119,1,0
352,344,16781,5,2
256,344,17112,1,0
64,344,17774,1,0
64,296,17940,1,2
64,200,18271,1,2
64,104,18602,1,0
208,104,19098,2,8,B|464:104,1,240
256,72,20422,6,0,B|328:72,3,60,8|0|0|0
368,72,21084,1,8
416,72,21250,1,0
416,24,21415,1,0
512,40,21746,2,8,B|512:288,1,240
344,320,23071,5,8
296,320,23236,1,0
200,320,23567,1,0
152,320,23733,1,8
104,320,23898,1,0
0,320,24395,2,8,B|0:72,1,240
168,80,25718,5,8
216,80,25884,1,0
312,80,26215,1,0
360,80,26381,1,8
408,80,26546,1,0
408,128,26711,1,0
328,216,27043,6,8,B|464:216,3,120
448,312,28367,1,4
256,312,29029,6,0,B|184:312,3,60
280,136,30188,5,0
240,104,30353,1,0
200,72,30519,1,0
160,40,30684,1,0
120,8,30850,1,0
88,304,31677,5,0
88,208,32008,1,0
88,112,32340,1,0
88,16,32671,1,0
136,16,32836,2,2,L|392:16,1,240
384,216,34160,6,0,B|312:216,5,60,0|0|0|0|0|0
256,368,35815,5,0
256,320,35981,1,0
256,272,36146,1,0
256,224,36312,1,0
256,176,36477,1,0
208,176,36643,1,0
72,80,36974,5,0
136,80,37140,1,0
200,80,37305,1,8
256,80,37471,2,2,L|512:80,1,240
192,192,39457,6,0,L|264:192,4,60
224,112,40450,1,0
192,32,40781,6,0,L|264:32,4,60
120,32,41774,1,0
8,200,42271,5,0
104,200,42602,1,0
200,200,42933,2,2,L|344:200,1,120
320,152,43429,1,2
480,200,44753,6,0,B|400:200,4,60
352,200,45746,1,0
256,200,46077,1,0
224,112,46408,5,0
224,16,46739,1,0
128,16,47071,1,0
128,112,47402,1,0
256,192,47733,12,0,49553
256,192,61471,5,8
256,96,61802,1,0
352,96,62133,1,8
448,96,62464,2,0,B|512:152,2,60,0|0|8
432,192,63126,1,0
344,256,63457,6,0,B|264:256,4,60,8|0|0|0|8
280,184,64450,1,0
184,184,64781,1,8
184,88,65112,2,0,B|184:16,2,60,0|0|8
408,280,65940,6,0,B|408:208,6,60,0|8|0|0|0|8|0
408,280,67098,1,2
408,376,67429,1,10
312,376,67760,2,0,B|240:376,2,60,0|0|8
216,376,68422,1,2
208,280,68753,5,8
256,280,68919,1,0
304,280,69084,1,0
352,280,69250,1,0
400,280,69415,1,8
496,280,69746,1,0
496,184,70077,1,8
400,184,70408,2,0,B|336:184,2,60,0|0|8
56,40,72395,5,0
152,40,72726,1,0
344,40,73388,1,0
344,136,73719,1,0
344,232,74050,2,2,B|344:368,1,120
328,152,75043,5,0
328,248,75374,1,0
184,248,75871,1,0
136,248,76036,1,0
88,248,76202,1,0
88,152,76533,1,0
88,56,76864,2,2,B|176:56,1,60
344,64,77691,5,0
344,160,78022,1,0
344,304,78519,2,0,B|424:304,5,60
504,304,79677,1,0
256,56,82988,5,0
256,152,83319,1,0
448,152,83981,1,0
352,152,84312,1,0
352,200,84477,1,0
352,248,84643,1,0
256,248,84974,1,0
432,328,85636,5,0
336,328,85967,1,0
144,328,86629,1,0
112,296,86795,1,0
112,200,87126,1,0
112,104,87457,1,0
112,248,87953,1,0
208,248,88284,1,0
256,248,88450,1,0
160,32,89277,5,0
208,32,89443,1,0
256,32,89608,1,0
304,32,89774,1,0
304,128,90105,2,0,B|304:208,1,60
232,216,90602,1,0
152,248,90933,2,8,B|152:336,1,60
200,368,91926,5,0
248,368,92091,1,0
248,272,92422,1,0
248,176,92753,1,0
392,176,93250,1,0
296,176,93581,2,8,B|360:176,1,60
312,40,94408,5,0
280,72,94574,1,0
232,72,94740,1,0
136,72,95071,1,0
256,192,95567,12,0,97222
256,304,97884,6,0,B|256:224,3,60
424,192,99208,6,0,B|424:64,2,120
272,72,100533,5,0
176,72,100864,1,0
80,72,101195,1,0
80,192,101526,1,0
80,240,101691,2,2,B|74:296|57:341|184:344|194:319|187:227,1,240
376,192,103015,6,0,B|376:272,4,60
376,320,104008,1,0
288,320,104340,1,0
200,320,104671,5,0
200,224,105002,1,0
104,224,105333,1,0
104,128,105664,1,0
8,128,105995,1,0
8,32,106326,1,0
480,192,108477,5,0
384,192,108808,1,0
384,96,109139,1,0
240,96,109636,5,8
144,96,109967,1,2
96,96,110133,1,2
48,96,110298,1,2
208,280,111126,5,0
208,184,111457,1,0
208,88,111788,1,0
272,24,112119,1,0
272,72,112284,2,2,B|528:72,1,240
440,264,113608,6,0,B|352:264,4,60
144,320,115264,6,0,B|272:320,3,120
24,320,116588,2,6,B|64:144|168:96|256:64|392:128|456:160|472:328|472:328,1,660,2|6
