osu file format v8

[General]
AudioFilename: Nightcore__Dangerous.mp3
AudioLeadIn: 993
PreviewTime: 50242
Countdown: 0
SampleSet: Soft
StackLeniency: 0.7
Mode: 0
LetterboxInBreaks: 0

[Editor]
Bookmarks: 3568,10768,14078,28974,49497,61414,82786,139616
DistanceSpacing: 0.9
BeatDivisor: 4
GridSize: 8

[Metadata]
Title:Dangerous (Nightcore Mix)
Artist:Cascada
Creator:Feno
Version:Dangerous
Source:
Tags:Techno Trance Speed Teras Odaril Nekoo[]

[Difficulty]
HPDrainRate:6
CircleSize:5
OverallDifficulty:7
ApproachRate:7
SliderMultiplier:1.7
SliderTickRate:2

[Events]
//Background and Video events
0,0,"2a1c588c73a465ae95149687c03282fc.jpg"
//Break Periods
2,11022,13233
2,49753,60571
2,118608,120157
//Storyboard Layer 0 (Background)
//Storyboard Layer 1 (Fail)
//Storyboard Layer 2 (Pass)
//Storyboard Layer 3 (Foreground)
Sprite,Foreground,Centre,"Pulse.jpg",320,240 L,62441,11 F,2,0,800,1,0 S,2,0,800,1,1.2 F,2,61441,62441,1,0 S,2,61441,62441,1,1.2 F,2,98846,99100,1,0 S,2,98846,99100,1,1.2
//Storyboard Sound Samples
//Background Colour Transformations
3,100,163,162,255

[TimingPoints]
3540,331.034482758621,4,2,1,51,1,0
10574,-100,4,2,0,0,0,0
10740,-100,4,2,1,50,0,0
18933,-100,4,2,1,100,0,0
19181,-100,4,1,0,0,0,0
19346,-100,4,2,0,100,0,0
26877,-100,4,1,0,70,0,0
28533,-100,4,2,2,100,0,0
32919,-100,4,2,2,100,0,0
33070,-100,4,2,0,100,0,0
33250,-100,4,2,1,100,0,0
33250,-100,4,2,1,100,0,0
33415,-100,4,2,2,100,0,0
61305,-100,4,2,1,100,0,0
61471,-100,4,2,1,100,0,1
71992,-100,4,2,0,100,0,0
77526,-100,4,2,1,100,0,0
87788,-100,4,2,2,50,0,0
97719,-100,4,2,0,100,0,0
98712,-100,4,2,2,100,0,0
98877,-100,4,2,2,100,0,1
109057,-100,4,1,2,100,0,1
109222,-100,4,2,2,100,0,1
110381,-100,4,1,2,100,0,1
110546,-100,4,2,2,100,0,1
111705,-100,4,1,2,100,0,1
111871,-100,4,2,2,100,0,1
115358,-100,4,2,1,100,0,1
115512,-100,4,2,2,100,0,1
116008,-100,4,2,1,100,0,1
116174,-100,4,2,2,100,0,1
118408,-100,4,2,1,100,0,0

[Colours]
Combo1 : 231,52,164
Combo2 : 242,83,255
Combo3 : 166,22,169
Combo4 : 239,192,226
Combo5 : 252,158,254

[HitObjects]
48,120,3540,1,2
200,120,3871,1,0
464,120,4533,6,0,B|464:208,2,85,2|0|0
368,120,5029,2,0,B|368:216,1,85,0|2
240,120,5526,1,0
144,288,6188,5,0
144,200,6519,1,0
312,200,7181,1,2
232,200,7346,1,0
120,200,7677,1,0
120,304,8008,1,0
200,304,8174,1,2
16,40,8836,5,2
168,40,9167,1,0
472,40,9829,1,2
392,40,9995,1,0
312,40,10160,1,0
232,40,10326,1,0
232,120,10491,2,0,B|432:120,1,170,2|0
256,192,14133,5,2
104,192,14464,1,0
408,192,15126,1,2
344,152,15291,1,2
280,192,15457,1,0
216,152,15622,1,0
152,192,15788,1,2
16,192,16119,1,0
320,208,16781,5,2
320,56,17112,1,0
320,360,17774,1,0
320,280,17940,1,2
320,128,18271,1,2
320,280,18602,1,0
136,168,19098,6,0,B|312:168,1,170
304,248,19595,1,2
16,328,20422,5,2
16,248,20588,1,0
96,248,20753,1,0
176,248,20919,1,2
328,256,21250,1,0
328,176,21415,1,2
512,176,21746,1,2
360,176,22077,1,0
360,96,22243,1,2
424,136,23071,6,0,B|424:232,1,85,2|0
424,304,23567,1,2
304,304,23898,1,0
304,128,24395,1,2
184,128,24726,1,2
184,184,24891,1,0
96,144,25719,5,2
192,144,25884,1,2
320,144,26215,1,0
320,296,26546,1,0
320,216,26712,1,2
360,254,27043,6,0,C|384:296|456:296|480:252,1,170
480,240,27705,6,0,C|456:198|384:198|360:242,1,170
424,248,28367,1,4
464,192,29029,5,0
384,192,29195,1,0
384,112,29360,1,0
384,192,29526,1,0
304,192,29691,1,8
160,112,30022,5,2
160,192,30188,1,0
240,192,30353,1,8
240,272,30519,1,0
320,272,30684,1,2
320,192,30850,1,8
400,192,31015,1,8
400,56,31346,1,2
256,56,31677,5,8
256,208,32008,1,2
336,208,32174,1,8
392,160,32340,1,8
472,24,32671,1,2
416,72,32836,2,0,B|240:72|248:152|424:176|280:8|240:48|160:40|40:112,1,425,0|8
176,184,33995,1,2
264,184,34160,5,0
264,112,34326,1,8
320,64,34491,1,0
392,40,34657,1,2
440,96,34822,1,8
456,160,34988,1,8
440,328,35319,1,2
288,328,35650,5,8
216,304,35815,1,0
136,304,35981,1,2
112,232,36146,1,8
136,160,36312,1,8
144,88,36477,1,0
208,48,36643,1,2
224,200,36974,1,8
304,200,37140,1,8
384,200,37305,1,2
256,192,37471,12,0,38960
112,192,39457,6,0,C|224:192,4,85
112,112,40284,1,0
192,112,40450,1,0
192,192,40615,1,2
256,184,40781,6,0,B|328:88,1,85
240,96,41112,2,0,B|312:8,1,85,0|2
368,32,41443,1,8
384,104,41608,1,8
408,176,41774,1,0
392,248,41940,1,2
136,192,42271,5,8
288,192,42602,1,2
288,272,42767,1,8
288,344,42933,1,0
136,344,43264,1,2
256,192,43429,12,0,44257
152,184,44753,6,0,B|264:184,1,85
240,232,45084,2,0,B|136:232,1,85
152,280,45415,1,0
232,280,45581,1,8
80,280,45912,1,2
80,128,46243,1,8
256,40,46574,5,2
256,120,46740,1,8
256,200,46905,1,0
256,352,47237,1,2
256,200,47568,1,0
256,192,47898,12,0,49553
256,192,61471,5,0
392,192,61802,1,8
392,56,62133,1,0
256,56,62464,1,8
192,56,62629,1,0
192,128,62795,1,0
328,128,63126,1,8
328,264,63457,5,0
248,264,63622,1,0
248,184,63788,1,8
168,184,63953,1,0
88,184,64119,1,0
88,32,64450,1,8
240,32,64781,1,0
400,64,65112,5,8
400,128,65277,1,0
400,192,65443,1,0
264,192,65774,5,8
264,128,65939,1,0
200,128,66105,1,0
200,192,66271,1,0
136,192,66436,1,8
136,264,66602,1,0
200,264,66767,1,0
336,264,67098,1,8
336,128,67429,1,0
184,120,67760,6,0,B|88:120,2,85,8|0|0
184,264,68422,1,8
336,264,68753,5,0
336,200,68919,1,0
272,200,69084,1,8
272,136,69250,1,0
208,136,69415,1,0
344,136,69746,1,8
344,272,70077,1,0
208,272,70408,1,8
208,208,70574,1,0
272,208,70739,1,0
144,160,72395,5,2
256,72,72726,1,0
376,152,73057,1,0
256,320,73388,1,0
256,264,73553,1,2
312,264,73719,1,2
312,208,73884,1,0
312,152,74050,1,2
192,152,74381,1,0
192,272,74712,1,0
288,168,75043,5,2
416,168,75374,1,0
408,320,75705,1,0
328,328,75871,1,0
256,344,76036,1,2
192,304,76202,1,2
192,152,76533,1,2
320,72,76864,1,0
320,152,77029,1,2
176,200,77360,1,0
56,144,77691,5,0
176,144,78022,1,2
328,144,78353,1,0
400,176,78519,1,0
432,248,78684,1,2
384,304,78850,1,2
312,280,79015,1,0
248,232,79181,1,2
248,152,79346,1,0
96,144,79677,1,2
248,152,80008,1,0
248,304,80340,1,8
128,216,80671,5,0
280,216,81002,1,8
280,64,81333,1,0
96,96,81664,5,8
176,96,81829,1,0
176,176,81995,1,0
256,176,82160,1,0
336,176,82326,1,8
336,96,82491,1,8
336,16,82657,1,4
232,88,82988,5,8
232,208,83319,1,0
352,208,83650,1,8
504,208,83981,1,0
424,208,84146,1,0
424,288,84312,1,8
424,208,84477,1,8
424,128,84643,1,0
272,128,84974,1,8
184,128,85305,5,0
136,184,85471,1,0
168,256,85636,1,8
168,352,85967,1,0
336,344,86298,5,8
336,264,86464,1,0
336,184,86629,1,0
256,184,86795,1,0
200,232,86960,1,8
144,184,87126,1,0
256,72,87457,1,0
176,72,87622,1,4
72,208,87953,5,8
168,208,88284,1,2
232,208,88450,1,0
312,264,88781,1,0
368,216,88946,1,2
488,200,89277,5,8
408,200,89443,1,0
328,200,89608,1,2
328,280,89774,1,0
328,128,90105,1,0
328,208,90271,1,2
152,280,90602,1,8
304,280,90933,1,2
304,200,91098,1,0
304,48,91429,1,0
256,104,91595,1,2
72,224,91926,5,8
152,224,92091,1,0
232,224,92257,1,2
304,192,92422,1,0
416,88,92753,1,0
344,56,92919,1,2
208,40,93250,1,8
208,192,93581,2,0,B|208:80,1,85,2|0
104,112,94243,5,2
104,192,94408,1,0
184,192,94574,1,8
264,192,94739,1,0
344,192,94905,1,2
344,40,95236,1,0
344,192,95567,1,2
256,192,95733,12,4,97222
256,192,97884,5,2
256,136,98050,1,2
312,136,98215,1,0
256,136,98381,1,2
256,48,98877,5,8
336,48,99043,1,0
392,96,99208,1,2
408,168,99374,1,0
376,240,99539,1,0
304,272,99705,1,0
232,248,99871,1,2
160,280,100036,1,0
128,208,100202,1,0
256,112,100533,5,2
104,112,100864,1,0
104,264,101195,1,2
256,264,101526,1,0
256,192,101608,12,0,102519
264,216,103015,5,0
264,144,103181,1,0
336,144,103346,1,0
336,80,103512,1,2
264,80,103677,1,0
120,40,104008,1,0
120,120,104174,1,2
200,264,104505,5,0
200,192,104671,1,0
264,192,104836,1,2
264,256,105002,1,0
264,120,105333,1,0
192,120,105498,1,2
128,120,105664,1,0
264,120,105995,1,0
264,192,106160,1,2
256,192,106326,12,0,107815
216,192,108312,6,0,B|304:192,4,85
328,120,109140,1,0
176,128,109471,21,8
128,184,109636,1,0
104,256,109802,1,8
184,248,109967,1,0
224,312,110133,1,8
296,280,110298,1,0
368,304,110464,1,0
392,232,110629,1,0
392,152,110795,1,0
280,168,111126,5,8
120,168,111457,1,8
120,304,111788,1,0
256,304,112119,1,8
256,192,112284,12,0,113112
256,184,113608,5,0
232,112,113774,1,2
160,80,113939,1,0
96,120,114105,1,2
72,192,114271,1,0
112,256,114436,1,4
176,296,114602,1,0
248,320,114767,1,2
312,280,114933,1,0
312,192,115264,6,0,B|312:16,1,170
160,24,115926,2,0,B|160:216,1,170
256,192,116588,12,0,118408
256,192,121057,5,2
256,344,121388,1,0
408,344,121719,1,2
256,344,122050,1,2
256,264,122215,1,0
256,184,122381,1,8
256,72,122712,1,0
104,72,123043,1,8
136,232,123374,5,0
200,232,123539,1,0
264,232,123705,1,8
176,24,124036,5,0
256,24,124202,1,0
256,104,124367,1,8
336,104,124533,1,0
336,184,124698,1,8
256,184,124864,1,0
256,264,125029,1,8
104,264,125360,1,0
104,112,125691,1,8
184,24,126022,5,0
184,88,126188,1,0
248,88,126353,1,8
384,88,126684,1,0
392,224,127015,5,8
336,184,127181,1,0
280,224,127346,1,8
232,176,127512,1,0
184,224,127677,1,8
184,360,128008,1,0
320,360,128339,1,8
200,296,128671,5,0
264,296,128836,1,0
328,296,129002,1,8
144,88,129498,6,0,B|216:152,1,85,0|2
160,184,129829,1,2
208,224,129995,2,0,B|120:304,1,85,0|2
208,144,130491,1,0
304,104,130822,5,0
384,104,130988,1,2
304,176,131153,1,2
384,176,131319,1,0
384,248,131484,1,2
232,248,131815,1,0
24,160,132312,5,0
208,160,132643,1,0
392,160,132974,1,2
208,160,133305,1,2
256,192,133471,12,0,134298
256,104,134795,5,0
256,160,134960,1,2
312,160,135126,1,2
312,216,135291,1,0
312,272,135457,1,2
224,272,135788,1,0
224,272,135953,1,0
192,144,136284,1,0
256,144,136450,5,0
392,144,136781,1,0
392,280,137112,1,0
256,280,137443,1,0
256,192,137774,12,0,139595
