osu file format v9

[General]
AudioFilename: Nightcore__Dangerous.mp3
AudioLeadIn: 0
PreviewTime: 29028
Countdown: 0
SampleSet: Normal
StackLeniency: 0.7
Mode: 0
LetterboxInBreaks: 0
EpilepsyWarning: 1

[Editor]
DistanceSpacing: 1.2
BeatDivisor: 4
GridSize: 4

[Metadata]
Title:Dangerous (Nightcore Mix)
Artist:Cascada
Creator:Dark_Ai
Version:Easy
Source:
Tags:MoonShade Firce777 BounceBabe

[Difficulty]
HPDrainRate:1
CircleSize:3
OverallDifficulty:1
ApproachRate:2
SliderMultiplier:0.7
SliderTickRate:1

[Events]
//Background and Video events
0,0,"background.jpg"
//Break Periods
2,88152,96323
//Storyboard Layer 0 (Background)
Sprite,Background,Centre,"background.jpg",320,240 F,0,-3000,,0 S,0,-3000,,0.625 F,0,0,3202,0,1 F,0,28366,,0.2 F,0,29690,,1 F,0,97221,,0.2 F,0,97883,98545,0.2,0 F,0,98876,,1 F,0,143000,143300,1,0
//Storyboard Layer 1 (Fail)
//Storyboard Layer 2 (Pass)
//Storyboard Layer 3 (Foreground)
Sprite,Foreground,Centre,"SB\bg2.jpg",320,240 F,0,-3000,,0 S,0,-3000,,0.8 F,0,0,3202,0,1 F,0,20421,26421,1,0 F,0,87290,87952,0,1 F,0,97221,,0.2 F,0,97883,98545,0.2,0
Sprite,Foreground,Centre,"SB\character.png",451,240 F,0,3208,4208,1,0 S,1,3208,4208,0.8,0.86 F,0,13801,14801,1,0 S,1,13801,14801,0.8,0.86 F,0,19098,20098,1,0 S,1,19098,20098,0.8,0.86 F,0,95897,96897,1,0 S,1,95897,96897,0.8,0.86
Sprite,Foreground,Centre,"background.jpg",320,240 L,29690,29 F,1,0,300,1,0 S,1,0,300,0.625,0.672 F,0,300,662,0 L,50876,15 F,1,0,300,1,0 S,1,0,300,0.625,0.672 F,0,300,662,0 L,61470,14 F,1,0,300,1,0 S,1,0,300,0.625,0.672 F,0,300,662,0 L,99208,28 F,1,0,300,1,0 S,1,0,300,0.625,0.672 F,0,300,662,0 L,121056,12 F,1,0,300,1,0 S,1,0,300,0.625,0.672 F,0,300,662,0 L,130325,13 F,1,0,300,1,0 S,1,0,300,0.625,0.672 F,0,300,662,0
Sprite,Foreground,Centre,"SB\white.jpg",320,240 L,48559,12 F,0,0,83,0.4,0 L,117414,12 F,0,0,83,0.4,0 L,138601,12 F,0,0,83,0.4,0 F,0,49552,,0.6 F,0,50876,,0 F,0,70739,,0.6 F,0,72063,,0 F,0,118408,,0.6 F,0,119732,,0 F,0,139594,141594,0.6,0
//Storyboard Sound Samples
//Background Colour Transformations
3,100,163,162,255

[TimingPoints]
1884,331.034482758621,4,2,0,60,1,0
19097,-100,4,2,2,40,0,0
24394,-100,4,2,2,50,0,0
29690,-100,4,1,0,60,0,1
48559,-100,4,2,2,60,0,1
49552,-100,4,2,0,60,0,0
50214,-100,4,1,0,60,0,0
72063,-100,4,2,1,60,0,0
72394,-100,4,2,2,60,0,0
98876,-100,4,1,0,60,0,1
118408,-100,4,1,0,60,0,0
130325,-100,4,1,0,60,0,1
139594,-100,4,2,0,60,0,0

[Colours]
Combo1 : 58,36,255
Combo2 : 33,172,184
Combo3 : 255,128,192
Combo4 : 240,5,5

[HitObjects]
256,192,3208,1,2
256,112,3539,2,0,B|400:112,1,140
392,192,4532,2,0,B|392:344,2,140
312,208,6187,6,0,B|312:280,1,70
152,320,7180,2,0,B|152:376|57:374|57:318,2,140
104,256,8835,5,0
160,192,9166,1,2
272,320,9828,2,0,B|368:376|472:320,1,210,2|2
256,192,12145,12,0,13801
256,192,14463,5,2
408,112,15125,2,0,B|464:176|408:240,2,140
352,176,16780,6,0,B|280:176,1,70
256,344,17773,2,0,B|136:344|136:344|136:344,2,105
280,264,19097,5,8
176,128,19759,1,8
328,192,20421,5,8
440,64,21083,1,8
272,64,21745,2,8,B|128:64,1,140
120,232,23070,6,8,B|120:320|224:320,1,140
200,152,24394,2,8,B|200:72,2,70
256,192,25718,12,0,28366
256,184,29690,5,4
424,208,30352,2,8,B|424:112|328:112,1,140
176,112,31676,2,8,B|95:111|95:207,1,140
180,192,32670,1,8
180,192,33001,1,0
480,344,34325,6,0,B|336:344,1,140
196,192,35815,2,8,B|376:192,1,175
408,116,36973,2,0,B|468:152,1,70,8|0
468,236,37635,1,8
304,276,38297,6,0,B|304:348,1,70
220,348,38959,1,8
92,236,39621,6,8,B|36:180|36:180|36:108,1,140
204,108,40945,2,0,B|204:36,1,70
288,36,41608,1,8
388,172,42270,5,8
364,252,42601,1,0
296,304,42932,1,8
296,136,43594,6,0,B|296:56,1,70
212,68,44256,1,8
120,208,44918,6,8,B|120:296|208:296,1,140
372,296,46242,5,8
432,140,46904,1,8
264,112,47566,1,8
196,60,47897,1,0
184,144,48228,1,8
184,144,48559,2,0,B|128:144|80:216|128:288|184:288,1,210,0|4
272,152,50214,6,0,B|368:152|368:248,1,140,0|4
280,240,51208,1,8
200,232,51539,2,0,B|200:328|296:328,1,140
368,328,52532,5,8
452,328,52863,2,0,B|452:248,1,70,0|8
392,200,53525,2,0,B|312:200,1,70,0|8
260,260,54187,1,0
208,100,54849,1,0
372,68,55511,6,0,B|444:92|444:92|460:164,1,140
372,152,56504,1,8
288,152,56835,2,0,B|312:224|312:224|384:240,1,140,0|0
376,320,57828,6,0,B|224:320,1,140,0|8
172,268,58821,1,0
216,196,59152,1,0
200,112,59483,1,0
288,112,59815,6,0,B|424:112|424:240,1,210
272,304,61470,5,4
192,288,61801,1,0
216,208,62132,1,8
96,96,62794,6,0,B|24:96,2,70,8|0|0
248,160,64118,2,8,B|248:72|344:72,1,140
400,240,65442,6,0,B|400:288,2,35,8|0|0
320,240,66104,1,8
144,240,66766,6,8,B|144:88,1,140
312,64,68090,2,0,B|352:64,2,35,8|0|0
312,152,68752,1,8
312,320,69414,5,8
312,320,69745,1,0
312,320,70076,1,8
256,192,70242,12,0,71401
256,192,72063,5,4
192,136,72394,2,0,B|256:80|320:136,1,140
256,192,73387,2,0,B|256:336,1,140,8|0
392,120,75042,6,0,B|312:120,1,70
152,112,76035,2,0,B|152:256,1,140,8|0
208,312,77028,1,0
288,312,77359,5,0
288,312,77690,2,0,B|288:160,1,140,8|0
224,112,78683,2,8,B|288:64|352:112,2,140,8|8|8
256,192,81001,12,0,82325
256,192,82987,5,8
256,192,83318,1,8
88,192,83980,2,0,B|88:24|272:24,1,280,10|2
272,104,85635,5,2
272,184,85966,1,2
272,352,86628,2,0,B|440:352|440:168,1,280,2|2
256,288,97883,6,0,B|256:144,1,140,0|8
320,96,98876,6,8,B|416:96|416:184,1,140,4|8
252,208,100201,2,8,B|156:208|156:296,1,140,8|8
240,296,101194,2,0,B|240:344,2,35,8|0|0
324,296,101856,1,8
444,180,102518,5,8
292,108,103180,1,8
140,180,103842,2,0,B|68:180,2,70,8|0|8
256,300,105166,2,8,B|256:380,2,70
256,104,106490,5,8
256,272,107152,1,8
104,200,107815,2,0,B|56:200,2,35,8|0|0
184,200,108476,1,8
424,152,109139,6,8,B|424:56|336:56,1,140
166,56,110463,2,8,B|88:56|88:152,1,140
256,200,111787,1,8
256,200,112118,1,0
256,200,112449,1,8
376,80,113111,6,0,B|376:128,2,35,8|0|0
296,80,113773,1,8
128,80,114435,1,8
208,224,115097,5,8
376,224,115759,1,8
296,72,116421,1,8
256,192,116587,12,0,118408
256,48,121056,5,4
256,216,121718,2,8,B|256:368,1,140
336,360,122711,6,0,B|432:360|432:272,1,140,8|0
432,200,123704,2,8,B|360:200,1,70
112,192,125028,5,4
256,104,125690,1,8
256,272,126352,1,8
400,192,127014,6,0,B|400:112,1,70,8|0
320,96,127676,1,8
152,96,128339,2,0,B|80:96,1,70,8|0
40,168,129001,1,8
376,192,130325,5,8
208,192,130987,2,0,B|136:192,2,70,8|0|8
304,56,132311,2,0,B|352:56,2,35,8|0|0
256,120,132973,1,8
256,200,133304,6,0,B|256:280,1,70,0|8
336,272,133966,2,0,B|384:272,2,35,0|0|8
72,64,135621,6,8,B|224:64,1,140
256,224,136945,2,8,B|256:80,1,140
424,64,138270,2,8,B|272:64,1,140
256,232,139594,1,4
