osu file format v9

[General]
AudioFilename: Nightcore__Dangerous.mp3
AudioLeadIn: 0
PreviewTime: 29028
Countdown: 0
SampleSet: Soft
StackLeniency: 0.7
Mode: 0
LetterboxInBreaks: 0
EpilepsyWarning: 1

[Editor]
Bookmarks: 12451,28357,41791,49621,60722,73388,106491,119567
DistanceSpacing: 1
BeatDivisor: 4
GridSize: 8

[Metadata]
Title:Dangerous (Nightcore Mix)
Artist:Cascada
Creator:Dark_Ai
Version:Dangerous
Source:
Tags:MoonShade Firce777 BounceBabe

[Difficulty]
HPDrainRate:7
CircleSize:4
OverallDifficulty:7
ApproachRate:8
SliderMultiplier:1.6
SliderTickRate:2

[Events]
//Background and Video events
0,0,"background.jpg"
//Break Periods
2,88152,94816
//Storyboard Layer 0 (Background)
Sprite,Background,Centre,"background.jpg",320,240 F,0,-3000,,0 S,0,-3000,,0.625 F,0,0,3202,0,1 F,0,28366,,0.2 F,0,29690,,1 F,0,97221,,0.2 F,0,97883,98545,0.2,0 F,0,98876,,1 F,0,143000,143300,1,0
//Storyboard Layer 1 (Fail)
//Storyboard Layer 2 (Pass)
//Storyboard Layer 3 (Foreground)
Sprite,Foreground,Centre,"SB\bg2.jpg",320,240 F,0,-3000,,0 S,0,-3000,,0.8 F,0,0,3202,0,1 F,0,20421,26421,1,0 F,0,87290,87952,0,1 F,0,97221,,0.2 F,0,97883,98545,0.2,0
Sprite,Foreground,Centre,"SB\character.png",451,240 F,0,3208,4208,1,0 S,1,3208,4208,0.8,0.86 F,0,13801,14801,1,0 S,1,13801,14801,0.8,0.86 F,0,19098,20098,1,0 S,1,19098,20098,0.8,0.86 F,0,95897,96897,1,0 S,1,95897,96897,0.8,0.86
Sprite,Foreground,Centre,"background.jpg",320,240 L,29690,29 F,1,0,300,1,0 S,1,0,300,0.625,0.672 F,0,300,662,0 L,50876,15 F,1,0,300,1,0 S,1,0,300,0.625,0.672 F,0,300,662,0 L,61470,14 F,1,0,300,1,0 S,1,0,300,0.625,0.672 F,0,300,662,0 L,99208,28 F,1,0,300,1,0 S,1,0,300,0.625,0.672 F,0,300,662,0 L,121056,12 F,1,0,300,1,0 S,1,0,300,0.625,0.672 F,0,300,662,0 L,130325,13 F,1,0,300,1,0 S,1,0,300,0.625,0.672 F,0,300,662,0
Sprite,Foreground,Centre,"SB\white.jpg",320,240 L,48559,12 F,0,0,83,0.4,0 L,117414,12 F,0,0,83,0.4,0 L,138601,12 F,0,0,83,0.4,0 F,0,49552,,0.6 F,0,50876,,0 F,0,70739,,0.6 F,0,72063,,0 F,0,118408,,0.6 F,0,119732,,0 F,0,139594,141594,0.6,0
//Storyboard Sound Samples
//Background Colour Transformations
3,100,163,162,255

[TimingPoints]
1884,331.034482758621,4,2,1,80,1,0
29690,-100,4,1,0,80,0,1
32835,-133.333333333333,4,1,0,80,0,1
33994,-100,4,1,0,80,0,1
49552,-100,4,1,0,80,0,0
65773,-50,4,1,0,80,0,0
66849,-100,4,1,0,80,0,0
72394,-100,4,2,0,80,0,0
97884,-66.6666666666667,4,2,1,80,0,0
98380,-100,4,2,1,80,0,0
98876,-100,4,1,0,80,0,1
102933,-100,4,1,0,80,0,1
112449,-133.333333333333,4,2,0,80,0,1
113195,-100,4,1,0,80,0,1
118408,-100,4,1,0,80,0,0
130325,-100,4,1,0,80,0,1
139594,-100,4,1,0,80,0,0

[Colours]
Combo1 : 58,36,255
Combo2 : 33,172,184
Combo3 : 255,128,192
Combo4 : 240,5,5

[HitObjects]
48,56,3539,1,0
208,56,3870,1,0
472,240,4532,1,0
472,328,4697,1,0
400,328,4863,1,0
400,240,5028,1,0
328,240,5194,2,0,B|328:320|328:320,1,80
248,320,5525,2,0,B|80:320|80:320,1,160,2|0
88,160,6187,5,0
208,48,6518,2,0,B|384:48,1,160
440,192,7180,1,0
360,192,7346,1,0
200,192,7677,1,0
56,192,8008,1,0
56,192,8173,2,0,B|56:296|168:296,1,160,2|0
256,168,8835,5,0
416,168,9166,1,0
128,312,9828,2,0,B|72:312|64:264,1,80
64,192,10159,1,0
64,112,10325,1,0
136,152,10490,2,0,B|216:112|296:152,2,160,2|0|2
216,296,11484,5,0
216,216,11649,2,0,B|320:216,1,80,0|2
456,216,12146,1,0
256,192,12477,12,2,13801
256,192,14132,5,0
416,192,14463,1,2
128,328,15125,1,2
48,320,15290,1,0
16,248,15456,1,0
48,176,15621,1,0
128,168,15787,1,2
272,240,16118,2,0,B|296:288|384:288|408:240,1,160
336,96,16780,5,0
407,241,17111,1,0
104,360,17773,1,2
56,296,17939,1,0
88,136,18270,1,0
248,136,18601,1,0
360,344,19097,5,0
256,224,19428,1,0
360,104,19759,2,0,B|288:48|208:104,1,160
56,104,20421,2,0,B|0:176|56:256,1,160
200,192,21084,5,0
360,192,21415,1,0
280,56,21746,1,0
280,216,22077,1,0
120,192,22408,5,0
256,280,22739,1,0
256,120,23070,1,0
400,192,23401,1,0
328,336,23732,1,0
184,264,24063,6,0,B|136:232|64:280|88:344,1,160
24,192,24725,2,0,B|16:100|96:60,1,160
256,80,25387,1,0
392,168,25718,1,0
336,320,26049,1,0
176,320,26380,1,0
120,168,26711,1,0
128,88,26877,1,0
208,112,27042,5,0
256,176,27208,1,0
304,112,27373,1,0
312,112,27456,1,0
320,112,27539,1,0
328,112,27621,1,0
336,112,27704,1,0
344,112,27787,1,0
352,112,27870,1,0
360,112,27953,1,0
368,112,28035,1,0
376,112,28118,1,0
384,112,28201,1,0
392,112,28284,1,0
400,112,28366,1,0
496,104,29028,5,0
488,184,29194,1,0
448,256,29359,1,0
384,312,29525,1,0
312,344,29690,2,0,B|128:344,1,160,0|8
40,304,30352,5,0
104,256,30518,1,0
40,216,30684,1,8
104,168,30849,1,0
40,120,31015,2,0,B|104:24|208:40,1,160,0|8
296,72,31677,5,0
384,160,32008,1,8
264,192,32339,1,0
360,272,32670,1,8
304,312,32835,2,0,B|208:344|112:264,2,179.999994635582,0|8|0
304,312,33994,1,8
216,176,34325,5,0
264,112,34490,1,0
312,176,34656,1,8
264,240,34821,1,0
344,240,34987,2,0,B|424:200|400:104,1,160,0|8
240,104,35649,6,0,B|160:104,1,80
320,104,35980,2,0,B|400:104,1,80,8|0
176,216,36311,2,0,B|72:216,1,80
384,216,36642,2,0,B|488:216,1,80,8|0
280,216,36973,2,0,B|280:40,1,160,0|8
256,192,37470,12,8,39290
88,96,39621,5,0
128,168,39787,1,0
176,96,39952,1,8
216,168,40118,1,0
256,96,40284,2,0,B|424:96,1,160,0|8
416,256,40946,5,0
384,328,41111,1,0
304,328,41277,1,8
264,256,41442,1,0
312,192,41608,2,0,B|256:112|176:112,1,160,0|8
48,208,42270,5,0
168,320,42601,1,8
280,208,42932,1,0
168,96,43263,2,0,B|168:-16,1,80,8|0
168,16,43594,2,0,B|256:16,1,80
280,88,43925,2,0,B|280:280,1,160,8|0
280,248,44587,1,8
384,128,44918,5,0
464,128,45083,1,0
424,200,45249,1,8
424,280,45415,1,0
344,272,45580,2,0,B|264:336|184:256,1,160,0|8
272,128,46242,5,0
208,176,46408,2,0,B|128:224,1,80,0|8
72,256,46739,1,0
72,176,46904,2,0,B|72:88,1,80
120,32,47235,1,8
168,96,47401,2,0,B|168:184,1,80
168,256,47732,1,0
224,312,47897,2,0,B|288:392|360:312,1,160,8|0
368,152,48559,5,0
368,160,48642,1,0
368,168,48725,1,0
368,176,48808,1,0
368,184,48890,1,0
368,192,48973,1,0
368,200,49056,1,0
368,208,49139,1,0
368,216,49221,1,0
368,224,49304,1,0
368,232,49387,1,0
368,240,49470,1,0
368,248,49552,1,4
160,72,50215,5,0
96,128,50380,1,0
160,176,50546,1,0
96,224,50711,1,0
160,272,50877,1,0
312,328,51208,5,8
456,256,51539,1,0
456,96,51870,1,8
392,48,52035,1,0
456,96,52201,1,0
304,152,52532,5,8
208,24,52863,1,0
136,64,53028,1,0
136,144,53194,1,8
208,184,53359,1,0
280,144,53525,1,0
280,304,53856,5,8
120,336,54187,1,0
32,200,54518,1,8
88,144,54683,1,0
32,88,54849,1,0
184,152,55180,5,8
264,56,55346,1,0
352,152,55511,1,0
264,248,55677,1,0
184,152,55842,1,8
352,152,56008,1,0
184,152,56173,1,0
448,200,56504,6,0,B|448:304|352:304,1,160,8|0
176,296,57166,1,8
224,360,57332,1,0
304,360,57497,1,0
472,264,57828,5,8
472,104,58159,1,0
408,56,58325,1,0
344,104,58490,1,8
344,184,58656,1,0
408,224,58821,1,0
256,264,59152,5,8
200,112,59483,1,0
72,208,59815,1,8
32,144,59980,1,0
40,72,60146,1,0
256,192,60477,12,4,61470
256,192,61801,5,8
104,232,62132,1,0
224,336,62463,1,8
224,336,62628,1,0
224,336,62794,1,0
224,336,63125,1,8
360,256,63456,5,0
408,192,63621,1,0
448,112,63787,2,0,B|392:48|392:48|312:48,1,160,8|0
160,48,64449,1,8
64,176,64780,1,0
216,240,65111,6,0,B|288:264|288:264|368:240,1,160,8|0
472,120,65773,1,8
320,120,65939,1,0
448,32,66104,1,0
392,184,66270,1,0
352,32,66435,1,8
448,320,66766,5,0
288,320,67097,1,8
216,176,67428,1,0
112,56,67759,2,0,B|32:56|32:56|32:144,1,160,8|0
88,288,68421,1,8
168,144,68752,5,0
208,216,68918,1,0
256,280,69083,1,8
304,216,69249,1,0
344,144,69415,1,0
224,80,69746,5,0
216,80,69828,1,0
208,80,69911,1,0
200,80,69994,1,0
192,80,70077,1,0
184,80,70159,1,0
176,80,70242,1,0
168,80,70325,1,0
160,80,70408,1,0
152,80,70490,1,0
144,80,70573,1,0
136,80,70656,1,0
128,80,70739,1,4
32,208,71070,5,0
96,256,71235,1,0
160,208,71401,1,0
160,208,71484,1,0
160,208,71566,1,0
160,208,71649,1,0
160,208,71732,2,0,B|336:208,1,160,0|4
456,328,72394,5,0
456,168,72725,2,0,B|456:80|456:80|384:80,1,160,2|0
224,96,73387,1,2
160,48,73552,1,0
96,96,73718,1,0
120,168,73883,1,0
200,168,74049,2,0,B|368:168,1,160,2|0
360,168,74711,5,2
400,240,74877,1,0
360,312,75042,1,0
200,312,75373,2,0,B|120:312|120:312|120:224,1,160,2|0
88,104,76035,1,2
144,48,76201,1,0
168,128,76366,1,0
224,64,76532,1,0
304,72,76697,2,0,B|368:128|344:224,1,160,2|0
192,256,77359,1,8
232,96,77690,5,2
112,72,78021,2,0,B|24:72|24:72|24:152,1,160,0|2
72,264,78683,1,0
120,200,78849,1,0
168,264,79015,1,2
216,200,79180,1,0
264,264,79346,2,0,B|320:192|272:104,3,160,0|0|0|2
432,112,80670,2,0,B|480:192|432:272,3,160,0|2|0|2
104,192,82987,5,2
408,192,83318,1,0
256,344,83980,5,2
256,264,84146,1,0
256,184,84311,1,0
256,184,84477,1,0
256,104,84642,1,2
256,104,84973,2,0,B|336:104|336:104|336:184,1,160,0|2
496,192,85635,5,0
16,192,85966,1,0
256,64,86628,5,2
256,144,86794,1,0
256,224,86959,1,0
256,224,87125,1,0
256,304,87290,1,2
256,304,87621,2,0,B|176:304|176:304|176:224,1,160,0|2
256,192,95566,12,0,97221
152,104,97883,5,0
256,48,98049,1,0
360,104,98215,1,0
256,168,98380,1,0
256,168,98877,5,4
312,232,99042,1,0
256,296,99208,1,0
200,232,99373,1,0
144,160,99539,1,8
144,160,99704,2,0,B|192:32|328:32,1,240,0|8
368,304,100532,5,0
264,232,100863,1,8
264,104,101194,1,0
192,64,101359,1,0
120,104,101525,1,8
120,184,101690,1,0
120,264,101856,6,0,B|40:328,1,80
128,352,102187,2,0,B|208:352,1,80,8|0
208,272,102518,1,0
208,272,102849,1,8
208,272,103180,5,0
264,216,103346,1,0
312,152,103511,1,8
392,152,103677,1,0
392,152,103759,1,0
392,152,103842,2,0,B|392:320,1,160,0|8
168,224,104670,5,0
168,304,104835,1,8
88,320,105001,2,0,B|32:320|32:256,1,80
32,192,105332,1,0
32,112,105497,2,0,B|32:56|96:56,1,80,8|0
112,128,105828,1,0
112,128,105994,2,0,B|224:128,1,80,0|8
256,192,106490,12,0,108146
256,56,108477,5,0
392,144,108642,1,0
336,296,108808,1,8
176,296,108973,1,0
120,144,109139,2,0,B|56:200|80:304,1,160
384,192,109801,5,0
224,192,109966,1,0
384,192,110132,1,8
224,192,110297,1,0
384,192,110463,2,0,B|384:88|264:88,1,160
256,248,111125,5,0
120,160,111456,1,8
256,72,111787,1,0
256,152,111952,1,0
256,232,112118,1,8
256,312,112283,1,0
256,312,112449,2,2,B|184:368|120:272|16:360,1,239.999992847443
88,64,113773,5,0
152,112,113939,1,0
152,192,114104,1,8
232,192,114270,2,0,B|384:192|384:352,1,240,0|8
144,312,115263,6,0,B|216:264,1,80,0|8
152,216,115594,1,0
208,160,115759,2,0,B|144:104,1,80
216,56,116090,1,8
296,56,116256,2,0,B|384:56,1,80
424,120,116587,2,0,B|520:176|488:288|368:304|320:192,1,320,0|0
240,184,117415,5,0
232,184,117497,1,0
224,184,117580,1,0
216,184,117663,1,0
208,184,117746,1,0
200,184,117828,1,0
192,184,117911,1,0
184,184,117994,1,0
176,184,118077,1,0
168,184,118159,1,0
160,184,118242,1,0
152,184,118325,1,0
144,184,118408,1,4
288,288,119732,5,0
368,288,119897,1,0
440,248,120063,1,0
456,168,120228,1,0
456,168,120311,1,0
456,168,120394,2,0,B|456:72,1,80
376,88,120725,6,0,B|304:40|216:48,1,160,0|0
104,152,121387,1,8
32,248,121718,1,0
88,304,121883,1,0
144,248,122049,1,8
232,248,122215,1,0
288,184,122380,5,0
392,264,122711,1,8
392,128,123042,1,0
248,56,123373,2,0,B|176:8|96:56,1,160,8|0
224,152,124035,5,8
296,192,124201,1,0
224,232,124366,1,0
224,312,124532,1,0
224,312,124697,2,0,B|384:312,1,160,8|0
472,176,125359,5,8
312,72,125690,1,0
184,136,126021,1,8
128,200,126187,1,0
72,264,126352,1,0
208,288,126684,6,0,B|288:224|264:128,1,160,8|0
288,72,127180,1,0
368,48,127346,1,8
432,96,127511,1,0
432,176,127677,1,0
336,304,128008,1,8
216,200,128339,1,0
88,112,128670,2,0,B|40:176,1,80,8|0
256,192,129001,12,4,130325
40,192,130656,6,0,B|216:192,1,160,0|8
256,40,131318,1,0
328,80,131484,1,0
376,144,131649,1,8
224,200,131980,1,0
152,344,132311,5,8
80,304,132477,1,0
80,224,132642,1,0
152,184,132808,1,0
224,224,132973,1,8
344,336,133304,1,0
344,336,133635,1,8
408,192,133966,2,0,B|320:192,2,80,0|0|8
328,56,134628,6,0,B|296:16|224:32,1,80
256,104,134959,2,0,B|288:144|360:128,1,80,8|0
327,132,135290,1,0
256,280,135621,1,8
120,192,135952,1,0
120,192,136284,1,8
120,352,136615,5,0
184,304,136780,1,0
248,352,136946,1,8
408,352,137277,1,0
456,200,137608,5,8
456,120,137773,1,0
392,72,137939,1,0
328,120,138104,1,0
328,200,138270,1,8
176,160,138601,1,0
176,160,138932,1,8
80,288,139263,5,0
24,224,139428,1,0
80,160,139594,1,4
