osu file format v9

[General]
AudioFilename: Cascada - Because The Night.mp3
AudioLeadIn: 0
PreviewTime: -1
Countdown: 1
SampleSet: Normal
StackLeniency: 0.7
Mode: 0
LetterboxInBreaks: 1

[Editor]
DistanceSpacing: 0.8
BeatDivisor: 2
GridSize: 8

[Metadata]
Title:Because The Night
Artist:Cascada
Creator:lDofuz
Version:Easy
Source:Cascada Electro
Tags:

[Difficulty]
HPDrainRate:2
CircleSize:3
OverallDifficulty:2
ApproachRate:2
SliderMultiplier:0.9
SliderTickRate:1

[Events]
//Background and Video events
//Break Periods
//Storyboard Layer 0 (Background)
//Storyboard Layer 1 (Fail)
//Storyboard Layer 2 (Pass)
//Storyboard Layer 3 (Foreground)
//Storyboard Sound Samples
//Background Colour Transformations
3,100,163,162,255

[TimingPoints]
2159,428.571428571429,4,1,0,30,1,0

[HitObjects]
256,72,9016,2,0,B|160:72|160:184,1,135
56,144,10301,1,0
56,216,10730,2,0,B|56:320|144:320,1,135
304,320,12444,5,0
304,208,13087,2,0,B|304:120|216:128,1,135
232,200,14159,2,0,B|144:200|152:104,1,135
328,104,15873,6,0,B|328:200|240:200,1,135
72,200,17587,6,0,B|176:200,2,90
168,96,19301,2,0,B|320:96,1,135
448,96,21016,2,0,B|448:264,1,135
272,240,22730,2,0,B|184:240|184:152,1,135
368,160,24444,2,0,B|368:48|232:48,1,180
256,160,26159,6,0,B|256:280|376:280,1,180
368,208,27444,1,0
368,136,27873,1,0
368,64,28301,2,0,B|272:64,1,90
272,208,29587,2,0,B|272:304|272:304|224:304,1,135
80,208,31301,2,0,B|80:104|216:104,1,180
256,240,33016,6,0,B|256:120,2,90
400,240,34730,6,0,B|400:120,2,90
256,240,36444,6,0,B|256:120,7,90
184,128,39873,2,0,B|256:32|336:128,1,180
328,264,41587,2,0,B|256:360|176:264,1,180
256,144,43301,2,0,B|336:88|336:208|448:136,1,180
432,296,45016,2,0,B|352:240|352:360|240:288,1,180
256,160,46730,6,0,B|256:48|112:48,1,180
136,192,48444,2,0,B|136:304|280:304,1,180
256,160,50159,2,0,B|352:160,1,90
416,160,51016,2,0,B|416:264,1,90
256,192,51873,12,0,53159
248,72,53587,6,0,B|248:160,1,90
248,232,54444,2,0,B|248:336,1,90
320,320,55301,2,0,B|432:184|288:48,1,270
240,72,57016,2,0,B|136:72,1,90
80,72,57873,2,0,B|80:176,1,90
80,232,58730,6,0,B|160:344|216:344|296:216,1,270
352,232,60444,2,0,B|464:232,1,90
440,160,61301,2,0,B|440:48,1,90
368,72,62159,2,0,B|240:72,1,90
208,72,63016,2,0,B|208:120,2,45,0|8|8
256,192,63873,12,0,67301
256,104,69016,6,0,B|128:104|128:232,1,180
240,200,70516,2,0,B|320:200,1,45
360,200,71159,2,0,B|416:200,4,45,0|0|0|8|8
288,200,72444,6,0,B|160:200|160:72,1,180
272,96,73944,2,0,B|320:96,7,45,0|0|0|0|0|0|8|8
392,104,75873,2,0,B|368:192|448:216|384:320,1,180
264,264,77587,2,0,B|264:176,1,90
264,104,78444,2,0,B|320:104,2,45,0|8|8
256,192,79301,12,0,82730
