osu file format v9

[General]
AudioFilename: Nightcore_-_Bad_Boy.mp3
AudioLeadIn: 1004
PreviewTime: 24407
Countdown: 0
SampleSet: Soft
StackLeniency: 0.7
Mode: 0
LetterboxInBreaks: 1

[Editor]
Bookmarks: 1740,24407,49909,61243,72577,83911,96646,133498
DistanceSpacing: 1.1
BeatDivisor: 2
GridSize: 16

[Metadata]
Title:Bad Boy(Nightcore Mix)
Artist:Cascada
Creator:ratstar
Version:Normal
Source:Nightcore
Tags:mikanagision trance

[Difficulty]
HPDrainRate:3
CircleSize:4
OverallDifficulty:4
ApproachRate:5
SliderMultiplier:1
SliderTickRate:1

[Events]
//Background and Video events
0,0,"cirno.jpg"
//Break Periods
2,50101,59325
//Storyboard Layer 0 (Background)
//Storyboard Layer 1 (Fail)
//Storyboard Layer 2 (Pass)
//Storyboard Layer 3 (Foreground)
//Storyboard Sound Samples
//Background Colour Transformations
3,100,163,162,255

[TimingPoints]
1740,354.128548663165,4,2,0,50,1,0
13072,-100,4,2,0,75,0,0
17321,-200,4,2,0,75,0,0
18738,-100,4,2,0,75,0,0
24404,-100,4,1,0,100,0,1
44235,-100,4,2,0,100,0,0
45651,-200,4,2,0,100,0,0
47068,-100,4,2,0,100,0,0
49909,-100,4,2,0,100,0,0
61233,-100,4,1,0,100,0,1
83897,-100,4,1,0,100,0,0
85314,-100,4,2,0,50,0,0
90980,-100,4,2,0,60,0,0
95938,-100,4,2,0,80,0,0
96646,-100,4,1,0,80,0,0
107978,-100,4,1,0,50,0,0

[Colours]
Combo1 : 6,251,104
Combo2 : 255,85,85
Combo3 : 72,175,251
Combo4 : 255,255,0

[HitObjects]
131,198,1739,2,0,B|86:129|137:56,2,150,4|0|2
231,153,3156,2,0,B|302:111|376:157,2,150,0|0|2
264,258,4573,2,0,B|190:300|117:255,2,150,0|0|2
356,197,5989,2,0,B|412:264|356:333,2,150,0|0|0
275,155,7406,5,2
161,319,8114,1,0
71,319,8468,1,0
116,241,8822,1,2
202,61,9530,5,0
266,124,9884,1,0
331,61,10239,1,2
433,232,10947,5,0
357,280,11301,1,0
279,326,11655,1,2
88,265,12363,1,0
164,217,12717,1,2
241,173,13072,2,0,B|239:259|329:293,1,150,8|0
459,234,14134,5,0
459,234,14488,2,0,B|443:142|376:114,1,150,8|0
235,68,15551,1,0
235,68,15905,2,0,B|141:121|234:179,1,150,8|0
383,191,16967,1,0
383,191,17321,2,0,B|479:245|383:299,1,150,8|2
283,302,18738,6,0,B|124:301,2,150,8|0|2
242,210,20154,2,0,B|404:210,2,150,8|0|2
199,119,21571,5,2
152,229,21925,1,2
260,279,22279,1,2
314,171,22633,1,2
256,192,22987,12,4,24050
257,59,24404,5,0
257,59,24758,1,8
178,120,25112,2,2,B|127:120,2,50
256,182,25820,1,0
256,182,26174,1,8
329,249,26528,2,2,B|393:249,2,50
254,315,27237,5,0
168,352,27591,1,8
106,281,27945,1,0
154,200,28299,1,0
246,221,28653,1,0
183,276,29007,2,8,B|134:309,2,50
309,244,29716,6,0,B|358:279,2,50
239,171,30424,1,8
171,244,30778,1,0
71,244,31132,2,0,B|71:193|103:146,1,100,8|0
177,79,31840,2,2,B|177:22,2,50
275,127,32549,6,2,B|275:183,2,50,2|2|0
347,57,33257,1,8
417,127,33611,1,0
347,198,33965,1,8
272,264,34319,2,0,B|224:289|176:263,2,100,0|0|4
462,158,35736,5,0
462,158,36090,1,8
412,71,36444,2,2,B|354:162,1,100
309,242,37152,1,0
309,242,37506,1,8
263,330,37861,2,2,B|207:244,1,100
157,160,38569,5,0
157,160,38923,1,8
119,263,39277,2,2,B|166:239,3,50
208,216,39985,1,8
256,112,40340,1,8
304,216,40694,1,8
445,189,41048,6,0,B|504:189,2,50
345,186,41756,1,8
271,117,42110,1,0
271,17,42464,1,8
185,71,42818,2,2,B|127:71,4,50
161,167,43881,6,0,B|161:224,2,50
261,166,44589,1,2
360,168,44943,1,0
261,166,45297,1,2
360,168,45651,6,0,B|458:222|362:275,1,150,0|4
262,274,47068,1,0
162,274,47422,1,2
262,274,47776,1,0
162,274,48130,1,2
256,192,48484,12,4,49901
256,192,60525,5,4
256,192,60879,1,4
368,192,61233,5,0
427,111,61587,1,0
339,62,61941,2,2,B|339:4,4,50,2|2|2|2|0
253,113,63004,5,0
153,116,63358,2,2,B|109:74,4,50,2|2|2|2|0
156,215,64420,5,0
157,315,64774,2,2,B|196:346,4,50,2|2|2|2|0
157,315,65837,1,0
276,315,66191,1,4
276,315,66545,1,4
215,223,66899,5,0
274,130,67253,1,0
372,179,67607,2,2,B|433:179,4,50,2|2|2|2|0
370,68,68670,5,0
265,33,69024,2,2,B|265:85,4,50,2|2|2|2|0
160,68,70086,5,0
207,167,70440,2,2,B|252:188,4,50,2|2|2|2|0
207,167,71503,5,0
97,164,71857,1,4
97,164,72211,1,4
61,268,72565,5,0
164,303,72919,1,0
267,339,73273,2,2,B|372:339,1,100
452,269,73982,5,0
349,229,74336,1,0
239,229,74690,2,2,B|305:144,1,100
301,40,75398,5,0
395,96,75752,1,0
284,93,76106,2,2,B|180:92,1,100
89,147,76815,5,0
88,256,77169,1,0
185,205,77523,2,2,B|298:205,1,100
378,145,78231,5,0
435,238,78585,1,0
383,335,78940,2,2,B|433:335,2,50
277,335,79648,5,0
183,276,80002,1,0
73,276,80356,2,2,B|39:312,2,50
107,184,81064,5,0
183,104,81418,1,0
285,64,81773,2,2,B|346:64,2,50
286,168,82481,5,0
388,229,82835,1,0
320,327,83189,1,0
217,264,83543,1,0
286,168,83897,1,4
160,288,85314,6,0,B|96:288|57:246|127:200,2,150,0|0|2
245,235,86730,2,0,B|394:201,1,150
441,59,87793,1,2
441,59,88147,6,0,B|374:0|341:136,2,150,0|0|2
418,156,89563,2,0,B|269:130,1,150
141,26,90626,1,2
96,103,90980,6,0,B|151:195,1,100,8|0
117,229,91511,2,0,B|218:253,1,100
237,296,92042,1,2
356,301,92396,6,0,B|409:293|428:238,1,100,8|0
392,203,92928,2,0,B|408:154|369:111,1,100
320,100,93459,1,2
256,176,93813,6,0,B|184:212|112:176,2,150,8|0|0
256,176,95229,1,0
256,176,95584,1,2
197,95,95938,2,0,B|208:44,2,50,0|0|4
106,141,96646,6,0,B|75:191|104:236,2,100
205,188,97708,1,8
315,187,98062,2,0,B|366:211|413:188,2,100
360,86,99125,1,8
260,38,99479,6,0,B|204:67|194:112,1,100,0|8
203,219,100187,2,0,B|144:208|122:163,1,100,0|8
60,74,100895,1,0
27,179,101250,1,0
60,283,101604,1,0
160,326,101958,1,8
269,329,102312,6,2,B|369:329,1,100
431,238,103020,2,2,B|331:238,1,100
251,161,103729,2,2,B|145:161,1,100
90,69,104437,2,2,B|198:69,1,100
256,192,105145,12,4,107624
450,101,107978,5,0
276,52,108686,2,2,B|246:100|277:148,1,100
370,177,109395,1,0
416,336,110103,2,2,B|317:336,1,100
216,336,110811,1,0
52,337,111519,2,2,B|23:293|55:241,1,100
150,267,112228,5,0
215,166,112582,1,0
279,267,112936,1,4
468,204,113644,6,8,B|429:139|394:206,1,100
257,57,114707,1,0
224,151,115061,2,8,B|261:214|296:152,1,100
103,88,116123,1,0
104,187,116477,2,8,B|41:221|104:259,1,100
257,224,117540,1,0
326,308,117894,5,0
396,223,118248,1,0
326,137,118602,1,4
171,293,119310,5,0
105,125,120018,2,2,B|50:149|50:208,1,100
132,258,120727,1,0
255,108,121435,2,2,B|201:127|200:187,1,100
290,225,122143,1,0
383,48,122851,2,2,B|444:70|444:124,1,100
350,156,123560,5,0
256,190,123914,1,0
256,290,124268,1,4
430,302,124976,6,0,B|386:303|399:249|349:249,1,100
251,254,125684,1,8
251,254,126039,1,8
201,167,126393,2,2,B|154:167|171:113|125:113,2,100
257,72,127455,1,8
314,166,127809,2,0,B|361:192|409:167,3,100
256,192,129226,12,0,130288
198,218,130642,6,0,B|151:192|103:217,3,100
256,192,132059,12,4,133475
