osu file format v14

[General]
AudioFilename: Cartoon - Why We Lose (feat. Coleman Trapp) [NCS Release].mp3
AudioLeadIn: 0
PreviewTime: 87796
Countdown: 1
SampleSet: None
StackLeniency: 0.2
Mode: 0
LetterboxInBreaks: 1
WidescreenStoryboard: 0

[Editor]
Bookmarks: 25,21967,43910,65853,87796,98767,109739,120710,131682,153625,164596,175567,186539,197509,208482
DistanceSpacing: 0.5
BeatDivisor: 4
GridSize: 32
TimelineZoom: 2.5

[Metadata]
Title:Why We Lose (feat. Coleman Trapp)
TitleUnicode:Why We Lose (feat. Coleman Trapp)
Artist:Cartoon
ArtistUnicode:Cartoon
Creator:Asphyxia
Version:Collab
Source:
Tags:Axarious
BeatmapID:1491320
BeatmapSetID:705041

[Difficulty]
HPDrainRate:5
CircleSize:4.2
OverallDifficulty:8.4
ApproachRate:9.3
SliderMultiplier:2.5
SliderTickRate:1

[Events]
//Background and Video events
0,0,"wallhaven-149054.jpg",0,0
//Break Periods
2,8453,10442
//Storyboard Layer 0 (Background)
//Storyboard Layer 1 (Fail)
//Storyboard Layer 2 (Pass)
//Storyboard Layer 3 (Foreground)
//Storyboard Sound Samples

[TimingPoints]
25,685.714285714286,4,2,0,40,1,0
21967,342.857142857143,4,2,0,40,1,0
21967,-133.333333333333,4,2,0,50,0,0
43053,-100,4,2,0,50,0,0
43910,-200,4,2,0,30,0,0
45110,-100,4,2,0,30,0,0
45967,-200,4,2,0,30,0,0
47853,-100,4,2,0,30,0,0
48710,-200,4,2,0,30,0,0
50596,-100,4,2,0,30,0,0
51453,-200,4,2,0,30,0,0
53339,-100,4,2,0,30,0,0
54196,-200,4,2,0,30,0,0
54882,-100,4,2,0,30,0,0
67396,-133.333333333333,4,2,0,50,0,0
68596,-100,4,2,0,50,0,0
69796,-133.333333333333,4,2,0,50,0,0
71339,-100,4,2,0,50,0,0
72196,-133.333333333333,4,2,0,50,0,0
74082,-100,4,2,0,50,0,0
75453,-133.333333333333,4,2,0,50,0,0
76825,-100,4,2,0,50,0,0
87796,-200,4,2,0,50,0,0
88139,-66.6666666666667,4,2,0,50,0,0
90196,-100,4,2,0,50,0,0
90539,-200,4,2,0,50,0,0
90882,-66.6666666666667,4,2,0,50,0,0
92939,-100,4,2,0,50,0,0
93282,-200,4,2,0,50,0,0
93625,-66.6666666666667,4,2,0,50,0,0
95682,-100,4,2,0,50,0,0
96025,-200,4,2,0,50,0,0
96367,-66.6666666666667,4,2,0,50,0,0
98425,-100,4,2,0,50,0,0
98767,-200,4,2,0,50,0,0
99453,-100,4,2,0,50,0,0
99967,-66.6666666666667,4,2,0,50,0,0
100825,-200,4,2,0,50,0,0
101339,-66.6666666666667,4,2,0,50,0,0
101510,-200,4,2,0,50,0,0
102196,-100,4,2,0,50,0,0
102710,-66.6666666666667,4,2,0,50,0,0
103567,-200,4,2,0,50,0,0
104082,-66.6666666666667,4,2,0,50,0,0
104253,-200,4,2,0,50,0,0
104939,-100,4,2,0,50,0,0
105453,-66.6666666666667,4,2,0,50,0,0
106310,-200,4,2,0,50,0,0
106996,-80,4,2,0,50,0,0
109739,-100,4,2,0,50,0,0
110253,-66.6666666666667,4,2,0,50,0,0
131682,-200,4,2,0,50,0,0
153625,-100,4,2,0,50,0,0
164596,-66.6666666666667,4,2,0,50,0,0
182253,-100,4,2,0,50,0,0
182596,-66.6666666666667,4,2,0,50,0,0
184825,-100,4,2,0,50,0,0
185167,-66.6666666666667,4,2,0,50,0,0
185682,-50,4,2,0,50,0,0
186539,-200,4,2,0,50,0,0
197509,-66.6666666666667,4,2,0,50,0,0
198024,-83.3333333333333,4,2,0,50,0,0
198195,-111.111111111111,4,2,0,50,0,0
198367,-166.666666666666,4,2,0,50,0,0
198881,-66.6666666666667,4,2,0,50,0,0
200595,-166.666666666666,4,2,0,50,0,0
200767,-111.111111111111,4,2,0,50,0,0
200938,-83.3333333333332,4,2,0,50,0,0
201109,-66.6666666666667,4,2,0,50,0,0
203509,-83.3333333333332,4,2,0,50,0,0
203681,-111.111111111111,4,2,0,50,0,0
203852,-166.666666666667,4,2,0,50,0,0
204367,-66.6666666666667,4,2,0,50,0,0
204709,-100,4,2,0,50,0,0
205052,-66.6666666666667,4,2,0,50,0,0
205395,-100,4,2,0,50,0,0

[Colours]
Combo1 : 155,205,255
Combo2 : 160,160,160
Combo3 : 221,221,221
Combo4 : 0,68,136

[HitObjects]
464,238,25,6,0,B|479:225|479:225|438:157|444:63|502:12|502:12|470:78|409:104|338:90|338:90|402:82|471:107|509:156|509:156|391:206|263:177|193:82|193:82|300:123|347:235|308:364|308:364|319:322|343:298|383:289,1,1437.5
396,374,4139,6,0,B|346:365|334:383|284:374|284:374|332:233|229:157|271:16|271:16|271:133|182:229|66:239|66:239|199:192|377:221|485:317|485:317|451:299|413:291|375:291|375:291|419:278|455:255|486:222,1,1500
434,116,10996,6,0,B|427:87|397:66|397:66|481:14|481:14|512:136|415:167|460:290|460:290|422:223|339:197|257:223|257:223|183:247|96:237|29:207|29:207|118:219|194:280|221:360|221:360|234:259|280:190|356:135,1,1437.5
274,106,15110,6,0,B|184:206|45:160|41:28|41:28|-6:-14|96:-25|189:9|234:81|227:168|227:168|215:279|393:391|488:338|488:338|419:322|334:336|280:383|280:383|332:321|350:233|325:165|325:165|312:177|299:187,1,1500
256,192,19310,12,0,21282,0:0:0:0:
317,267,21967,6,0,P|362:357|380:245,1,281.250010728836
177,214,22653,2,0,P|198:241|186:209,1,93.7500035762788
299,25,22996,2,0,P|315:54|308:79,1,46.8750017881394
267,127,23167,2,0,P|233:126|215:107,1,46.8750017881394
313,66,23339,6,0,P|330:37|355:31,1,46.8750017881394
459,145,23510,2,0,P|442:95|400:174,1,187.500007152558
350,323,24025,2,0,P|409:336|424:229,1,187.500007152558
196,170,24710,6,0,P|135:216|237:199,1,281.250010728836
354,36,25396,2,0,P|294:16|262:118,1,187.500007152558
389,212,25910,2,0,P|428:201|434:177,1,46.8750017881394
512,224,26082,6,0,P|488:185|427:201,1,93.7500035762788
376,111,26425,2,0,P|393:96|416:93,1,46.8750017881394
341,272,26596,2,0,P|358:286|381:289,1,46.8750017881394
501,80,26767,2,0,P|476:35|333:67,1,187.500007152558
172,245,27453,6,0,P|160:368|78:281,1,281.250010728836
130,89,28139,2,0,P|109:116|121:84,1,93.7500035762788
31,57,28482,2,0,P|54:26|70:18,1,46.8750017881394
197,48,28653,2,0,P|212:83|211:101,1,46.8750017881394
120,191,28825,2,0,P|81:186|66:176,1,46.8750017881394
197,48,28996,2,0,P|268:46|208:89,1,187.500007152558
120,191,29510,2,0,P|184:254|172:344,1,187.500007152558
374,255,30196,6,0,P|365:195|406:270,1,281.250010728836
191,208,30882,2,0,P|155:153|203:44,1,187.500007152558
257,168,31396,2,0,P|272:203|261:221,1,46.8750017881394
193,352,31567,2,0,P|230:325|234:280,1,93.7500035762788
297,104,31910,2,0,P|327:126|326:147,1,46.8750017881394
220,62,32082,2,0,P|230:41|251:32,1,46.8750017881394
428,119,32253,2,0,P|462:163|382:274,1,187.500007152558
126,224,32939,6,0,P|119:116|56:204,1,281.250010728836
309,323,33625,2,0,P|288:296|300:328,1,93.7500035762788
266,223,33967,2,0,P|238:232|230:262,1,46.8750017881394
388,327,34139,2,0,P|394:298|372:276,1,46.8750017881394
266,223,34310,2,0,P|287:242|317:234,1,46.8750017881394
509,164,34482,2,0,P|521:111|424:14,1,187.500007152558
392,153,34996,2,0,P|441:120|377:140,1,187.500007152558
132,51,35682,6,0,P|119:175|53:81,1,281.250010728836
267,170,36367,2,0,P|218:254|258:344,1,187.500007152558
432,244,36882,2,0,P|398:241|385:264,1,46.8750017881394
266,346,37053,2,0,P|307:352|339:306,1,93.7500035762788
377,139,37396,2,0,P|349:158|353:184,1,46.8750017881394
226,246,37567,2,0,P|198:227|202:201,1,46.8750017881394
316,80,37739,2,0,P|403:59|458:128,1,187.500007152558
163,255,38425,6,0,P|111:247|196:217,1,281.250010728836
318,335,39110,2,0,P|351:342|321:325,1,93.7500035762788
213,176,39453,2,0,P|195:199|205:231,1,46.8750017881394
212,365,39625,2,0,P|230:342|220:310,1,46.8750017881394
195,215,39796,2,0,P|172:197|140:207,1,46.8750017881394
314,81,39967,6,0,P|362:139|471:105,1,187.500007152558
184,77,40482,2,0,P|160:25|167:93,1,187.500007152558
442,297,41167,6,0,P|387:246|73:254,1,375.000014305115
98,315,42367,2,0,P|137:307|159:285,1,46.8750017881394
234,312,42539,2,0,P|174:306|143:267,2,93.7500035762788
400,142,43053,6,0,P|405:105|390:79,1,62.5
282,172,43225,2,0,P|311:194|341:194,1,62.5
315,54,43396,2,0,P|280:68|265:94,1,62.5
400,142,43739,6,0,P|405:105|390:79,1,62.5
105,35,43910,2,0,P|28:129|35:251,1,250
105,35,45110,6,0,P|28:129|35:251,2,250
293,34,45967,2,0,P|298:93|244:116,1,125
77,319,46653,6,0,P|195:282|319:286,1,250
77,319,47853,6,0,P|195:282|319:286,2,250
378,333,48710,2,0,B|389:313|411:304|411:304|394:287|393:261,1,93.75
422,21,49053,2,0,P|414:67|409:113,1,93.75
441,380,49396,6,0,P|459:262|369:182,1,250
441,380,50596,6,0,P|459:262|369:182,2,250
168,289,51453,2,0,P|211:248|270:261,1,125
270,261,52139,6,0,P|147:267|48:195,1,250
270,261,53339,6,0,P|147:267|48:195,2,250
225,8,54196,2,0,P|190:39|145:49,1,93.75
222,206,54539,2,0,P|189:238|196:283,1,93.75
383,362,54882,6,0,B|421:364|456:378|456:378|466:291|370:254|316:324|316:324|311:344|311:344|292:335|292:335|253:354|208:342|208:342|201:347|201:347|171:322|128:326,1,500
129,326,56082,6,0,B|135:222|160:127|160:127|151:107|146:80,2,250
182,380,56939,2,0,B|254:372|281:310|281:310|314:367|383:361,1,250
384,361,57625,6,0,B|450:340|476:257|443:201|443:201|438:214|438:214|426:245|410:225|384:238|368:264|368:264|366:271|366:271|364:264|364:264|326:216|261:217|261:217|258:212|258:212|257:218|257:218|240:241|213:257,1,500
214,256,58825,6,0,B|214:170|146:116|64:120|64:120|80:134,2,250
363,6,59682,2,0,P|275:28|245:113,1,187.5
425,356,60025,2,0,P|436:264|469:176,1,187.5
341,99,60367,6,0,B|403:126|363:226|480:277|480:277|486:274|486:274|486:280|486:280|505:294|511:317|511:317|445:317|384:357|384:357|381:322|394:287,1,500
394,286,61567,6,0,B|355:239|309:262|264:255|264:255|202:246|202:246|178:242|156:256,2,250
330,343,62425,2,0,B|266:327|234:271|266:239|234:184|171:168,1,250
171,168,63110,6,0,B|101:160|42:190|42:190|3:133|28:68|92:55|92:55|113:247,1,500
113,247,64310,6,0,B|123:342|123:342|197:334|197:334|206:324|206:324|271:317,2,250
289,304,65167,2,0,B|459:289|459:289|457:305,1,187.5
477,209,65510,2,0,B|489:138|489:138|374:122,1,187.5
135,86,65853,5,0,0:0:0:0:
135,86,66367,1,0,0:0:0:0:
218,112,66539,2,0,P|318:113|466:42,1,250
453,52,67053,1,0,0:0:0:0:
407,255,67225,5,0,0:0:0:0:
477,209,67396,2,0,P|426:165|304:176,1,187.500007152558
320,357,67910,2,0,P|386:365|468:324,1,140.625005364418
457,328,68253,1,0,0:0:0:0:
272,292,68425,2,0,P|253:306|244:327,1,46.8750017881394
320,357,68596,6,0,B|229:277|286:119|286:119|229:277|113:281,1,500
123,280,69967,2,0,P|112:250|121:211,1,46.8750017881394
115,302,70139,2,0,B|172:340|259:308|219:254|306:228|373:259,1,281.250010728836
373,259,70996,1,0,0:0:0:0:
373,259,71339,6,0,P|423:114|262:229,1,500
373,259,72710,1,0,0:0:0:0:
373,259,72882,2,0,P|409:236|416:225,1,46.8750017881394
304,72,73053,2,0,P|242:139|261:228,1,187.500007152558
259,226,73739,1,0,0:0:0:0:
228,305,73910,2,0,P|206:295|189:279,1,46.8750017881394
23,231,74082,6,0,B|148:314|281:240|290:88|152:17|61:103|82:191|129:217,1,500
401,218,75453,2,0,P|421:181|413:161,1,46.8750017881394
382,37,75625,2,0,P|490:118|479:253,1,281.250010728836
479,252,76482,1,0,0:0:0:0:
415,292,76653,2,0,P|371:288|356:271,1,46.8750017881394
204,140,76825,6,0,P|201:73|255:22,3,125
308,244,77510,2,0,P|311:311|257:362,3,125
394,100,78196,2,0,P|450:63|521:85,3,125
118,284,78882,2,0,P|62:321|-9:299,3,125
256,192,79567,5,0,0:0:0:0:
256,192,79739,1,0,0:0:0:0:
256,192,79910,1,0,0:0:0:0:
256,192,80082,1,0,0:0:0:0:
256,192,80253,1,0,0:0:0:0:
256,192,80425,1,0,0:0:0:0:
256,192,80596,1,0,0:0:0:0:
256,192,80767,1,0,0:0:0:0:
256,192,80939,5,0,0:0:0:0:
256,208,81110,1,0,0:0:0:0:
244,203,81281,1,0,0:0:0:0:
240,191,81453,1,0,0:0:0:0:
244,179,81625,1,0,0:0:0:0:
256,175,81796,1,0,0:0:0:0:
268,179,81967,1,0,0:0:0:0:
273,192,82139,1,0,0:0:0:0:
218,275,82310,5,0,0:0:0:0:
166,226,82482,1,0,0:0:0:0:
169,152,82652,1,0,0:0:0:0:
216,101,82824,1,0,0:0:0:0:
292,101,82996,1,0,0:0:0:0:
342,152,83167,1,0,0:0:0:0:
345,226,83339,1,0,0:0:0:0:
293,275,83510,1,0,0:0:0:0:
97,127,83682,5,0,0:0:0:0:
180,32,83852,1,0,0:0:0:0:
332,32,84025,1,0,0:0:0:0:
415,127,84196,1,0,0:0:0:0:
410,247,84368,1,0,0:0:0:0:
317,344,84539,1,0,0:0:0:0:
195,344,84710,1,0,0:0:0:0:
102,247,84882,1,0,0:0:0:0:
256,176,85053,5,0,0:0:0:0:
268,181,85139,1,0,0:0:0:0:
272,193,85225,1,0,0:0:0:0:
268,205,85310,1,0,0:0:0:0:
255,209,85396,1,0,0:0:0:0:
244,205,85482,1,0,0:0:0:0:
239,192,85567,1,0,0:0:0:0:
242,181,85653,1,0,0:0:0:0:
256,124,85739,5,0,0:0:0:0:
306,143,85825,1,0,0:0:0:0:
326,193,85909,1,0,0:0:0:0:
311,243,85996,1,0,0:0:0:0:
256,262,86082,1,0,0:0:0:0:
200,243,86167,1,0,0:0:0:0:
185,193,86253,1,0,0:0:0:0:
205,143,86339,1,0,0:0:0:0:
255,192,86425,5,0,0:0:0:0:
256,192,87625,2,0,P|279:230|276:263,1,62.5
177,203,87796,6,0,L|84:218,1,93.75
24,79,88139,6,0,P|25:34|59:5,2,93.7500035762788
256,192,88482,6,0,B|238:202|223:219|223:219|80:243,1,187.500007152558
39,367,88739,1,0,0:0:0:0:
13,358,88825,6,0,P|-8:317|6:273,1,93.7500035762788
24,79,88996,2,0,P|112:91|143:175,1,187.500007152558
179,12,89339,1,0,0:0:0:0:
90,335,89510,6,0,P|79:289|80:243,1,93.7500035762788
201,34,89682,2,0,P|216:76|192:114,1,93.7500035762788
167,262,89853,6,0,P|227:140|360:114,1,281.250010728836
512,311,90196,6,0,P|425:289|397:203,1,187.500007152558
488,44,90539,6,0,P|485:90|456:125,1,93.75
231,19,90882,6,0,L|325:29,2,93.7500035762788
460,23,91225,6,0,P|446:109|359:113,1,187.500007152558
274,193,91482,1,0,0:0:0:0:
278,169,91567,6,0,P|318:189|327:234,1,93.7500035762788
399,375,91739,2,0,P|401:284|473:229,1,187.500007152558
200,355,92082,1,0,0:0:0:0:
512,274,92253,6,0,P|467:259|421:259,1,93.7500035762788
232,366,92425,2,0,P|268:338|277:293,1,93.7500035762788
72,66,92596,6,0,P|177:152|189:289,1,281.250010728836
433,234,92939,6,0,P|342:239|275:176,1,187.5
232,366,93282,6,0,P|260:329|303:312,1,93.75
512,274,93625,6,0,P|494:231|507:187,2,93.7500035762788
399,75,93967,2,0,P|311:48|233:95,1,187.500007152558
475,118,94225,1,0,0:0:0:0:
502,112,94310,6,0,P|504:66|472:34,1,93.7500035762788
423,180,94482,2,0,B|404:262|398:365,1,187.500007152558
358,112,94825,1,0,0:0:0:0:
433,297,94996,6,0,P|478:304|512:273,1,93.7500035762788
341,85,95167,2,0,P|296:71|249:72,1,93.7500035762788
398,366,95339,6,0,P|439:244|323:190,1,281.250010728836
124,311,95682,6,0,P|207:331|242:252,1,187.5
250,72,96025,6,0,P|220:106|227:151,1,93.75
377,20,96367,6,0,L|470:29,2,93.7500035762788
38,0,96710,2,0,P|119:38|136:126,1,187.500007152558
73,277,96967,1,0,0:0:0:0:
47,279,97053,6,0,P|43:233|67:193,1,93.7500035762788
319,246,97225,2,0,P|233:273|157:222,1,187.500007152558
302,219,97567,1,0,0:0:0:0:
43,97,97739,6,0,P|67:56|108:35,1,93.7500035762788
275,205,97910,2,0,P|302:242|306:288,1,93.7500035762788
175,383,98082,6,0,P|156:249|31:198,1,281.250010728836
123,82,98425,6,0,P|211:101|284:46,1,187.5
470,191,98767,6,0,P|449:148|442:5,1,187.5
470,191,99453,6,0,P|449:148|442:5,1,187.5
440,10,99796,1,0,0:0:0:0:
348,269,99967,6,0,P|303:322|174:314,1,187.500007152558
141,175,100225,1,0,0:0:0:0:
141,175,100310,2,0,P|206:111|297:118,1,187.500007152558
348,269,100653,2,0,P|299:271|250:229,1,93.7500035762788
453,22,100825,6,0,P|470:70|477:117,1,93.75
348,269,101167,1,0,0:0:0:0:
476,112,101339,6,0,P|468:65|453:22,1,93.75
247,166,101510,6,0,B|197:189|144:171|164:145|114:125|70:153,1,187.5
247,166,102196,6,0,B|197:189|144:171|164:145|114:125|70:153,1,187.5
70,152,102539,1,0,0:0:0:0:
313,89,102710,2,0,P|411:126|516:139,1,187.500007152558
332,371,102967,1,0,0:0:0:0:
332,371,103053,2,0,P|297:281|403:234,1,187.500007152558
364,8,103396,2,0,P|392:45|406:90,1,93.7500035762788
182,218,103567,6,0,P|212:183|257:182,1,93.75
473,318,103910,1,0,0:0:0:0:
257,182,104082,6,0,P|212:183|183:218,1,93.75
24,177,104253,6,0,P|93:189|187:282,1,187.5
24,177,104939,6,0,P|93:189|187:282,1,187.5
178,265,105282,1,0,0:0:0:0:
195,92,105453,6,0,P|240:145|252:277,1,187.5
365,158,105710,1,0,0:0:0:0:
365,158,105796,2,0,P|365:228|289:336,1,187.5
451,326,106139,2,0,P|419:362|331:386,1,93.7500035762788
195,92,106310,6,0,P|191:40|219:12,1,93.75
469,85,106653,1,0,0:0:0:0:
469,85,106996,5,0,0:0:0:0:
409,129,107167,1,0,0:0:0:0:
349,82,107339,1,0,0:0:0:0:
143,122,107510,6,0,P|175:138|219:141,1,78.125
374,12,107682,1,0,0:0:0:0:
374,12,107853,1,0,0:0:0:0:
182,219,108025,6,0,P|217:223|259:210,1,78.125
449,14,108196,1,0,0:0:0:0:
246,302,108367,6,0,P|280:293|316:267,1,78.125
469,85,108539,1,0,0:0:0:0:
469,85,108710,1,0,0:0:0:0:
348,352,108882,6,0,P|377:332|402:295,1,78.125
349,82,109053,1,0,0:0:0:0:
314,268,109225,6,0,P|283:291|246:302,1,78.125
409,129,109396,1,0,0:0:0:0:
392,107,109739,6,0,L|383:46,1,62.5
414,247,109910,2,0,L|405:186,1,62.5
455,0,110082,1,0,0:0:0:0:
358,313,110253,6,0,P|317:334|274:319,1,93.7500035762788
329,158,110425,1,0,0:0:0:0:
414,247,110596,6,0,P|444:281|441:326,1,93.7500035762788
474,109,110767,1,0,0:0:0:0:
358,313,110939,1,0,0:0:0:0:
474,109,111110,6,0,P|386:77|294:89,1,187.500007152558
222,66,111367,1,0,0:0:0:0:
290,114,111453,6,0,P|304:159|299:205,1,93.7500035762788
243,269,111625,2,0,P|196:268|151:280,1,93.7500035762788
81,227,111796,2,0,P|82:181|75:134,1,93.7500035762788
129,60,111967,2,0,P|176:66|223:65,1,93.7500035762788
316,131,112139,6,0,B|341:209|320:289|320:289|335:287|335:287|379:311|437:303,1,281.250010728836
461,321,112482,6,0,P|414:325|373:347,1,93.7500035762788
240,293,112653,2,0,P|254:337|291:364,1,93.7500035762788
487,242,112825,1,0,0:0:0:0:
174,352,112996,6,0,P|148:314|158:269,1,93.7500035762788
320,288,113167,1,0,0:0:0:0:
103,212,113338,6,0,P|66:236|77:278,1,93.7500035762788
240,293,113510,1,0,0:0:0:0:
0,194,113682,1,0,0:0:0:0:
239,293,113853,6,0,P|242:200|194:121,1,187.500007152558
211,49,114110,1,0,0:0:0:0:
178,131,114196,6,0,P|217:155|263:159,1,93.7500035762788
327,218,114367,2,0,P|358:184|402:168,1,93.7500035762788
484,197,114539,2,0,P|508:236|512:282,1,93.7500035762788
285,307,114710,2,0,P|241:322|209:356,1,93.7500035762788
0,240,114882,6,0,P|77:289|167:273,1,187.500007152558
168,272,115225,6,0,P|135:304|90:299,1,93.7500035762788
259,230,115396,2,0,P|305:227|345:249,1,93.7500035762788
106,217,115567,1,0,0:0:0:0:
327,131,115739,6,0,P|281:125|242:149,1,93.7500035762788
168,272,115910,1,0,0:0:0:0:
168,104,116082,6,0,P|185:62|229:49,1,93.7500035762788
241,312,116253,1,0,0:0:0:0:
0,240,116425,1,0,0:0:0:0:
241,312,116596,6,0,P|328:282|421:290,1,187.500007152558
392,184,116853,1,0,0:0:0:0:
410,263,116939,6,0,P|456:266|499:248,1,93.7500035762788
316,167,117110,2,0,P|272:151|226:158,1,93.7500035762788
0,240,117282,2,0,P|5:193|31:155,1,93.7500035762788
200,176,117453,2,0,P|218:218|216:264,1,93.7500035762788
241,384,117625,6,0,P|240:249|354:177,1,281.250010728836
458,337,117967,6,0,P|460:290|435:252,1,93.7500035762788
471,60,118139,2,0,P|441:26|397:31,1,93.7500035762788,0|0,0:3|0:3,0:3:0:0:
509,210,118310,1,0,0:0:0:0:
296,353,118482,6,0,P|341:347|375:316,1,93.7500035762788
434,170,118653,1,0,0:0:0:0:
232,34,118825,6,0,P|277:44|315:70,1,93.7500035762788
354,177,118996,1,0,0:0:0:0:
109,274,119167,1,0,0:0:0:0:
354,177,119339,6,0,B|265:200|312:277|225:300,1,187.500007152558
134,292,119596,1,0,0:0:0:0:
225,325,119682,6,0,P|268:308|296:271,1,93.7500035762788
350,93,119853,2,0,P|396:99|441:85,1,93.7500035762788
512,153,120025,2,0,P|472:127|426:122,1,93.7500035762788
228,92,120196,2,0,P|227:47|255:11,1,93.7500035762788
433,235,120367,6,0,P|349:194|255:192,1,187.500007152558
422,315,120710,6,0,P|480:306|509:259,1,93.7500035762788
324,148,120882,2,0,P|301:189|310:234,1,93.7500035762788
512,153,121053,2,0,P|487:113|444:99,1,93.7500035762788
195,216,121225,1,0,0:0:0:0:
512,153,121396,2,0,P|390:248|231:226,1,281.250010728836
207,293,121739,2,0,P|180:261|206:208,1,93.7500035762788
202,209,121910,1,0,0:0:0:0:
0,141,122082,6,0,P|33:85|38:34,1,93.7500035762788
36,48,122253,1,0,0:0:0:0:
180,197,122425,6,0,P|191:133|179:83,1,93.7500035762788
159,36,122596,1,0,0:0:0:0:
390,200,122767,6,0,P|378:136|350:93,1,93.7500035762788
465,94,122939,2,0,P|432:37|390:7,1,93.7500035762788
293,256,123110,2,0,P|357:314|466:295,1,187.500007152558
433,226,123367,1,0,0:0:0:0:
433,226,123453,6,0,P|367:239|339:281,1,93.7500035762788
192,379,123625,2,0,P|213:315|191:270,1,93.7500035762788
157,112,123796,2,0,P|201:162|251:165,1,93.7500035762788
465,94,123967,1,0,0:0:0:0:
167,37,124139,6,0,B|200:86|188:137|162:116|153:166|190:224,1,187.500007152558
230,273,124396,1,0,0:0:0:0:
213,286,124482,2,0,P|167:297|126:247,1,93.7500035762788
195,167,124653,1,0,0:0:0:0:
310,361,124825,6,0,P|371:339|418:332,1,93.7500035762788
408,334,124996,1,0,0:0:0:0:
502,165,125167,6,0,P|458:147|412:137,1,93.7500035762788
338,148,125339,1,0,0:0:0:0:
127,278,125510,6,0,P|170:295|216:305,1,93.7500035762788
347,176,125682,2,0,P|303:158|257:148,1,93.7500035762788
35,294,125853,2,0,P|156:239|226:259,1,187.500007152558
260,312,126110,1,0,0:0:0:0:
260,312,126196,6,0,P|241:257|261:184,1,93.7500035762788
413,289,126367,2,0,P|374:332|301:352,1,93.7500035762788
321,158,126539,2,0,P|378:169|431:222,1,93.7500035762788
260,312,126710,1,0,0:0:0:0:
40,65,126882,6,0,P|82:122|95:152,1,93.7500035762788
156,30,127053,2,0,P|175:98|177:130,1,93.7500035762788
91,227,127225,1,0,0:0:0:0:
91,227,127396,1,0,0:0:0:0:
270,320,127567,6,0,P|312:263|325:233,1,93.7500035762788
386,355,127739,2,0,P|405:287|407:255,1,93.7500035762788
321,158,127910,1,0,0:0:0:0:
321,158,128081,1,0,0:0:0:0:
40,65,128253,6,0,P|82:122|95:152,1,93.7500035762788
91,227,128425,1,0,0:0:0:0:
155,30,128596,2,0,P|174:97|176:130,1,93.7500035762788
168,156,128768,1,0,0:0:0:0:
391,130,128938,6,0,P|339:79|299:90,1,93.7500035762788
197,268,129110,2,0,P|263:262|293:248,1,93.7500035762788
462,180,129282,1,0,0:0:0:0:
241,352,129453,6,0,P|175:346|145:332,1,93.7500035762788
234,358,129625,2,0,P|168:352|138:338,1,93.7500035762788
227,364,129796,2,0,P|161:358|131:344,1,93.7500035762788
40,224,129967,1,0,0:0:0:0:
321,158,130139,1,0,0:0:0:0:
264,97,130310,5,0,0:0:0:0:
251,111,130482,1,0,0:0:0:0:
241,147,130653,1,0,0:0:0:0:
252,202,130825,1,0,0:0:0:0:
316,239,130996,5,0,0:0:0:0:
398,194,131167,1,0,0:0:0:0:
383,82,131339,1,0,0:0:0:0:
256,48,131510,1,0,0:0:0:0:
120,136,131682,6,0,L|92:384,1,250
143,215,132882,2,0,P|205:206|267:195,1,125
465,165,133396,2,0,P|403:173|341:184,1,125
505,85,134082,1,0,0:0:0:0:
443,348,134382,1,0,0:0:0:0:
435,348,134425,6,0,B|425:379|425:379|388:217|388:217|337:208,1,250
83,194,135453,2,0,L|103:135,1,62.5
28,360,135796,6,0,P|42:316|56:271,1,93.75
57,271,136139,2,0,L|118:262,1,62.5
314,236,136482,2,0,B|411:221|411:221|402:246,1,125
402,246,137167,6,0,L|466:69,1,187.5
206,106,137853,2,0,P|144:117|82:125,1,125
236,25,138367,1,0,0:0:0:0:
156,251,138539,2,0,L|136:311,1,62.5
185,166,138882,2,0,L|206:107,1,62.5
413,361,139225,6,0,P|434:304|402:253,1,125
287,271,139739,1,0,0:0:0:0:
171,288,139910,6,0,P|109:297|47:309,2,125
156,251,140767,1,0,0:0:0:0:
140,213,140939,2,0,L|160:153,1,62.5
48,309,141282,6,0,L|68:249,2,62.5
171,288,141796,1,0,0:0:0:0:
287,360,141967,2,0,P|333:357|380:355,1,93.75
380,355,142310,2,0,L|438:332,1,62.5
229,154,142653,6,0,P|248:245|265:337,1,187.5
279,86,143339,2,0,L|309:93|339:100,1,62.5
464,29,143682,2,0,P|442:51|421:74,1,62.5
401,157,144025,5,0,0:0:0:0:
420,217,144196,1,0,0:0:0:0:
349,362,144367,1,0,0:0:0:0:
391,315,144538,1,0,0:0:0:0:
320,240,144710,6,0,L|258:249|196:258,1,125
196,258,145139,2,0,L|202:227,1,31.25
350,263,145396,6,0,L|226:281|102:299,1,250
20,54,146425,2,0,P|32:100|47:144,1,93.75
47,144,146767,6,0,P|78:148|109:154,1,62.5
122,272,147110,2,0,P|146:250|171:232,1,62.5
300,305,147453,2,0,P|285:277|267:251,1,62.5
415,212,147796,2,0,P|384:205|353:200,1,62.5
241,131,148139,6,0,P|223:224|204:315,1,187.5
444,285,148825,2,0,P|397:290|351:298,1,93.75
351,298,149167,2,0,P|325:279|312:251,1,62.5
383,37,149510,6,0,P|377:67|372:98,1,62.5
174,139,149853,2,0,L|179:108|184:77,1,62.5
173,139,150196,2,0,P|235:148|296:162,1,125
394,224,150710,1,0,0:0:0:0:
343,321,150882,6,0,P|401:300|463:293,2,125
265,361,151739,1,0,0:0:0:0:
265,361,151910,6,0,L|218:319,1,62.5
46,325,152253,2,0,L|104:302,1,62.5
173,241,152596,1,0,0:0:0:0:
180,228,152767,1,0,0:0:0:0:
187,215,152939,1,0,0:0:0:0:
194,202,153110,1,0,0:0:0:0:
201,189,153282,1,0,0:0:0:0:
208,176,153453,1,0,0:0:0:0:
205,335,153625,6,0,P|255:306|445:287,2,250
480,354,154482,1,0,0:0:0:0:
470,360,154653,2,0,P|383:341|362:300,1,125
341,75,154996,6,0,P|402:123|391:247,1,187.5
366,315,155339,2,0,P|287:356|244:338,1,125
11,162,155682,2,0,L|235:198,1,187.5
308,82,156025,2,0,L|184:101,1,125
172,104,156282,1,0,0:0:0:0:
141,111,156367,6,0,P|200:41|241:253,1,500
20,351,157225,1,0,0:0:0:0:
23,342,157396,2,0,P|90:311|172:326,1,125
332,363,157739,6,0,P|250:373|131:303,1,187.5
367,292,158082,2,0,P|414:321|379:401,1,125
200,245,158425,6,0,P|165:170|194:35,1,187.5
251,90,158767,2,0,P|273:153|258:230,1,125
205,336,159110,5,0,0:0:0:0:
205,336,159282,1,0,0:0:0:0:
205,336,159453,1,0,0:0:0:0:
205,336,159625,1,0,0:0:0:0:
205,336,159796,1,0,0:0:0:0:
205,336,159967,1,0,0:0:0:0:
205,336,160139,1,0,0:0:0:0:
205,336,160310,1,0,0:0:0:0:
342,371,160482,5,0,0:0:0:0:
298,309,160653,1,0,0:0:0:0:
284,234,160825,1,0,0:0:0:0:
297,160,160996,1,0,0:0:0:0:
422,0,161167,5,0,0:0:0:0:
479,79,161338,1,0,0:0:0:0:
498,178,161510,1,0,0:0:0:0:
479,277,161681,1,0,0:0:0:0:
342,371,161853,5,0,0:0:0:0:
312,383,161939,1,0,0:0:0:0:
280,382,162025,1,0,0:0:0:0:
252,367,162110,1,0,0:0:0:0:
232,341,162196,5,0,0:0:0:0:
205,326,162282,1,0,0:0:0:0:
173,324,162367,1,0,0:0:0:0:
143,333,162453,1,0,0:0:0:0:
121,356,162539,5,0,0:0:0:0:
166,337,162625,1,0,0:0:0:0:
193,295,162710,1,0,0:0:0:0:
196,244,162796,1,0,0:0:0:0:
174,197,162882,1,0,0:0:0:0:
133,169,162967,1,0,0:0:0:0:
116,120,163053,1,0,0:0:0:0:
122,71,163139,1,0,0:0:0:0:
203,5,163225,5,0,0:0:0:0:
203,5,164425,2,0,P|248:15|268:17,1,62.5
304,97,164596,6,0,P|222:55|130:61,1,187.500007152558
356,22,164939,1,0,0:0:0:0:
110,38,165110,1,0,0:0:0:0:
114,42,165196,1,0,0:0:0:0:
118,46,165282,6,0,P|113:139|94:231,1,187.500007152558
3,368,165625,2,0,P|3:321|12:275,1,93.7500035762788
16,271,165796,6,0,B|80:279|80:279|95:287|95:287|200:301,1,187.500007152558
220,304,166139,2,0,B|313:316|313:316|324:223,1,187.500007152558
133,218,166482,6,0,B|226:230,1,93.7500035762788
247,233,166653,2,0,B|502:266|502:266|500:289,1,281.250010728836
379,373,166996,6,0,B|385:324|385:324|430:330,1,93.7500035762788
448,332,167167,2,0,B|493:338|493:338|500:290,1,93.7500035762788
494,159,167339,6,0,B|339:170|339:170|336:138,1,187.500007152558
433,253,167682,1,0,0:0:0:0:
297,115,167853,1,0,0:0:0:0:
301,119,167939,1,0,0:0:0:0:
305,123,168025,6,0,B|309:185|309:185|184:194,1,187.500007152558
421,359,168367,2,0,B|419:327|419:327|480:320,1,93.7500035762788
451,223,168539,6,0,B|349:232|383:277|278:286,1,187.500007152558
257,285,168882,2,0,B|153:263|193:222|92:201,1,187.500007152558
317,201,169225,6,0,P|272:213|230:194,1,93.7500035762788
217,175,169396,2,0,P|283:79|332:185,1,281.250010728836
269,229,169739,6,0,P|243:267|245:313,1,93.7500035762788
265,320,169910,2,0,P|290:281|288:235,1,93.7500035762788
122,198,170082,6,0,B|108:309|182:268|170:371,1,187.500007152558
202,223,170425,1,0,0:0:0:0:
25,267,170596,1,0,0:0:0:0:
29,263,170682,1,0,0:0:0:0:
33,259,170767,6,0,P|117:222|209:233,1,187.500007152558
407,68,171110,2,0,P|363:82|317:85,1,93.7500035762788
298,84,171282,6,0,B|230:80|230:80|238:154|238:154|282:156,1,187.500007152558
301,158,171625,2,0,B|346:161|346:161|357:170|357:170|463:177|463:177|460:203,1,187.500007152558
202,223,171967,6,0,L|295:229,1,93.7500035762788
316,232,172139,2,0,B|333:241|333:241|378:244|378:244|404:99|404:99|452:102|452:102|471:112,1,281.250010728836
461,199,172482,6,0,L|444:291,1,93.7500035762788
467,284,172653,2,0,L|451:377,1,93.7500035762788
380,348,172825,6,0,B|306:348|306:348|281:360|281:360|197:348,1,187.500007152558
155,272,173167,1,0,0:0:0:0:
405,325,173339,1,0,0:0:0:0:
409,329,173425,1,0,0:0:0:0:
413,333,173510,6,0,L|413:145,1,187.500007152558
307,25,173853,2,0,L|317:118,1,93.7500035762788
318,134,174025,6,0,P|231:134|214:49,1,187.500007152558
224,65,174367,2,0,P|138:99|46:89,1,187.500007152558
210,315,174710,6,0,P|163:311|120:330,1,93.7500035762788
107,337,174882,2,0,P|216:332|134:260,1,281.250010728836
7,164,175225,6,0,P|-10:208|2:252,1,93.7500035762788
22,274,175396,2,0,P|65:290|109:278,1,93.7500035762788
262,215,175567,6,0,B|307:280|295:347|295:347|307:280|381:228,1,281.250010728836
309,76,175910,2,0,P|327:142|328:191,1,93.7500035762788
512,139,176082,2,0,P|473:195|436:227,1,93.7500035762788
475,368,176253,2,0,B|318:396|361:283|209:314,1,281.250010728836
195,325,176596,1,0,0:0:0:0:
190,67,176767,6,0,P|260:123|261:214,1,187.500007152558
491,213,177110,2,0,P|402:195|332:252,1,187.500007152558
95,259,177453,2,0,P|166:281|210:231,1,93.7500035762788
491,213,177625,6,0,P|399:305|240:266,1,281.250010728836
228,212,177967,1,0,0:0:0:0:
115,378,178139,1,0,0:0:0:0:
124,381,178225,1,0,0:0:0:0:
134,380,178310,6,0,P|219:299|204:119,1,281.250010728836
318,31,178653,2,0,P|283:29|312:23,1,93.7500035762788
337,212,178825,2,0,P|363:152|340:107,1,93.7500035762788
102,68,178996,2,0,B|161:39|238:78|195:123|278:161|356:127,1,281.250010728836
370,115,179339,1,0,0:0:0:0:
487,326,179510,6,0,B|465:236|465:236|396:307,1,187.500007152558
127,180,179853,2,0,B|142:138|142:138|187:166|202:229|181:281,1,187.500007152558
104,299,180196,2,0,P|178:275|198:238,1,93.7500035762788
186,27,180367,2,0,B|183:79|183:79|227:102|265:171|262:223|262:223|319:250,1,281.250010728836
352,321,180710,1,0,0:0:0:0:
483,142,180882,1,0,0:0:0:0:
352,321,181053,6,0,P|338:231|444:161,2,187.500007152558
483,142,181567,1,0,0:0:0:0:
186,27,181739,2,0,P|259:79|262:170,1,187.500007152558
251,185,182082,1,0,0:0:0:0:
127,230,182253,6,0,P|133:165|189:130,1,125
178,131,182596,6,0,P|116:196|25:186,1,187.500007152558
14,170,182939,1,0,0:0:0:0:
224,345,183110,6,0,P|198:258|251:185,1,187.500007152558
0,272,183453,2,0,P|87:293|124:377,1,187.500007152558
304,273,183796,6,0,P|376:216|478:252,2,187.500007152558
161,193,184310,2,0,P|174:283|92:353,2,187.500007152558
302,109,184825,6,0,P|238:94|219:21,1,125
215,43,185167,6,0,B|231:131|231:131|227:141|227:141|242:238,2,187.500007152558
386,128,185682,6,0,B|365:243|365:243|370:256|370:256|350:382,2,250
84,255,186196,1,0,0:0:0:0:
79,265,186539,6,0,L|110:262,1,31.25
204,317,186710,2,0,L|186:292,1,31.25
180,198,186882,6,0,P|187:184|193:169,1,31.25
239,152,187053,2,0,P|223:154|207:154,1,31.25
156,92,187225,6,0,P|144:102|139:116,1,31.25
320,142,187396,2,0,P|323:157|332:169,1,31.25
494,49,187567,1,0,0:0:0:0:
457,120,187739,1,0,0:0:0:0:
473,378,187910,6,0,P|479:363|481:348,1,31.25
361,364,188082,2,0,P|356:348|350:334,1,31.25
305,273,188253,6,0,L|302:241,1,31.25
377,234,188425,2,0,L|379:265,1,31.25
203,359,188596,6,0,P|188:353|172:353,1,31.25
117,268,188767,2,0,P|104:278|95:290,1,31.25
47,367,188939,1,0,0:0:0:0:
0,301,189110,1,0,0:0:0:0:
82,96,189282,6,0,P|112:93|139:78,1,62.5
47,198,189625,1,0,0:0:0:0:
0,34,189796,6,0,L|30:29,1,31.25
55,222,189967,2,0,L|79:203,1,31.25
194,328,190139,2,0,L|204:299,1,31.25
314,352,190310,1,0,0:0:0:0:
402,339,190482,1,0,0:0:0:0:
472,141,190653,6,0,L|468:110|464:79,1,62.5
435,315,190996,1,0,0:0:0:0:
379,133,191167,2,0,L|384:102,1,31.25
300,96,191339,6,0,L|314:68,1,31.25
238,15,191510,2,0,L|265:0,1,31.25
246,181,191682,6,0,L|276:176,1,31.25
173,268,191853,2,0,L|202:277,1,31.25
47,319,192025,6,0,P|76:331|107:329,1,62.5
192,70,192367,2,0,P|171:93|143:105,1,62.5
101,95,192625,1,0,0:0:0:0:
66,116,192710,6,0,P|50:117|35:112,1,31.25
75,23,192882,2,0,P|89:17|105:18,1,31.25
90,201,193053,1,0,0:0:0:0:
15,192,193225,1,0,0:0:0:0:
181,272,193396,6,0,P|206:252|236:244,1,62.5
284,276,193653,1,0,0:0:0:0:
339,258,193739,2,0,P|365:274|383:299,1,62.5
312,71,194082,6,0,L|304:133,1,62.5
471,118,194425,1,0,0:0:0:0:
448,45,194596,1,0,0:0:0:0:
478,353,194767,6,0,P|486:339|491:324,1,31.25
389,317,194939,2,0,P|391:301|391:286,1,31.25
307,191,195110,6,0,P|315:204|320:219,1,31.25
218,226,195282,2,0,P|220:241|220:256,1,31.25
153,370,195453,6,0,L|121:367,1,31.25
142,290,195625,2,0,L|110:287,1,31.25
45,339,195796,1,0,0:0:0:0:
8,261,195967,1,0,0:0:0:0:
14,67,196139,6,0,P|28:74|43:77,1,31.25
124,66,196310,2,0,P|139:62|152:52,1,31.25
175,142,196482,6,0,P|189:135|204:132,1,31.25
286,137,196653,2,0,P|300:142|313:151,1,31.25
370,278,196825,6,0,L|401:275,1,31.25
379,200,196996,2,0,L|410:197,1,31.25
478,247,197167,1,0,0:0:0:0:
512,172,197339,1,0,0:0:0:0:
512,329,197509,6,0,P|430:382|320:352,1,187.500007152558
32,346,197852,2,0,P|112:336|159:312,1,93.7500035762788
180,261,198024,6,0,P|254:292|306:295,1,74.9999977111817
339,251,198195,6,0,P|368:290|395:307,1,56.2499982833863
507,292,198367,6,0,P|511:328|522:350,1,37.4999988555909
339,251,198538,1,0,0:0:0:0:
179,261,198709,1,0,0:0:0:0:
481,180,198881,6,0,B|512:121|478:64|478:64|501:-21,1,187.500007152558
500,203,199224,2,0,P|413:264|303:222,1,187.500007152558
326,179,199481,1,0,0:0:0:0:
334,176,199567,2,0,P|372:181|407:239,1,93.7500035762788
379,311,199738,2,0,P|408:275|405:229,1,93.7500035762788
322,89,199909,1,0,0:0:0:0:
322,89,200252,6,0,P|212:78|112:38,1,187.500007152558
18,270,200595,6,0,P|33:312|34:328,1,37.4999988555909
157,213,200767,6,0,P|148:256|141:271,1,56.2499982833863
302,224,200938,6,0,P|260:272|241:284,1,74.9999977111817
413,318,201109,6,0,P|328:348|295:350,1,93.7500035762788
322,89,201281,1,0,0:0:0:0:
322,89,201452,1,0,0:0:0:0:
481,257,201624,6,0,B|459:304|412:317|412:317|380:275|400:210,1,187.500007152558
503,354,201967,2,0,B|453:375|402:363|428:340|377:320|325:348,1,187.500007152558
318,355,202224,1,0,0:0:0:0:
313,363,202309,2,0,P|272:340|214:353,1,93.7500035762788
220,351,202481,2,0,P|178:371|133:363,1,93.7500035762788
125,358,202652,1,0,0:0:0:0:
125,358,202995,6,0,P|95:283|174:183,1,187.500007152558
50,94,203338,2,0,P|132:81|161:48,1,93.7500035762788
157,173,203509,6,0,P|221:120|230:77,1,74.9999977111817
297,196,203681,6,0,P|317:141|307:111,1,56.2499982833863
414,146,203852,6,0,P|407:107|392:94,1,37.4999988555909
277,41,204024,1,0,0:0:0:0:
277,41,204195,1,0,0:0:0:0:
458,222,204367,6,0,P|366:200|319:355,1,281.250010728836
318,358,204709,6,0,P|375:345|380:271,1,125
174,55,205052,6,0,P|98:170|127:303,1,281.250010728836
133,313,205395,2,0,P|191:299|203:241,1,125
111,7,205738,5,0,0:0:0:0:
334,70,205909,1,0,0:0:0:0:
271,293,206081,1,0,0:0:0:0:
48,230,206252,1,0,0:0:0:0:
171,131,206424,5,0,0:0:0:0:
230,149,206595,1,0,0:0:0:0:
184,192,206767,1,0,0:0:0:0:
193,161,206938,5,0,0:0:0:0:
