osu file format v14

[General]
AudioFilename: Cartoon - Whatever I do (feat. Kostja).mp3
AudioLeadIn: 0
PreviewTime: 87519
Countdown: 0
SampleSet: Soft
StackLeniency: 0.5
Mode: 0
LetterboxInBreaks: 0
EpilepsyWarning: 1
WidescreenStoryboard: 1

[Editor]
Bookmarks: 22346,33381,44415,55450,66484,77519,87174,98209,110622
DistanceSpacing: 0.8
BeatDivisor: 2
GridSize: 4
TimelineZoom: 1

[Metadata]
Title:Whatever I Do (feat. Kostja)
TitleUnicode:Whatever I Do (feat. Kostja)
Artist:Cartoon
ArtistUnicode:Cartoon
Creator:Nhawak
Version:Normal
Source:
Tags:dnb drum and bass edm moph -m4x zerss
BeatmapID:1021401
BeatmapSetID:372144

[Difficulty]
HPDrainRate:4
CircleSize:3.5
OverallDifficulty:4
ApproachRate:5
SliderMultiplier:1.2
SliderTickRate:1

[Events]
//Background and Video events
0,0,"BG.jpg",0,0
//Break Periods
2,44615,54250
//Storyboard Layer 0 (Background)
//Storyboard Layer 1 (Fail)
//Storyboard Layer 2 (Pass)
//Storyboard Layer 3 (Foreground)
Sprite,Foreground,Centre,"SB\highlight.png",148,212 F,0,60909,60967,0,1 C,0,60967,,172,126,81 M,0,60967,61053,148,212,144.1609,241.7533 F,2,60967,62691,1,0 S,6,60967,62691,1,0.2 P,0,60967,62691,A M,0,61053,61139,144.1609,241.7533,140.3217,271.5067 M,0,61139,61225,140.3217,271.5067,136.4826,301.26 M,0,61225,61311,136.4826,301.26,132.6434,331.0133
Sprite,Foreground,Centre,"SB\highlight.png",212,388 F,0,61599,61657,0,1 C,0,61657,,172,126,81 M,0,61657,61743,212,388,215.8391,358.2467 F,2,61657,63381,1,0 S,6,61657,63381,1,0.2 P,0,61657,63381,A M,0,61743,61829,215.8391,358.2467,219.6783,328.4933 M,0,61829,61915,219.6783,328.4933,223.5174,298.74 M,0,61915,62001,223.5174,298.74,227.3566,268.9867
Sprite,Foreground,Centre,"SB\highlight.png",260,232 F,0,62116,62174,0,1 C,0,62174,,172,126,81 F,2,62174,63553,1,0 S,6,62174,63553,1,0.2 P,0,62174,63553,A
Sprite,Foreground,Centre,"SB\highlight.png",260,232 F,0,62288,62346,0,1 C,0,62346,,255,119,53 M,0,62346,62432,260,232,289.4174,237.8835 F,2,62346,64070,1,0 S,6,62346,64070,1,0.2 P,0,62346,64070,A M,0,62432,62518,289.4174,237.8835,318.8348,243.767 M,0,62518,62604,318.8348,243.767,348.3183,238.6903 M,0,62604,62690,348.3183,238.6903,377.8044,233.1617
Sprite,Foreground,Centre,"SB\highlight.png",468,204 F,0,62978,63036,0,1 C,0,63036,,255,119,53 M,0,63036,63122,468,204,466.2383,174.0518 F,2,63036,64760,1,0 S,6,63036,64760,1,0.2 P,0,63036,64760,A M,0,63122,63208,466.2383,174.0518,464.4767,144.1035 M,0,63208,63294,464.4767,144.1035,466.2383,174.0518 M,0,63294,63380,466.2383,174.0518,468,204
Sprite,Foreground,Centre,"SB\highlight.png",472,252 F,0,63495,63553,0,1 C,0,63553,,255,119,53 F,2,63553,64932,1,0 S,6,63553,64932,1,0.2 P,0,63553,64932,A
Sprite,Foreground,Centre,"SB\highlight.png",568,360 F,0,64013,64071,0,1 C,0,64071,,255,119,53 M,0,64071,64157,568,360,546.2761,380.542 F,2,64071,65795,1,0 S,6,64071,65795,1,0.2 P,0,64071,65795,A M,0,64157,64243,546.2761,380.542,520.5067,395.6932 M,0,64243,64329,520.5067,395.6932,491.8004,404.0173 M,0,64329,64415,491.8004,404.0173,461.9641,405.6101
Sprite,Foreground,Centre,"SB\highlight.png",254,219 F,0,74702,74760,0,1 C,0,74760,,221,241,78 M,0,74760,74846,254,219,272.6529,242.3764 F,2,74760,77173,1,0 S,6,74760,77173,1,0.2 P,0,74760,77173,A M,0,74846,74932,272.6529,242.3764,297.1983,259.4233 M,0,74932,75018,297.1983,259.4233,325.7429,268.2647 M,0,75018,75104,325.7429,268.2647,355.6326,268.2183 M,0,75104,75191,355.6326,268.2183,384.2265,259.5044 M,0,75191,75277,384.2265,259.5044,409.0401,242.8436 M,0,75277,75363,409.0401,242.8436,427.8036,219.5812 M,0,75363,75449,427.8036,219.5812,439.0744,192.1118 M,0,75449,75535,439.0744,192.1118,459.1227,214.2535 M,0,75535,75622,459.1227,214.2535,485.7942,227.5287 M,0,75622,75708,485.7942,227.5287,515.5552,229.9462 M,0,75708,75794,515.5552,229.9462,544.9441,224.2179
Sprite,Foreground,Centre,"SB\highlight.png",539,320 F,0,76082,76140,0,1 C,0,76140,,221,241,78 M,0,76140,76226,539,320,509.6803,326.3526 F,2,76140,78553,1,0 S,6,76140,78553,1,0.2 P,0,76140,78553,A M,0,76226,76312,509.6803,326.3526,480.3606,332.7052 M,0,76312,76398,480.3606,332.7052,451.0409,339.0578 M,0,76398,76484,451.0409,339.0578,421.7212,345.4104 M,0,76484,76571,421.7212,345.4104,392.4015,351.763 M,0,76571,76657,392.4015,351.763,363.0818,358.1156 M,0,76657,76743,363.0818,358.1156,343.2782,379.486 M,0,76743,76829,343.2782,379.486,327.5933,401.7062 M,0,76829,76915,327.5933,401.7062,357.0959,396.266 M,0,76915,77002,357.0959,396.266,386.5985,390.8258 M,0,77002,77088,386.5985,390.8258,416.1011,385.3856 M,0,77088,77174,416.1011,385.3856,445.6037,379.9454
Sprite,Foreground,Centre,"SB\highlight.png",532,420 F,0,77461,77519,0,1 C,0,77519,,172,126,81 F,2,77519,78898,1,0 S,6,77519,78898,1,0.2 P,0,77519,78898,A
Sprite,Foreground,Centre,"SB\highlight.png",204,280 F,0,87116,87174,0,1 C,0,87174,,221,241,78 F,2,87174,88553,1,0 S,6,87174,88553,1,0.2 P,0,87174,88553,A
Sprite,Foreground,Centre,"SB\highlight.png",300,280 F,0,87461,87519,0,1 C,0,87519,,172,126,81 M,0,87519,87605,300,280,324.7944,263.1111 F,2,87519,89932,1,0 S,6,87519,89932,1,0.2 P,0,87519,89932,A M,0,87605,87691,324.7944,263.1111,349.5888,246.2221 M,0,87691,87777,349.5888,246.2221,367.3665,239.3053 M,0,87777,87863,367.3665,239.3053,359.8429,268.3466 M,0,87863,87950,359.8429,268.3466,352.3192,297.3878 M,0,87950,88036,352.3192,297.3878,344.7956,326.4291 M,0,88036,88122,344.7956,326.4291,337.2719,355.4704 M,0,88122,88208,337.2719,355.4704,329.7483,384.5116 M,0,88208,88294,329.7483,384.5116,322.2246,413.5529 M,0,88294,88381,322.2246,413.5529,311.0024,410.838 M,0,88381,88467,311.0024,410.838,297.006,384.3031 M,0,88467,88553,297.006,384.3031,283.0096,357.7682
Sprite,Foreground,Centre,"SB\highlight.png",480,328 F,0,98495,98553,0,1 C,0,98553,,255,119,53 M,0,98553,98639,480,328,453.7908,342.2121 F,2,98553,100277,1,0 S,6,98553,100277,1,0.2 P,0,98553,100277,A M,0,98639,98725,453.7908,342.2121,424.5335,347.7333 M,0,98725,98811,424.5335,347.7333,394.9997,343.7123 M,0,98811,98897,394.9997,343.7123,368.42,330.244
Sprite,Foreground,Centre,"SB\highlight.png",328,304 F,0,99013,99071,0,1 C,0,99071,,255,119,53 F,2,99071,100450,1,0 S,6,99071,100450,1,0.2 P,0,99071,100450,A
Sprite,Foreground,Centre,"SB\highlight.png",328,304 F,0,99185,99243,0,1 C,0,99243,,255,119,53 F,2,99243,100622,1,0 S,6,99243,100622,1,0.2 P,0,99243,100622,A
Sprite,Foreground,Centre,"SB\highlight.png",288,392 F,0,99530,99588,0,1 C,0,99588,,0,84,168 F,2,99588,100967,1,0 S,6,99588,100967,1,0.2 P,0,99588,100967,A
Sprite,Foreground,Centre,"SB\highlight.png",336,400 F,0,109185,109243,0,1 C,0,109243,,255,119,53 M,0,109243,109329,336,400,306,400 F,2,109243,110967,1,0 S,6,109243,110967,1,0.2 P,0,109243,110967,A M,0,109329,109415,306,400,276,400 M,0,109415,109501,276,400,246,400 M,0,109501,109587,246,400,216,400
Sprite,Foreground,Centre,"SB\highlight.png",172,420 F,0,109702,109760,0,1 C,0,109760,,255,119,53 M,0,109760,109846,172,420,179.2761,390.8957 F,2,109760,111484,1,0 S,6,109760,111484,1,0.2 P,0,109760,111484,A M,0,109846,109932,179.2761,390.8957,186.5521,361.7914 M,0,109932,110018,186.5521,361.7914,180.1055,333.3034 M,0,110018,110104,180.1055,333.3034,170.2499,304.9685
Sprite,Foreground,Centre,"SB\highlight.png",152,260 F,0,110220,110278,0,1 C,0,110278,,255,119,53 M,0,110278,110364,152,260,159.6348,230.9878 F,2,110278,112002,1,0 S,6,110278,112002,1,0.2 P,0,110278,112002,A M,0,110364,110450,159.6348,230.9878,167.2696,201.9755 M,0,110450,110536,167.2696,201.9755,159.6348,230.9878 M,0,110536,110622,159.6348,230.9878,152,260
//Storyboard Sound Samples

[TimingPoints]
278,344.827586206897,4,2,1,45,1,0
59933,-100,4,2,60,45,0,0
60278,-100,4,2,1,45,0,0
66829,-100,4,2,3,60,0,1
67002,-100,4,2,2,60,0,1
70967,-100,4,2,70,60,0,1
71312,-100,4,2,2,60,0,1
71657,-100,4,2,70,60,0,1
72002,-100,4,2,2,60,0,1
75105,-100,4,2,70,60,0,1
75450,-100,4,2,2,60,0,1
76484,-100,4,2,70,60,0,1
76829,-100,4,2,2,60,0,1
77519,-100,4,2,2,60,0,0
77864,-100,4,2,3,60,0,1
78036,-100,4,2,2,60,0,1
82002,-100,4,2,70,60,0,1
82346,-100,4,2,2,60,0,1
82691,-100,4,2,70,60,0,1
83036,-100,4,2,2,60,0,1
87174,-100,4,2,2,60,0,0
88209,-100,4,2,60,60,0,0
88553,-100,4,2,2,60,0,0
88898,-100,4,2,3,60,0,1
89071,-100,4,2,2,60,0,1
94415,-100,4,2,70,60,0,1
94760,-100,4,2,2,60,0,1
95795,-100,4,2,70,60,0,1
96140,-100,4,2,2,60,0,1
97174,-100,4,2,70,60,0,1
97519,-100,4,2,2,60,0,1
99588,-100,4,2,2,60,0,0
99933,-100,4,2,3,60,0,1
100105,-100,4,2,2,60,0,1
101312,-100,4,2,70,60,0,1
101829,-100,4,2,2,60,0,1
110622,-100,4,2,2,60,0,0
113381,-100,4,2,1,5,0,0

[Colours]
Combo1 : 0,84,168
Combo2 : 221,241,78
Combo3 : 172,126,81
Combo4 : 255,119,53

[HitObjects]
256,192,18209,12,0,20967,0:0:0:0:
160,323,22346,6,0,B|320:286|320:286|420:330,2,240,4|8|2,0:0|0:0|0:0,0:0:0:0:
196,233,24071,2,0,L|284:213,1,60
310,207,24415,6,0,P|320:148|305:90,1,120,8|0,0:0|0:0,0:0:0:0:
229,30,25105,2,0,P|169:21|111:35,1,120,2|0,0:0|0:0,0:0:0:0:
34,92,25795,2,0,P|25:164|46:222,1,120,8|0,0:0|0:0,0:0:0:0:
113,268,26484,2,0,P|176:276|243:256,1,120
310,207,27174,1,8,0:0:0:0:
371,277,27519,2,0,P|393:331|394:350,1,60
381,380,27864,6,0,B|448:349|499:380|499:380|460:318|499:257,1,240,2|8,0:0|0:0,0:0:0:0:
509,77,29243,2,0,B|454:56|454:56|394:75,1,120,2|0,0:0|0:0,0:0:0:0:
315,22,29933,2,0,B|253:39|253:39|200:20,1,120,8|0,0:0|0:0,0:0:0:0:
122,76,30622,2,0,B|66:55|66:55|-17:81,1,120,2|0,0:0|0:0,0:0:0:0:
63,151,31312,2,0,B|103:248|29:247|75:337|75:337|94:287,1,240,8|0,0:0|0:0,0:0:0:0:
221,151,32691,1,8,0:0:0:0:
316,163,33036,1,0,0:0:0:0:
409,171,33381,6,0,B|484:320|484:320|407:318,2,240,4|8|2,0:0|0:0|0:0,0:0:0:0:
372,80,35105,2,0,P|340:100|320:128,1,60
312,164,35450,2,0,L|188:145,1,120,8|0,0:0|0:0,0:0:0:0:
100,124,36140,6,0,B|116:64|116:64|92:4,2,120,2|0|8,0:0|0:0|0:0,0:0:0:0:
68,212,37174,1,0,0:0:0:0:
104,300,37519,2,0,P|160:320|224:300,1,120
280,232,38209,1,8,0:0:0:0:
316,320,38553,1,8,0:0:0:0:
376,244,38898,6,0,B|436:296|500:240|500:240|432:200|456:136,1,240,2|8,0:0|0:0,0:0:0:0:
476,64,39933,2,0,P|440:56|412:64,1,60
376,84,40278,2,0,P|308:100|252:84,1,120,2|0,0:0|0:0,0:0:0:0:
184,28,40967,2,0,L|164:160,1,120,8|0,0:0|0:0,0:0:0:0:
72,168,41657,6,0,P|28:232|144:228,1,240,2|8,0:0|0:0,0:0:0:0:
332,224,43036,2,0,P|361:319|263:300,1,240,0|8,0:0|0:0,0:0:0:0:
202,116,44415,5,4,0:0:0:0:
220,112,55450,6,0,B|132:100|132:100|84:136,2,120,4|2|0,0:0|0:0|0:0,0:0:0:0:
296,172,56484,1,2,0:0:0:0:
216,224,56829,2,0,P|200:280|224:344,1,120,0|2,0:0|0:0,0:0:0:0:
316,340,57519,2,0,B|380:328|380:328|440:344,1,120,0|2,0:0|0:0,0:0:0:0:
480,352,58036,1,0,0:0:0:0:
480,352,58209,38,0,L|460:224,1,120,0|2,0:0|0:0,0:0:0:0:
400,160,58898,1,0,0:0:0:0:
460,84,59243,1,2,0:0:0:0:
364,72,59588,2,0,B|320:16|260:24|260:24|236:104|124:92,1,240
80,60,60622,1,2,0:0:0:0:
84,156,60967,22,0,L|68:280,1,120,2|2,0:0|0:0,0:0:0:0:
148,332,61657,2,0,L|164:208,1,120,2|2,0:0|0:0,0:0:0:0:
196,176,62174,1,2,0:0:0:0:
196,176,62346,6,0,B|256:188|256:188|320:176,1,120,2|10,0:0|0:0,0:0:0:0:
404,148,63036,2,10,L|400:80,2,60
408,196,63553,1,10,0:0:0:0:
504,304,64071,2,0,P|456:340|384:348,1,120
236,248,65105,6,0,B|264:264|296:315|267:368|188:407|148:331|148:331|108:408|28:367|0:316|32:264|58:245,1,480,0|2,0:0|0:0,0:0:0:0:
96,156,66829,6,0,B|152:180|152:180|220:152,2,120,2|0|8,0:0|0:0|0:0,0:0:0:0:
152,76,67864,2,0,P|208:57|265:73,1,120,2|8,0:0|0:0,0:0:0:0:
291,117,68381,1,0,0:0:0:0:
291,117,68553,2,0,L|419:97,1,120,0|8,0:0|0:0,0:0:0:0:
496,52,69243,5,2,0:0:0:0:
483,148,69588,2,0,B|476:208|476:208|492:265,1,120,8|0,2:0|2:0,2:0:0:0:
500,312,70105,1,2,0:0:0:0:
500,312,70278,2,0,P|464:308|412:348,1,60,8|0,0:0|0:0,0:0:0:0:
404,345,70622,6,0,B|369:405|285:401|240:331|275:265|275:265|173:183|323:131|181:38,1,480,2|2,0:0|0:0,0:0:0:0:
110,31,72346,5,8,0:0:0:0:
70,118,72691,2,0,P|41:126|11:121,2,60,0|2|8,0:0|0:0|0:0,0:0:0:0:
110,31,73381,2,0,L|238:11,1,120,2|8,0:0|0:0,0:0:0:0:
275,10,73898,1,0,0:0:0:0:
275,10,74071,2,0,P|294:66|278:123,1,120,0|8,0:0|0:0,0:0:0:0:
190,163,74760,6,0,B|238:243|353:223|375:136|375:136|414:195|496:163,1,360,2|8,0:0|0:0,0:0:0:0:
475,264,76140,2,0,B|295:303|295:303|262:346|262:346|403:320,1,360,2|8,0:0|0:0,0:0:0:0:
468,364,77519,5,2,0:0:0:0:
475,264,77864,1,2,0:0:0:0:
484,168,78209,2,0,L|328:196,1,120,0|8,0:0|0:0,0:0:0:0:
320,200,78726,1,0,0:0:0:0:
320,200,78898,2,0,B|304:136|304:136|316:76,1,120,2|8,0:0|0:0,0:0:0:0:
220,80,79588,2,0,L|232:20,2,60,0|2|8,0:0|0:0|0:0,0:0:0:0:
196,124,80105,1,0,0:0:0:0:
196,124,80278,6,0,L|72:124,1,120,2|8,0:0|0:0,0:0:0:0:
36,212,80967,2,0,P|20:280|56:348,1,120,0|8,0:0|0:0,0:0:0:0:
116,268,81657,2,0,B|140:284|220:260|220:260|276:244|296:176|220:96|144:176|164:244|220:260|220:260|300:284|336:264,1,480,2|2,0:0|0:0,0:0:0:0:
420,272,83381,5,8,0:0:0:0:
372,356,83726,2,0,P|436:372|484:352,2,120,0|8|2,0:0|0:0|0:0,0:0:0:0:
322,269,84760,1,8,0:0:0:0:
288,180,85105,2,0,P|316:176|352:180,2,60,0|2|8,0:0|0:0|0:0,0:0:0:0:
244,196,85622,1,0,0:0:0:0:
244,196,85795,6,0,L|236:76,1,120,2|8,0:0|0:0,0:0:0:0:
140,56,86484,2,0,L|148:176,1,120,0|8,0:0|0:0,0:0:0:0:
140,224,87002,1,0,0:0:0:0:
140,224,87174,1,2,0:0:0:0:
236,224,87519,6,2,B|305:177|305:177|255:370|255:370|207:279,1,360,10|2,0:0|0:0,0:0:0:0:
145,363,88898,6,0,P|127:306|138:248,1,120,2|0,0:0|0:0,0:0:0:0:
161,205,89415,1,2,0:0:0:0:
161,205,89588,2,0,L|5:233,1,120,8|2,0:0|0:0,0:0:0:0:
12,134,90278,6,0,P|-5:77|5:19,1,120,8|0,0:0|0:0,0:0:0:0:
88,72,90967,2,0,P|147:74|198:104,1,120,8|2,0:0|0:0,0:0:0:0:
227,196,91657,2,0,P|273:158|295:103,1,120,8|0,0:0|0:0,0:0:0:0:
283,56,92174,1,2,0:0:0:0:
283,56,92346,2,0,B|371:44|371:44|419:80,1,120,8|2,0:0|0:0,0:0:0:0:
424,148,93036,6,0,B|461:213|444:306|444:306|476:266|549:278,1,240,8|8,0:0|0:0,0:0:0:0:
512,371,94071,2,0,B|351:349|351:349|275:388,1,240,2|0,0:0|0:0,0:0:0:0:
236,372,94933,1,2,0:0:0:0:
236,372,95105,2,0,P|206:376|177:368,1,60,8|0,0:0|0:0,0:0:0:0:
132,352,95450,6,0,B|90:294|137:241|137:241|47:267|-36:157|77:55,1,360,2|8,0:0|0:0,2:0:0:0:
124,36,96829,2,0,B|241:9|241:9|357:37|357:37|301:105|365:177,1,360,2|8,0:0|0:0,0:0:0:0:
360,192,98036,1,0,0:0:0:0:
360,192,98209,1,2,0:0:0:0:
416,272,98553,6,0,P|360:292|292:264,1,120,8|0,0:0|0:0,0:0:0:0:
264,248,99071,1,2,0:0:0:0:
264,248,99243,1,8,0:0:0:0:
224,336,99588,5,2,0:0:0:0:
160,264,99933,2,0,P|104:244|28:280,2,120,2|0|8,0:0|0:0|0:0,0:0:0:0:
100,340,100967,2,0,B|92:272|92:272|112:176|112:176|100:92,1,240,2|0,0:0|0:0,0:0:0:0:
84,56,101829,1,2,0:0:0:0:
84,56,102002,1,8,0:0:0:0:
176,80,102346,6,0,L|304:72,1,120,2|8,0:0|0:0,0:0:0:0:
384,108,103036,2,0,L|448:104,2,60,0|2|8,0:0|0:0|0:0,0:0:0:0:
352,144,103553,1,0,0:0:0:0:
352,144,103726,2,0,P|340:200|360:264,1,120,2|8,0:0|0:0,0:0:0:0:
416,332,104415,2,0,B|356:344|356:344|284:328,1,120,0|8,0:0|0:0,0:0:0:0:
252,316,104933,1,0,0:0:0:0:
252,316,105105,6,0,L|84:324,1,120,2|8,0:0|0:0,0:0:0:0:
80,244,105795,2,0,P|64:164|88:112,1,120,0|8,0:0|0:0,0:0:0:0:
100,88,106312,1,0,0:0:0:0:
100,88,106484,2,0,L|40:80,2,60,2|0|8,0:0|0:0|0:0,0:0:0:0:
196,92,107174,2,0,L|328:72,1,120,0|8,0:0|0:0,0:0:0:0:
408,88,107864,6,0,L|468:80,2,60,2|0|8,0:0|0:0|0:0,0:0:0:0:
348,164,108553,2,0,P|332:224|368:300,1,120,0|8,0:0|0:0,0:0:0:0:
272,344,109243,2,0,L|140:344,1,120,2|8,0:0|0:0,0:0:0:0:
108,364,109760,2,0,B|124:300|124:300|92:208,1,120,2|8,0:0|0:0,0:0:0:0:
88,204,110278,2,0,L|108:128,2,60,2|8|4,0:0|0:0|1:0,0:0:0:0:
256,192,110967,12,0,113381,0:0:0:0:
