osu file format v14

[General]
AudioFilename: Cartoon - Whatever I do (feat. Kostja).mp3
AudioLeadIn: 0
PreviewTime: 87519
Countdown: 0
SampleSet: Soft
StackLeniency: 0.5
Mode: 0
LetterboxInBreaks: 0
EpilepsyWarning: 1
WidescreenStoryboard: 1

[Editor]
Bookmarks: 22346,33381,44415,55450,66484,77519,87174,98209,110622
DistanceSpacing: 1.2
BeatDivisor: 4
GridSize: 4
TimelineZoom: 1

[Metadata]
Title:Whatever I Do (feat. Kostja)
TitleUnicode:Whatever I Do (feat. Kostja)
Artist:Cartoon
ArtistUnicode:Cartoon
Creator:Nhawak
Version:Insane
Source:
Tags:dnb drum and bass edm moph -m4x zerss
BeatmapID:1046951
BeatmapSetID:372144

[Difficulty]
HPDrainRate:6.5
CircleSize:4
OverallDifficulty:8
ApproachRate:9
SliderMultiplier:1.8
SliderTickRate:1

[Events]
//Background and Video events
0,0,"BG.jpg",0,0
//Break Periods
//Storyboard Layer 0 (Background)
//Storyboard Layer 1 (Fail)
//Storyboard Layer 2 (Pass)
//Storyboard Layer 3 (Foreground)
Sprite,Foreground,Centre,"SB\highlight.png",328,272 F,0,60909,60967,0,1 C,0,60967,,0,84,168 M,0,60967,61053,328,272,321.3811,238.9054 F,2,60967,62518,1,0 S,6,60967,62518,1,0.2 P,0,60967,62518,A M,0,61053,61139,321.3811,238.9054,314.7621,205.8108
Sprite,Foreground,Centre,"SB\highlight.png",404,138 F,0,61254,61312,0,1 C,0,61312,,0,84,168 M,0,61312,61398,404,138,410.6189,171.0946 F,2,61312,62863,1,0 S,6,61312,62863,1,0.2 P,0,61312,62863,A M,0,61398,61484,410.6189,171.0946,417.2379,204.1892
Sprite,Foreground,Centre,"SB\highlight.png",312,276 F,0,61599,61657,0,1 C,0,61657,,0,84,168 M,0,61657,61743,312,276,305.0969,242.9635 F,2,61657,63208,1,0 S,6,61657,63208,1,0.2 P,0,61657,63208,A M,0,61743,61829,305.0969,242.9635,298.1937,209.927
Sprite,Foreground,Centre,"SB\highlight.png",420,132 F,0,61944,62002,0,1 C,0,62002,,0,84,168 M,0,62002,62088,420,132,426.5224,165.1138 F,2,62002,63553,1,0 S,6,62002,63553,1,0.2 P,0,62002,63553,A M,0,62088,62174,426.5224,165.1138,433,198
Sprite,Foreground,Centre,"SB\highlight.png",456,300 F,0,62288,62346,0,1 C,0,62346,,221,241,78 F,2,62346,63725,1,0 S,6,62346,63725,1,0.2 P,0,62346,63725,A
Sprite,Foreground,Centre,"SB\highlight.png",456,300 F,0,62461,62519,0,1 C,0,62519,,221,241,78 F,2,62519,63898,1,0 S,6,62519,63898,1,0.2 P,0,62519,63898,A
Sprite,Foreground,Centre,"SB\highlight.png",276,128 F,0,62633,62691,0,1 C,0,62691,,221,241,78 F,2,62691,64070,1,0 S,6,62691,64070,1,0.2 P,0,62691,64070,A
Sprite,Foreground,Centre,"SB\highlight.png",276,128 F,0,62806,62864,0,1 C,0,62864,,221,241,78 F,2,62864,64243,1,0 S,6,62864,64243,1,0.2 P,0,62864,64243,A
Sprite,Foreground,Centre,"SB\highlight.png",176,352 F,0,62978,63036,0,1 C,0,63036,,172,126,81 F,2,63036,64415,1,0 S,6,63036,64415,1,0.2 P,0,63036,64415,A
Sprite,Foreground,Centre,"SB\highlight.png",268,368 F,0,63151,63209,0,1 C,0,63209,,172,126,81 F,2,63209,64588,1,0 S,6,63209,64588,1,0.2 P,0,63209,64588,A
Sprite,Foreground,Centre,"SB\highlight.png",360,388 F,0,63323,63381,0,1 C,0,63381,,172,126,81 F,2,63381,64760,1,0 S,6,63381,64760,1,0.2 P,0,63381,64760,A
Sprite,Foreground,Centre,"SB\highlight.png",452,408 F,0,63495,63553,0,1 C,0,63553,,172,126,81 F,2,63553,64932,1,0 S,6,63553,64932,1,0.2 P,0,63553,64932,A
Sprite,Foreground,Centre,"SB\highlight.png",268,368 F,0,64013,64071,0,1 C,0,64071,,255,119,53 F,2,64071,65450,1,0 S,6,64071,65450,1,0.2 P,0,64071,65450,A
Sprite,Foreground,Centre,"SB\highlight.png",452,408 F,0,64357,64415,0,1 C,0,64415,,255,119,53 F,2,64415,65794,1,0 S,6,64415,65794,1,0.2 P,0,64415,65794,A
Sprite,Foreground,Centre,"SB\highlight.png",470,160 F,0,74702,74760,0,1 C,0,74760,,172,126,81 F,2,74760,76139,1,0 S,6,74760,76139,1,0.2 P,0,74760,76139,A
Sprite,Foreground,Centre,"SB\highlight.png",320,244 F,0,74875,74933,0,1 C,0,74933,,172,126,81 F,2,74933,76312,1,0 S,6,74933,76312,1,0.2 P,0,74933,76312,A
Sprite,Foreground,Centre,"SB\highlight.png",530,216 F,0,75047,75105,0,1 C,0,75105,,255,119,53 F,2,75105,76484,1,0 S,6,75105,76484,1,0.2 P,0,75105,76484,A
Sprite,Foreground,Centre,"SB\highlight.png",530,216 F,0,75220,75278,0,1 C,0,75278,,255,119,53 F,2,75278,76657,1,0 S,6,75278,76657,1,0.2 P,0,75278,76657,A
Sprite,Foreground,Centre,"SB\highlight.png",410,104 F,0,75392,75450,0,1 C,0,75450,,255,119,53 F,2,75450,76829,1,0 S,6,75450,76829,1,0.2 P,0,75450,76829,A
Sprite,Foreground,Centre,"SB\highlight.png",410,104 F,0,75564,75622,0,1 C,0,75622,,255,119,53 F,2,75622,77001,1,0 S,6,75622,77001,1,0.2 P,0,75622,77001,A
Sprite,Foreground,Centre,"SB\highlight.png",488,296 F,0,75737,75795,0,1 C,0,75795,,0,84,168 F,2,75795,77174,1,0 S,6,75795,77174,1,0.2 P,0,75795,77174,A
Sprite,Foreground,Centre,"SB\highlight.png",572,136 F,0,75909,75967,0,1 C,0,75967,,0,84,168 F,2,75967,77346,1,0 S,6,75967,77346,1,0.2 P,0,75967,77346,A
Sprite,Foreground,Centre,"SB\highlight.png",488,296 F,0,76082,76140,0,1 C,0,76140,,221,241,78 F,2,76140,77519,1,0 S,6,76140,77519,1,0.2 P,0,76140,77519,A
Sprite,Foreground,Centre,"SB\highlight.png",488,296 F,0,76254,76312,0,1 C,0,76312,,221,241,78 F,2,76312,77691,1,0 S,6,76312,77691,1,0.2 P,0,76312,77691,A
Sprite,Foreground,Centre,"SB\highlight.png",410,104 F,0,76426,76484,0,1 C,0,76484,,221,241,78 F,2,76484,77863,1,0 S,6,76484,77863,1,0.2 P,0,76484,77863,A
Sprite,Foreground,Centre,"SB\highlight.png",410,104 F,0,76599,76657,0,1 C,0,76657,,221,241,78 F,2,76657,78036,1,0 S,6,76657,78036,1,0.2 P,0,76657,78036,A
Sprite,Foreground,Centre,"SB\highlight.png",320,244 F,0,76771,76829,0,1 C,0,76829,,221,241,78 F,2,76829,78208,1,0 S,6,76829,78208,1,0.2 P,0,76829,78208,A
Sprite,Foreground,Centre,"SB\highlight.png",320,244 F,0,76944,77002,0,1 C,0,77002,,221,241,78 F,2,77002,78381,1,0 S,6,77002,78381,1,0.2 P,0,77002,78381,A
Sprite,Foreground,Centre,"SB\highlight.png",128,112 F,0,77116,77174,0,1 C,0,77174,,172,126,81 F,2,77174,78553,1,0 S,6,77174,78553,1,0.2 P,0,77174,78553,A
Sprite,Foreground,Centre,"SB\highlight.png",136,296 F,0,77288,77346,0,1 C,0,77346,,172,126,81 F,2,77346,78725,1,0 S,6,77346,78725,1,0.2 P,0,77346,78725,A
Sprite,Foreground,Centre,"SB\highlight.png",315,73 F,0,77461,77519,0,1 C,0,77519,,172,126,81 F,2,77519,78898,1,0 S,6,77519,78898,1,0.2 P,0,77519,78898,A
Sprite,Foreground,Centre,"SB\highlight.png",296,328 F,0,87116,87174,0,1 C,0,87174,,221,241,78 F,2,87174,88553,1,0 S,6,87174,88553,1,0.2 P,0,87174,88553,A
Sprite,Foreground,Centre,"SB\highlight.png",296,328 F,0,87461,87519,0,1 C,0,87519,,172,126,81 F,2,87519,88898,1,0 S,6,87519,88898,1,0.2 P,0,87519,88898,A
Sprite,Foreground,Centre,"SB\highlight.png",457,440 F,0,87633,87691,0,1 C,0,87691,,172,126,81 F,2,87691,89070,1,0 S,6,87691,89070,1,0.2 P,0,87691,89070,A
Sprite,Foreground,Centre,"SB\highlight.png",473,420 F,0,87978,88036,0,1 C,0,88036,,255,119,53 F,2,88036,89415,1,0 S,6,88036,89415,1,0.2 P,0,88036,89415,A
Sprite,Foreground,Centre,"SB\highlight.png",280,308 F,0,88151,88209,0,1 C,0,88209,,255,119,53 F,2,88209,89588,1,0 S,6,88209,89588,1,0.2 P,0,88209,89588,A
Sprite,Foreground,Centre,"SB\highlight.png",489,400 F,0,88323,88381,0,1 C,0,88381,,255,119,53 F,2,88381,89760,1,0 S,6,88381,89760,1,0.2 P,0,88381,89760,A
Sprite,Foreground,Centre,"SB\highlight.png",350,367 F,0,88495,88553,0,1 C,0,88553,,255,119,53 F,2,88553,89932,1,0 S,6,88553,89932,1,0.2 P,0,88553,89932,A
Sprite,Foreground,Centre,"SB\highlight.png",530,394 F,0,98668,98726,0,1 C,0,98726,,0,84,168 F,2,98726,100105,1,0 S,6,98726,100105,1,0.2 P,0,98726,100105,A
Sprite,Foreground,Centre,"SB\highlight.png",568,232 F,0,98840,98898,0,1 C,0,98898,,0,84,168 M,0,98898,98984,568,232,583.3492,273.6358 F,2,98898,100449,1,0 S,6,98898,100449,1,0.2 P,0,98898,100449,A M,0,98984,99070,583.3492,273.6358,575.8433,317.3369
Sprite,Foreground,Centre,"SB\highlight.png",496,280 F,0,99185,99243,0,1 C,0,99243,,0,84,168 F,2,99243,100622,1,0 S,6,99243,100622,1,0.2 P,0,99243,100622,A
Sprite,Foreground,Centre,"SB\highlight.png",468,112 F,0,99357,99415,0,1 C,0,99415,,0,84,168 F,2,99415,100794,1,0 S,6,99415,100794,1,0.2 P,0,99415,100794,A
Sprite,Foreground,Centre,"SB\highlight.png",476,108 F,0,99444,99502,0,1 C,0,99502,,0,84,168 F,2,99502,100881,1,0 S,6,99502,100881,1,0.2 P,0,99502,100881,A
Sprite,Foreground,Centre,"SB\highlight.png",484,104 F,0,99530,99588,0,1 C,0,99588,,221,241,78 M,0,99588,99674,484,104,484,126.5 F,2,99588,101225,1,0 S,6,99588,101225,1,0.2 P,0,99588,101225,A M,0,99674,99760,484,126.5,484,149 M,0,99760,99846,484,149,484,171.5
Sprite,Foreground,Centre,"SB\highlight.png",344,400 F,0,109185,109243,0,1 C,0,109243,,0,84,168 M,0,109243,109329,344,400,299.2635,395.1373 F,2,109243,110967,1,0 S,6,109243,110967,1,0.2 P,0,109243,110967,A M,0,109329,109415,299.2635,395.1373,254.527,390.2747 M,0,109415,109501,254.527,390.2747,209.7905,385.412 M,0,109501,109587,209.7905,385.412,165.054,380.5493
Sprite,Foreground,Centre,"SB\highlight.png",163,228 F,0,109702,109760,0,1 C,0,109760,,0,84,168 M,0,109760,109846,163,228,193.0182,260.815 F,2,109760,111484,1,0 S,6,109760,111484,1,0.2 P,0,109760,111484,A M,0,109846,109932,193.0182,260.815,204.4972,303.7872 M,0,109932,110018,204.4972,303.7872,193.8658,346.9615 M,0,110018,110104,193.8658,346.9615,164.477,380.3305
Sprite,Foreground,Centre,"SB\highlight.png",118,305 F,0,110220,110278,0,1 C,0,110278,,0,84,168 M,0,110278,110364,118,305,147.9635,338.1423 F,2,110278,111829,1,0 S,6,110278,111829,1,0.2 P,0,110278,111829,A M,0,110364,110450,147.9635,338.1423,163.7244,379.9305
Sprite,Foreground,Centre,"SB\highlight.png",68,389 F,0,110564,110622,0,1 C,0,110622,,0,84,168 F,2,110622,112001,1,0 S,6,110622,112001,1,0.2 P,0,110622,112001,A
//Storyboard Sound Samples

[TimingPoints]
278,344.827586206897,4,2,1,45,1,0
22346,-153.846153846153,4,2,1,45,0,0
29760,-153.846153846153,4,2,1,5,0,0
29933,-153.846153846154,4,2,1,45,0,0
30450,-153.846153846153,4,2,1,5,0,0
30622,-153.846153846154,4,2,1,45,0,0
31140,-153.846153846153,4,2,1,5,0,0
31312,-153.846153846154,4,2,1,45,0,0
33898,-153.846153846153,4,2,1,5,0,0
34071,-153.846153846154,4,2,1,45,0,0
34588,-153.846153846153,4,2,1,5,0,0
34760,-153.846153846154,4,2,1,45,0,0
36657,-153.846153846153,4,2,1,5,0,0
36829,-153.846153846154,4,2,1,45,0,0
39415,-153.846153846153,4,2,1,5,0,0
39588,-153.846153846154,4,2,1,45,0,0
42864,-153.846153846153,4,2,1,5,0,0
43036,-153.846153846154,4,2,1,45,0,0
44415,-400.333333333333,4,2,1,45,0,0
55450,-133.333333333333,4,2,1,45,0,0
66829,-100,4,2,3,60,0,1
66915,-100,4,2,2,60,0,1
77519,-100,4,2,2,60,0,0
77864,-100,4,2,3,60,0,1
77950,-100,4,2,2,60,0,1
84674,-100,4,2,2,5,0,1
84760,-100,4,2,2,60,0,1
87174,-100,4,2,2,60,0,0
88898,-100,4,2,3,60,0,1
88984,-100,4,2,2,60,0,1
99588,-200,4,2,2,60,0,0
99846,-200,4,2,2,5,0,0
99933,-100,4,2,3,60,0,1
100019,-100,4,2,2,60,0,1
101226,-100,4,2,2,5,0,1
101312,-100,4,2,2,60,0,1
110622,-100,4,2,2,60,0,0
113381,-100,4,2,1,5,0,0

[Colours]
Combo1 : 0,84,168
Combo2 : 221,241,78
Combo3 : 172,126,81
Combo4 : 255,119,53

[HitObjects]
256,192,18209,12,0,20967,0:0:0:0:
399,101,21312,5,0,0:0:0:0:
242,130,21657,1,0,0:0:0:0:
421,10,22002,1,0,0:0:0:0:
242,130,22346,6,0,B|292:97|292:97|341:138|407:97,1,175.499991966248,4|0,0:0|0:0,0:0:0:0:
193,55,23036,2,0,P|159:104|163:162,1,116.999994644165,8|0,0:0|0:0,0:0:0:0:
320,194,23726,1,2,0:0:0:0:
223,259,24071,5,0,0:0:0:0:
320,194,24415,1,8,0:0:0:0:
370,299,24760,1,0,0:0:0:0:
270,360,25105,5,2,0:0:0:0:
176,158,25450,1,0,0:0:0:0:
470,238,25795,1,8,0:0:0:0:
223,259,26140,1,0,0:0:0:0:
417,129,26484,1,0,0:0:0:0:
319,274,26829,5,0,0:0:0:0:
288,268,27174,1,8,0:0:0:0:
255,264,27519,1,0,0:0:0:0:
223,259,27864,6,0,B|144:272|144:272|120:302|120:302|81:284|81:284|-13:300,1,233.999989288331,2|8,0:0|0:0,0:0:0:0:
120,300,29243,6,0,B|88:236|152:236|120:172|120:172|56:172,1,175.499991966248,2|0,0:0|0:0,0:0:0:0:
66,83,29933,2,0,B|178:55|178:55|256:85,1,175.499991966248,8|0,0:0|0:0,0:0:0:0:
310,119,30622,6,0,L|294:299,1,175.499991966248,2|0,0:0|0:0,0:0:0:0:
198,348,31312,2,0,B|261:355|294:293|294:293|316:358|399:359,1,233.999989288331,8|0,0:0|0:0,0:0:0:0:
114,330,32346,5,0,0:0:0:0:
382,276,32691,1,8,0:0:0:0:
210,267,33036,1,0,0:0:0:0:
480,216,33381,6,0,P|504:120|464:40,1,175.499991966248,4|0,0:0|0:0,0:0:0:0:
336,156,34071,2,0,P|392:184|404:96,1,175.499991966248,8|0,0:0|0:0,0:0:0:0:
324,72,34760,1,2,0:0:0:0:
480,216,35105,1,0,0:0:0:0:
264,208,35450,2,0,B|248:272|248:272|272:340,1,116.999994644165,8|0,0:0|0:0,0:0:0:0:
256,184,36140,6,0,B|232:272|232:272|260:368,1,175.499991966248,2|0,0:0|0:0,0:0:0:0:
144,328,36829,2,0,P|88:308|28:336,2,116.999994644165,8|0|0,0:0|0:0|0:0,0:0:0:0:
144,328,37864,1,0,0:0:0:0:
104,64,38209,1,8,0:0:0:0:
104,172,38553,2,0,L|104:252,1,58.4999973220826,8|0,0:0|0:0,0:0:0:0:
24,140,38898,6,0,B|104:176|104:176|192:136,1,175.499991966248,2|0,0:0|0:0,0:0:0:0:
260,96,39588,1,8,0:0:0:0:
260,96,39933,1,0,0:0:0:0:
320,160,40105,1,0,0:0:0:0:
348,76,40278,2,0,L|396:16,1,58.4999973220826,2|0,0:0|0:0,0:0:0:0:
412,140,40622,2,0,L|460:80,1,58.4999973220826
380,228,40967,2,0,L|308:324,1,116.999994644165,8|0,0:0|0:0,0:0:0:0:
309,321,41657,5,2,0:0:0:0:
256,252,41829,1,0,0:0:0:0:
200,320,42002,2,0,L|120:320,1,58.4999973220826
8,236,42346,2,0,B|92:200|92:200|188:244,1,175.499991966248,8|0,0:0|0:0,0:0:0:0:
168,133,43036,6,0,L|168:64,2,58.4999973220826
168,235,43726,1,8,0:0:0:0:
168,235,44415,6,0,B|250:175|338:228|338:228|311:136|383:70|383:70|379:185|455:237,1,539.55036097771,4|0,0:0|0:0,0:0:0:0:
449,232,49933,6,0,B|345:237|342:119|342:119|272:201|183:148|183:148|143:174|143:174|121:134|121:134|148:92|115:46,1,539.55036097771
302,94,55450,6,0,L|382:102,1,67.5000025749208,4|0,0:0|0:0,0:0:0:0:
512,56,55795,2,0,L|444:49,1,67.5000025749208,2|0,0:0|0:0,0:0:0:0:
440,184,56140,2,0,L|448:328,1,135.000005149842,0|2,0:0|0:0,0:0:0:0:
447,318,56657,1,0,0:0:0:0:
328,296,56829,6,0,P|296:306|269:327,1,67.5000025749208
120,348,57174,2,0,P|151:337|178:316,1,67.5000025749208,2|0,0:0|0:0,0:0:0:0:
212,220,57519,1,0,0:0:0:0:
16,292,57691,1,0,0:0:0:0:
112,256,57864,1,2,0:0:0:0:
32,196,58036,1,0,0:0:0:0:
32,196,58209,6,0,L|52:44,1,135.000005149842,0|2,0:0|0:0,0:0:0:0:
152,20,58726,1,0,0:0:0:0:
152,20,58899,2,0,L|132:172,1,135.000005149842,0|2,0:0|0:0,0:0:0:0:
360,364,59588,2,0,L|380:212,1,135.000005149842,0|2,0:0|0:0,0:0:0:0:
377,230,60105,1,0,0:0:0:0:
224,296,60278,2,0,P|268:304|300:296,1,67.5000025749208
420,152,60622,2,0,P|376:144|344:152,1,67.5000025749208,2|0,0:0|0:0,0:0:0:0:
264,216,60967,6,2,L|248:136,1,67.5000025749208
340,82,61312,2,2,L|356:162,1,67.5000025749208
248,220,61657,2,2,L|234:153,1,67.5000025749208
356,76,62002,2,2,L|369:142,1,67.5000025749208
392,244,62346,5,2,0:0:0:0:
392,244,62519,1,2,0:0:0:0:
212,72,62691,1,10,0:0:0:0:
212,72,62864,1,2,0:0:0:0:
112,296,63036,5,10,0:0:0:0:
204,312,63209,1,10,0:0:0:0:
296,332,63381,1,10,0:0:0:0:
388,352,63553,1,10,0:0:0:0:
204,312,64071,5,0,0:0:0:0:
388,352,64415,1,0,0:0:0:0:
256,192,65105,12,2,66484,0:0:0:0:
244,260,66829,6,0,P|224:220|228:164,1,90,2|0,0:0|0:0,0:0:0:0:
272,100,67174,1,0,0:0:0:0:
272,100,67346,1,2,0:0:0:0:
304,324,67519,2,0,P|264:343|219:343,1,90,8|0,0:0|0:0,0:0:0:0:
70,262,67864,6,0,B|186:238|186:238|262:266,1,180,2|8,0:0|0:0,0:0:0:0:
304,324,68381,1,0,0:0:0:0:
304,156,68553,1,0,0:0:0:0:
392,264,68726,1,2,0:0:0:0:
240,384,68898,1,8,0:0:0:0:
244,260,69071,1,0,0:0:0:0:
476,326,69243,6,0,B|392:286|392:366|300:322,1,180,2|8,0:0|0:0,0:0:0:0:
244,260,69760,1,0,0:0:0:0:
392,164,69933,1,0,0:0:0:0:
177,201,70105,1,2,0:0:0:0:
412,244,70278,1,8,0:0:0:0:
372,84,70450,1,0,0:0:0:0:
244,260,70622,5,2,0:0:0:0:
110,142,70795,1,0,0:0:0:0:
304,176,70967,1,8,0:0:0:0:
184,344,71140,1,0,0:0:0:0:
177,201,71312,1,0,0:0:0:0:
311,319,71484,5,2,0:0:0:0:
112,280,71657,1,8,0:0:0:0:
242,122,71829,1,0,0:0:0:0:
22,67,72002,6,0,B|75:84|106:55|106:55|83:108|111:144,1,180,2|8,0:0|0:0,0:0:0:0:
220,20,72519,1,0,0:0:0:0:
172,212,72691,2,0,P|132:232|76:228,1,90,0|2,0:0|0:0,0:0:0:0:
280,280,73036,2,0,P|324:279|364:299,1,90,8|0,0:0|0:0,0:0:0:0:
172,212,73381,6,0,B|132:128|212:128|169:39,1,180,2|8,0:0|0:0,0:0:0:0:
80,20,73898,1,0,0:0:0:0:
257,59,74071,2,0,L|380:44,1,90,0|2,0:0|0:0,0:0:0:0:
191,296,74415,2,0,P|171:256|175:200,1,90,8|0,0:0|0:0,0:0:0:0:
406,104,74760,1,2,0:0:0:0:
256,188,74933,1,0,0:0:0:0:
466,160,75105,5,8,0:0:0:0:
466,160,75278,1,0,0:0:0:0:
346,48,75450,1,0,0:0:0:0:
346,48,75622,1,2,0:0:0:0:
424,240,75795,5,8,0:0:0:0:
508,80,75967,1,0,0:0:0:0:
424,240,76140,5,2,0:0:0:0:
424,240,76312,1,0,0:0:0:0:
346,48,76484,1,8,0:0:0:0:
346,48,76657,1,0,0:0:0:0:
256,188,76829,1,0,0:0:0:0:
256,188,77002,1,2,0:0:0:0:
64,56,77174,5,8,0:0:0:0:
72,240,77346,1,0,0:0:0:0:
251,17,77519,1,2,0:0:0:0:
251,17,77864,6,0,B|228:56|240:112|264:88|280:152|247:205,1,180,2|0,0:0|0:0,0:0:0:0:
176,148,78381,1,2,0:0:0:0:
328,56,78553,2,0,L|432:56,1,90,8|0,0:0|0:0,0:0:0:0:
376,232,78898,6,0,P|364:188|380:136,1,90,2|0,0:0|0:0,0:0:0:0:
464,288,79243,1,8,0:0:0:0:
464,288,79588,1,0,0:0:0:0:
460,188,79760,1,2,0:0:0:0:
376,332,79933,1,8,0:0:0:0:
292,276,80105,1,0,0:0:0:0:
128,348,80278,6,0,P|108:308|108:260,1,90,2|0,0:0|0:0,0:0:0:0:
240,144,80622,2,0,P|215:181|173:205,1,90,8|0,0:0|0:0,0:0:0:0:
8,144,80967,2,0,P|52:146|94:170,1,90,0|2,2:0|2:0,2:0:0:0:
177,204,81312,1,8,0:0:0:0:
107,263,81484,1,0,0:0:0:0:
167,109,81657,6,0,L|195:21,1,90,2|0,0:0|0:0,0:0:0:0:
194,23,82002,1,8,0:0:0:0:
352,120,82174,1,0,0:0:0:0:
352,120,82260,1,0,0:0:0:0:
352,120,82346,1,0,0:0:0:0:
364,32,82519,1,2,0:0:0:0:
264,156,82691,1,8,0:0:0:0:
424,188,82864,1,0,0:0:0:0:
324,316,83036,6,0,P|316:256|332:220,1,90,2|0,0:0|0:0,0:0:0:0:
408,356,83381,1,8,0:0:0:0:
408,356,83553,1,0,0:0:0:0:
224,312,83726,2,0,L|132:332,1,90,0|2,0:0|0:0,0:0:0:0:
8,236,84071,2,0,L|100:256,1,90,8|0,0:0|0:0,0:0:0:0:
192,92,84415,6,0,B|156:160|156:160|180:224,1,135,2|0,0:0|0:0,0:0:0:0:
188,240,84760,1,8,0:0:0:0:
188,240,85105,1,0,0:0:0:0:
80,92,85278,1,2,0:0:0:0:
272,88,85450,2,0,B|324:88|324:88|376:124,1,90,8|0,0:0|0:0,0:0:0:0:
460,176,85795,6,0,B|452:36|452:36|496:84,2,180,2|8|0,0:0|0:0|0:0,0:0:0:0:
472,272,86657,1,2,0:0:0:0:
352,316,86829,2,0,L|348:224,1,90,8|0,0:0|0:0,0:0:0:0:
232,272,87174,1,2,0:0:0:0:
232,272,87519,5,8,0:0:0:0:
393,384,87691,1,2,0:0:0:0:
409,364,88036,5,8,0:0:0:0:
216,252,88209,1,2,0:0:0:0:
425,344,88381,1,8,0:0:0:0:
286,311,88553,1,2,0:0:0:0:
286,311,88898,6,0,P|250:337|194:343,1,90,2|0,0:0|0:0,0:0:0:0:
182,171,89243,2,0,P|208:207|214:263,1,90,0|2,0:0|0:0,0:0:0:0:
90,259,89588,1,8,0:0:0:0:
90,259,89760,1,0,0:0:0:0:
224,102,89933,6,0,B|284:70|284:70|344:99|387:59,1,180,2|8,0:0|0:0,0:0:0:0:
253,0,90450,1,0,0:0:0:0:
374,172,90622,1,0,0:0:0:0:
182,171,90795,1,2,0:0:0:0:
315,94,90967,1,8,0:0:0:0:
315,94,91140,1,0,0:0:0:0:
232,254,91312,6,0,B|228:316|278:348|278:348|332:294,1,180,2|8,0:0|0:0,0:0:0:0:
374,172,91829,1,0,0:0:0:0:
190,172,92002,2,0,L|77:167,1,90,0|2,0:0|0:0,0:0:0:0:
304,5,92346,2,0,P|325:45|324:90,1,90,8|0,0:0|0:0,0:0:0:0:
232,254,92691,6,0,B|202:277|173:268|173:268|166:280|166:280|131:332|45:288,1,180,2|8,0:0|0:0,0:0:0:0:
34,206,93209,1,0,0:0:0:0:
232,254,93381,1,0,0:0:0:0:
232,254,93553,1,2,0:0:0:0:
128,129,93726,2,0,L|124:39,1,90,8|0,0:0|0:0,0:0:0:0:
34,206,94071,6,0,B|10:254|26:314|50:282|66:342|34:394,1,180,2|8,0:0|0:0,0:0:0:0:
34,206,94588,1,0,0:0:0:0:
136,368,94760,2,0,P|172:341|194:303,1,90,0|2,0:0|0:0,0:0:0:0:
152,96,95105,2,0,L|144:216,1,90,8|0,0:0|0:0,0:0:0:0:
136,368,95450,5,2,0:0:0:0:
136,368,95622,1,0,0:0:0:0:
260,236,95795,1,8,0:0:0:0:
260,236,95967,1,0,0:0:0:0:
76,298,96140,1,0,0:0:0:0:
76,298,96312,1,2,0:0:0:0:
226,384,96484,5,8,0:0:0:0:
284,220,96657,1,0,0:0:0:0:
88,275,96829,6,0,L|-30:248,1,90,2|0,0:0|0:0,0:0:0:0:
162,69,97174,2,0,L|135:187,1,90,8|0,0:0|0:0,0:0:0:0:
83,362,97519,1,0,0:0:0:0:
284,220,97691,1,2,0:0:0:0:
88,275,97864,1,8,0:0:0:0:
266,131,98036,1,0,0:0:0:0:
302,309,98209,6,0,B|396:292|396:292|492:356,1,180,2|8,0:0|0:0,0:0:0:0:
466,338,98726,1,0,0:0:0:0:
504,176,98898,2,0,P|520:228|500:280,1,90,0|2,0:0|0:0,0:0:0:0:
432,224,99243,1,8,0:0:0:0:
404,56,99415,1,0,0:0:0:0:
412,52,99502,1,0,0:0:0:0:
420,48,99588,6,0,L|420:128,1,67.5,2|0,0:0|0:0,0:0:0:0:
360,176,99933,6,0,B|312:192|312:192|248:172,1,90,2|0,0:0|0:0,0:0:0:0:
144,248,100278,2,0,B|192:232|192:232|256:252,1,90,0|2,0:0|0:0,0:0:0:0:
304,356,100622,1,8,0:0:0:0:
196,340,100795,1,0,0:0:0:0:
274,180,100967,6,2,L|294:32,1,135
280,32,101312,2,0,P|228:60|176:60,1,90,8|0,0:0|0:0,0:0:0:0:
84,24,101657,1,0,0:0:0:0:
104,132,101829,1,2,0:0:0:0:
60,320,102002,1,8,0:0:0:0:
40,212,102174,1,0,0:0:0:0:
48,216,102260,1,0,0:0:0:0:
56,220,102346,6,0,L|160:240,1,90,2|0,0:0|0:0,0:0:0:0:
236,348,102691,2,0,P|228:288|252:236,1,90,8|0,0:0|0:0,0:0:0:0:
320,308,103036,1,0,0:0:0:0:
144,236,103209,1,2,0:0:0:0:
292,120,103381,2,0,P|300:60|276:8,1,90,8|0,0:0|0:0,0:0:0:0:
40,84,103726,6,0,B|88:108|148:92|116:68|176:52|228:84,1,180,2|8,0:0|0:0,0:0:0:0:
176,156,104243,1,0,0:0:0:0:
320,308,104415,2,0,P|368:324|428:300,1,90,0|2,0:0|0:0,0:0:0:0:
376,152,104760,2,0,P|358:199|380:260,1,90,8|0,0:0|0:0,0:0:0:0:
492,288,105105,6,0,B|460:204|460:204|496:96,2,180,2|8|0,0:0|0:0|0:0,0:0:0:0:
492,288,105967,1,2,0:0:0:0:
324,332,106140,1,8,0:0:0:0:
336,224,106312,1,0,0:0:0:0:
168,272,106484,6,0,P|120:284|68:264,1,90,2|0,0:0|0:0,0:0:0:0:
132,40,106829,2,0,P|164:124|100:216,1,180,8|0,0:0|0:0,0:0:0:0:
56,116,107346,1,2,0:0:0:0:
256,88,107519,2,0,L|368:128,1,90,8|0,0:0|0:0,0:0:0:0:
268,184,107864,21,2,0:0:0:0:
332,24,108036,1,0,0:0:0:0:
432,164,108209,2,0,P|444:120|432:72,1,90,8|0,0:0|0:0,0:0:0:0:
340,118,108553,1,0,0:0:0:0:
428,264,108726,1,2,0:0:0:0:
504,115,108898,2,0,P|456:135|424:179,1,90,8|0,0:0|0:0,0:0:0:0:
280,344,109243,38,0,L|96:324,1,180,2|8,0:0|0:0,0:0:0:0:
99,172,109760,2,0,P|139:232|87:332,1,180,2|8,0:0|0:0,0:0:0:0:
54,249,110278,2,0,P|96:308|101:354,1,90,2|8,0:0|0:0,0:0:0:0:
4,333,110622,1,4,1:0:0:0:
256,192,110795,12,0,113381,0:0:0:0:
