osu file format v14

[General]
AudioFilename: Cartoon - Whatever I do (feat. Kostja).mp3
AudioLeadIn: 0
PreviewTime: 87519
Countdown: 0
SampleSet: Soft
StackLeniency: 0.5
Mode: 0
LetterboxInBreaks: 0
EpilepsyWarning: 1
WidescreenStoryboard: 1

[Editor]
Bookmarks: 22346,33381,44415,55450,66484,77519,87174,98209,110622
DistanceSpacing: 1.2
BeatDivisor: 4
GridSize: 4
TimelineZoom: 1

[Metadata]
Title:Whatever I Do (feat. Kostja)
TitleUnicode:Whatever I Do (feat. Kostja)
Artist:Cartoon
ArtistUnicode:Cartoon
Creator:Nhawak
Version:Hard
Source:
Tags:dnb drum and bass edm moph -m4x zerss
BeatmapID:1022062
BeatmapSetID:372144

[Difficulty]
HPDrainRate:6
CircleSize:4
OverallDifficulty:6
ApproachRate:8
SliderMultiplier:1.5
SliderTickRate:1

[Events]
//Background and Video events
0,0,"BG.jpg",0,0
//Break Periods
//Storyboard Layer 0 (Background)
//Storyboard Layer 1 (Fail)
//Storyboard Layer 2 (Pass)
//Storyboard Layer 3 (Foreground)
Sprite,Foreground,Centre,"SB\highlight.png",316,392 F,0,60909,60967,0,1 C,0,60967,,0,84,168 M,0,60967,61053,316,392,311.1123,364.3029 F,2,60967,62518,1,0 S,6,60967,62518,1,0.2 P,0,60967,62518,A M,0,61053,61139,311.1123,364.3029,306.2246,336.6059
Sprite,Foreground,Centre,"SB\highlight.png",224,304 F,0,61254,61312,0,1 C,0,61312,,0,84,168 M,0,61312,61398,224,304,229.893,276.4993 F,2,61312,63036,1,0 S,6,61312,63036,1,0.2 P,0,61312,63036,A M,0,61398,61484,229.893,276.4993,235.786,248.9986 M,0,61484,61570,235.786,248.9986,227.9156,222.1301 M,0,61570,61656,227.9156,222.1301,219.5267,195.2853
Sprite,Foreground,Centre,"SB\highlight.png",184,108 F,0,61771,61829,0,1 C,0,61829,,0,84,168 F,2,61829,63208,1,0 S,6,61829,63208,1,0.2 P,0,61829,63208,A
Sprite,Foreground,Centre,"SB\highlight.png",81,187 F,0,61944,62002,0,1 C,0,62002,,0,84,168 M,0,62002,62088,81,187,109.0368,189.2251 F,2,62002,63553,1,0 S,6,62002,63553,1,0.2 P,0,62002,63553,A M,0,62088,62174,109.0368,189.2251,137.0737,191.4503
Sprite,Foreground,Centre,"SB\highlight.png",272,128 F,0,62288,62346,0,1 C,0,62346,,221,241,78 M,0,62346,62432,272,128,300.0627,129.8708 F,2,62346,64070,1,0 S,6,62346,64070,1,0.2 P,0,62346,64070,A M,0,62432,62518,300.0627,129.8708,328.1254,131.7417 M,0,62518,62604,328.1254,131.7417,356.1881,133.6125 M,0,62604,62690,356.1881,133.6125,384.2508,135.4834
Sprite,Foreground,Centre,"SB\highlight.png",432,220 F,0,62806,62864,0,1 C,0,62864,,221,241,78 F,2,62864,64243,1,0 S,6,62864,64243,1,0.2 P,0,62864,64243,A
Sprite,Foreground,Centre,"SB\highlight.png",472,88 F,0,62978,63036,0,1 C,0,63036,,221,241,78 M,0,63036,63122,472,88,472,116.125 F,2,63036,64587,1,0 S,6,63036,64587,1,0.2 P,0,63036,64587,A M,0,63122,63208,472,116.125,472,144.25
Sprite,Foreground,Centre,"SB\highlight.png",524,224 F,0,63323,63381,0,1 C,0,63381,,221,241,78 F,2,63381,64760,1,0 S,6,63381,64760,1,0.2 P,0,63381,64760,A
Sprite,Foreground,Centre,"SB\highlight.png",476,308 F,0,63495,63553,0,1 C,0,63553,,221,241,78 F,2,63553,64932,1,0 S,6,63553,64932,1,0.2 P,0,63553,64932,A
Sprite,Foreground,Centre,"SB\highlight.png",476,308 F,0,64013,64071,0,1 C,0,64071,,172,126,81 F,2,64071,65450,1,0 S,6,64071,65450,1,0.2 P,0,64071,65450,A
Sprite,Foreground,Centre,"SB\highlight.png",472,144 F,0,64357,64415,0,1 C,0,64415,,172,126,81 F,2,64415,65794,1,0 S,6,64415,65794,1,0.2 P,0,64415,65794,A
Sprite,Foreground,Centre,"SB\highlight.png",449,210 F,0,74702,74760,0,1 C,0,74760,,221,241,78 F,2,74760,76139,1,0 S,6,74760,76139,1,0.2 P,0,74760,76139,A
Sprite,Foreground,Centre,"SB\highlight.png",449,210 F,0,74875,74933,0,1 C,0,74933,,221,241,78 F,2,74933,76312,1,0 S,6,74933,76312,1,0.2 P,0,74933,76312,A
Sprite,Foreground,Centre,"SB\highlight.png",548,298 F,0,75047,75105,0,1 C,0,75105,,221,241,78 M,0,75105,75191,548,298,551.9774,260.7115 F,2,75105,76656,1,0 S,6,75105,76656,1,0.2 P,0,75105,76656,A M,0,75191,75277,551.9774,260.7115,555.9548,223.4231
Sprite,Foreground,Centre,"SB\highlight.png",538,388 F,0,75392,75450,0,1 C,0,75450,,221,241,78 M,0,75450,75536,538,388,504.7205,372.9281 F,2,75450,77174,1,0 S,6,75450,77174,1,0.2 P,0,75450,77174,A M,0,75536,75622,504.7205,372.9281,468.0724,380.8759 M,0,75622,75708,468.0724,380.8759,431.4243,388.8236 M,0,75708,75794,431.4243,388.8236,406.0412,414.9485
Sprite,Foreground,Centre,"SB\highlight.png",451,305 F,0,75909,75967,0,1 C,0,75967,,221,241,78 F,2,75967,77346,1,0 S,6,75967,77346,1,0.2 P,0,75967,77346,A
Sprite,Foreground,Centre,"SB\highlight.png",478,416 F,0,76082,76140,0,1 C,0,76140,,172,126,81 F,2,76140,77519,1,0 S,6,76140,77519,1,0.2 P,0,76140,77519,A
Sprite,Foreground,Centre,"SB\highlight.png",451,305 F,0,76254,76312,0,1 C,0,76312,,172,126,81 F,2,76312,77691,1,0 S,6,76312,77691,1,0.2 P,0,76312,77691,A
Sprite,Foreground,Centre,"SB\highlight.png",353,357 F,0,76426,76484,0,1 C,0,76484,,172,126,81 M,0,76484,76570,353,357,319.6918,339.7716 F,2,76484,78035,1,0 S,6,76484,78035,1,0.2 P,0,76484,78035,A M,0,76570,76656,319.6918,339.7716,286.3837,322.5433
Sprite,Foreground,Centre,"SB\highlight.png",353,259 F,0,76771,76829,0,1 C,0,76829,,172,126,81 M,0,76829,76915,353,259,386.1298,241.4312 F,2,76829,78380,1,0 S,6,76829,78380,1,0.2 P,0,76829,78380,A M,0,76915,77001,386.1298,241.4312,419,224
Sprite,Foreground,Centre,"SB\highlight.png",486,168 F,0,77116,77174,0,1 C,0,77174,,172,126,81 M,0,77174,77260,486,168,452.6635,150.8266 F,2,77174,78725,1,0 S,6,77174,78725,1,0.2 P,0,77174,78725,A M,0,77260,77346,452.6635,150.8266,420,134
Sprite,Foreground,Centre,"SB\highlight.png",487,74 F,0,77461,77519,0,1 C,0,77519,,172,126,81 F,2,77519,78898,1,0 S,6,77519,78898,1,0.2 P,0,77519,78898,A
Sprite,Foreground,Centre,"SB\highlight.png",431,262 F,0,87116,87174,0,1 C,0,87174,,221,241,78 F,2,87174,88553,1,0 S,6,87174,88553,1,0.2 P,0,87174,88553,A
Sprite,Foreground,Centre,"SB\highlight.png",431,262 F,0,87461,87519,0,1 C,0,87519,,172,126,81 F,2,87519,88898,1,0 S,6,87519,88898,1,0.2 P,0,87519,88898,A
Sprite,Foreground,Centre,"SB\highlight.png",431,262 F,0,87633,87691,0,1 C,0,87691,,172,126,81 F,2,87691,89070,1,0 S,6,87691,89070,1,0.2 P,0,87691,89070,A
Sprite,Foreground,Centre,"SB\highlight.png",468,413 F,0,87978,88036,0,1 C,0,88036,,172,126,81 F,2,88036,89415,1,0 S,6,88036,89415,1,0.2 P,0,88036,89415,A
Sprite,Foreground,Centre,"SB\highlight.png",468,413 F,0,88151,88209,0,1 C,0,88209,,172,126,81 M,0,88209,88295,468,413,472.9561,375.8289 F,2,88209,89760,1,0 S,6,88209,89760,1,0.2 P,0,88209,89760,A M,0,88295,88381,472.9561,375.8289,477.9123,338.6579
Sprite,Foreground,Centre,"SB\highlight.png",358,315 F,0,88495,88553,0,1 C,0,88553,,172,126,81 F,2,88553,89932,1,0 S,6,88553,89932,1,0.2 P,0,88553,89932,A
Sprite,Foreground,Centre,"SB\highlight.png",568,321 F,0,98668,98726,0,1 C,0,98726,,172,126,81 F,2,98726,100105,1,0 S,6,98726,100105,1,0.2 P,0,98726,100105,A
Sprite,Foreground,Centre,"SB\highlight.png",496,197 F,0,98840,98898,0,1 C,0,98898,,172,126,81 M,0,98898,98984,496,197,487.0366,232.9733 F,2,98898,100449,1,0 S,6,98898,100449,1,0.2 P,0,98898,100449,A M,0,98984,99070,487.0366,232.9733,494.6704,269.2486
Sprite,Foreground,Centre,"SB\highlight.png",576,237 F,0,99185,99243,0,1 C,0,99243,,172,126,81 F,2,99243,100622,1,0 S,6,99243,100622,1,0.2 P,0,99243,100622,A
Sprite,Foreground,Centre,"SB\highlight.png",576,237 F,0,99357,99415,0,1 C,0,99415,,172,126,81 F,2,99415,100794,1,0 S,6,99415,100794,1,0.2 P,0,99415,100794,A
Sprite,Foreground,Centre,"SB\highlight.png",404,241 F,0,99530,99588,0,1 C,0,99588,,172,126,81 F,2,99588,100967,1,0 S,6,99588,100967,1,0.2 P,0,99588,100967,A
Sprite,Foreground,Centre,"SB\highlight.png",308,121 F,0,109185,109243,0,1 C,0,109243,,172,126,81 M,0,109243,109329,308,121,342.9502,134.5917 F,2,109243,110967,1,0 S,6,109243,110967,1,0.2 P,0,109243,110967,A M,0,109329,109415,342.9502,134.5917,377.9004,148.1835 M,0,109415,109501,377.9004,148.1835,413.1251,136.9545 M,0,109501,109587,413.1251,136.9545,448.3673,124.1392
Sprite,Foreground,Centre,"SB\highlight.png",552,229 F,0,109702,109760,0,1 C,0,109760,,172,126,81 M,0,109760,109846,552,229,517.0498,215.4083 F,2,109760,111484,1,0 S,6,109760,111484,1,0.2 P,0,109760,111484,A M,0,109846,109932,517.0498,215.4083,482.0996,201.8165 M,0,109932,110018,482.0996,201.8165,446.8749,213.0455 M,0,110018,110104,446.8749,213.0455,411.6327,225.8608
Sprite,Foreground,Centre,"SB\highlight.png",480,357 F,0,110220,110278,0,1 C,0,110278,,172,126,81 M,0,110278,110364,480,357,487.7741,320.7429 F,2,110278,111829,1,0 S,6,110278,111829,1,0.2 P,0,110278,111829,A M,0,110364,110450,487.7741,320.7429,479.0667,284.7407
Sprite,Foreground,Centre,"SB\highlight.png",400,324 F,0,110564,110622,0,1 C,0,110622,,172,126,81 F,2,110622,112001,1,0 S,6,110622,112001,1,0.2 P,0,110622,112001,A
//Storyboard Sound Samples

[TimingPoints]
278,344.827586206897,4,2,1,45,1,0
22346,-153.846153846153,4,2,1,45,0,0
44415,-400,4,2,1,45,0,0
55450,-133.333333333333,4,2,1,45,0,0
66829,-100,4,2,3,60,0,1
66915,-100,4,2,2,60,0,1
77519,-100,4,2,2,60,0,0
77864,-100,4,2,3,60,0,1
77950,-100,4,2,2,60,0,1
87174,-100,4,2,2,60,0,0
88898,-100,4,2,3,60,0,1
88984,-100,4,2,2,60,0,1
99588,-100,4,2,2,60,0,0
99933,-100,4,2,3,60,0,1
100019,-100,4,2,2,60,0,1
110622,-100,4,2,2,60,0,0
113381,-100,4,2,1,5,0,0

[Colours]
Combo1 : 0,84,168
Combo2 : 221,241,78
Combo3 : 172,126,81
Combo4 : 255,119,53

[HitObjects]
256,192,18209,12,0,20967,0:0:0:0:
197,164,21312,5,0,0:0:0:0:
330,175,21657,2,0,L|311:343,1,150
197,164,22346,6,0,B|180:199|180:199|259:159|259:213|332:175,2,194.999991073609,4|8|2,0:0|0:0|0:0,0:0:0:0:
275,105,24071,1,0,0:0:0:0:
202,276,24415,6,0,P|154:275|114:249,1,97.4999955368044,8|0,0:0|0:0,0:0:0:0:
298,256,25105,2,0,P|297:304|271:344,1,97.4999955368044,2|0,0:0|0:0,0:0:0:0:
230,185,25795,2,0,P|270:158|318:158,1,97.4999955368044,8|0,0:0|0:0,0:0:0:0:
401,209,26484,1,0,0:0:0:0:
297,256,26829,5,0,0:0:0:0:
413,99,27174,1,8,0:0:0:0:
490,278,27519,1,0,0:0:0:0:
297,256,27864,6,0,B|231:232|185:281|185:281|158:254|103:262,2,194.999991073609,2|8|2,0:0|0:0|0:0,0:0:0:0:
256,338,29588,1,0,0:0:0:0:
228,166,29933,2,0,L|322:138,1,97.4999955368044,8|0,0:0|0:0,0:0:0:0:
256,338,30622,2,0,L|162:310,1,97.4999955368044,2|0,0:0|0:0,0:0:0:0:
321,138,31312,2,0,B|412:82|416:187|524:107,1,194.999991073609,8|0,0:0|0:0,0:0:0:0:
449,51,32346,5,0,0:0:0:0:
449,51,32691,1,8,0:0:0:0:
512,220,33036,1,0,0:0:0:0:
380,348,33381,6,0,B|387:288|447:292|447:292|467:352|515:356,2,194.999991073609,4|8|2,0:0|0:0|0:0,0:0:0:0:
284,360,35105,1,0,0:0:0:0:
308,180,35450,2,0,P|324:236|304:284,1,97.4999955368044,8|0,0:0|0:0,0:0:0:0:
124,328,36140,5,2,0:0:0:0:
68,144,36484,1,0,0:0:0:0:
244,228,36829,1,8,0:0:0:0:
188,44,37174,2,0,P|176:100|188:144,1,97.4999955368044
284,92,37864,5,0,0:0:0:0:
380,92,38209,2,0,L|440:92,1,48.7499977684022,8|0,0:0|0:0,0:0:0:0:
476,92,38553,1,8,0:0:0:0:
444,184,38898,6,0,B|484:276|484:276|452:368,1,194.999991073609,2|8,0:0|0:0,0:0:0:0:
364,328,39933,1,0,0:0:0:0:
268,312,40278,2,0,L|152:344,1,97.4999955368044,2|0,0:0|0:0,0:0:0:0:
108,264,40967,2,0,L|224:232,1,97.4999955368044,8|0,0:0|0:0,0:0:0:0:
176,44,41657,6,0,P|164:104|188:152,1,97.4999955368044,2|0,0:0|0:0,0:0:0:0:
260,88,42346,1,8,0:0:0:0:
260,88,43036,2,0,L|376:88,1,97.4999955368044
428,156,43726,1,8,0:0:0:0:
428,156,44415,6,0,B|360:108|288:156|288:156|344:72|216:-44|193:102|89:31,1,450,4|0,0:0|0:0,0:0:0:0:
94,34,49933,6,0,B|126:103|64:170|64:170|170:115|171:237|275:182|275:182|298:212|343:208,1,450
342,208,55450,6,0,B|398:195|398:195|454:215,1,112.500004291535,4|2,0:0|0:0,0:0:0:0:
392,288,55967,1,0,0:0:0:0:
392,288,56140,2,0,L|392:360,1,56.2500021457673
296,352,56484,2,0,L|296:280,1,56.2500021457673,2|0,0:0|0:0,0:0:0:0:
220,240,56829,6,0,P|160:232|96:248,1,112.500004291535,0|2,0:0|0:0,0:0:0:0:
109,242,57519,2,0,L|88:173,1,56.2500021457673
24,120,57864,1,2,0:0:0:0:
116,96,58036,1,0,0:0:0:0:
208,72,58209,22,0,B|260:92|260:92|328:68,2,112.500004291535,0|2|0,0:0|0:0|0:0,0:0:0:0:
384,132,59243,1,2,0:0:0:0:
384,132,59588,22,0,L|410:265,1,112.500004291535,0|2,0:0|0:0,0:0:0:0:
421,330,60105,1,0,0:0:0:0:
320,280,60278,2,0,L|310:224,2,56.2500021457673,0|0|2,0:0|0:0|0:0,0:0:0:0:
336,368,60795,1,0,0:0:0:0:
236,324,60967,6,0,L|224:256,1,56.2500021457673,2|2,0:0|0:0,0:0:0:0:
144,236,61312,2,0,B|156:180|156:180|136:116,1,112.500004291535,2|2,0:0|0:0,0:0:0:0:
104,40,61829,1,2,0:0:0:0:
1,119,62002,2,0,L|64:124,1,56.2500021457673,2|2,0:0|0:0,0:0:0:0:
192,60,62346,6,0,L|312:68,1,112.500004291535,2|10,0:0|0:0,0:0:0:0:
352,152,62864,1,2,0:0:0:0:
392,20,63036,2,8,L|392:88,1,56.2500021457673,10|10,0:0|0:0,0:0:0:0:
444,156,63381,1,10,0:0:0:0:
396,240,63553,1,10,0:0:0:0:
396,240,64071,5,0,0:0:0:0:
392,76,64415,1,0,0:0:0:0:
256,192,65105,12,2,66484,0:0:0:0:
179,192,66829,6,0,P|142:197|106:192,1,75,2|0,0:0|0:0,0:0:0:0:
263,157,67174,2,0,P|270:193|264:229,2,75,0|2|8,0:0|0:0|0:0,0:0:0:0:
219,77,67691,1,0,0:0:0:0:
309,80,67864,6,0,B|359:70|359:70|453:99,1,150,2|8,0:0|0:0,0:0:0:0:
396,168,68381,1,0,0:0:0:0:
464,293,68553,2,0,L|470:219,2,75,0|2|8,0:0|0:0|0:0,0:0:0:0:
448,382,69071,1,0,0:0:0:0:
374,330,69243,6,0,P|305:318|212:364,1,150,2|8,0:0|0:0,0:0:0:0:
150,383,69760,1,0,0:0:0:0:
169,295,69933,2,0,P|196:268|231:255,2,75,0|2|8,0:0|0:0|0:0,0:0:0:0:
150,383,70450,1,0,0:0:0:0:
93,320,70622,6,0,B|54:248|123:249|81:171,1,150,2|8,0:0|0:0,0:0:0:0:
0,139,71140,1,0,0:0:0:0:
75,90,71312,1,0,0:0:0:0:
83,176,71484,2,0,L|157:170,2,75,2|8|0,0:0|0:0|0:0,0:0:0:0:
8,228,72002,6,0,B|58:218|58:218|152:247,1,150,2|8,0:0|0:0,0:0:0:0:
236,277,72519,1,0,0:0:0:0:
165,332,72691,2,0,L|93:310,2,75,0|2|8,0:0|0:0|0:0,0:0:0:0:
236,277,73209,1,0,0:0:0:0:
295,354,73381,6,0,P|324:289|285:197,1,150,2|8,0:0|0:0,0:0:0:0:
226,169,73898,1,0,0:0:0:0:
236,277,74071,1,0,0:0:0:0:
303,216,74243,1,2,0:0:0:0:
410,251,74415,2,0,L|511:239,1,75,8|0,0:0|0:0,0:0:0:0:
385,154,74760,5,2,0:0:0:0:
385,154,74933,1,0,0:0:0:0:
484,242,75105,2,0,L|492:167,1,75,8|0,0:0|0:0,0:0:0:0:
474,332,75450,2,0,B|445:316|445:316|362:334|362:334|342:359,1,150,0|8,0:0|0:0,0:0:0:0:
387,249,75967,1,0,0:0:0:0:
414,360,76140,5,2,0:0:0:0:
387,249,76312,1,0,0:0:0:0:
289,301,76484,2,0,L|202:256,1,75,8|0,0:0|0:0,0:0:0:0:
289,203,76829,2,0,L|355:168,1,75
422,112,77174,2,0,L|356:78,1,75,8|0,0:0|0:0,0:0:0:0:
423,18,77519,1,2,0:0:0:0:
423,18,77864,6,0,B|446:96|446:96|418:192,1,150,2|0,0:0|0:0,0:0:0:0:
403,250,78381,1,2,0:0:0:0:
323,286,78553,2,0,P|315:238|331:202,1,75,8|0,0:0|0:0,0:0:0:0:
487,218,78898,6,0,P|496:254|487:290,1,75,2|0,0:0|0:0,0:0:0:0:
323,286,79243,2,0,B|247:274|247:274|159:294,1,150,8|0,0:0|0:0,0:0:0:0:
103,342,79760,1,2,0:0:0:0:
99,250,79933,2,0,P|106:213|96:177,1,75,8|0,0:0|0:0,0:0:0:0:
11,142,80278,5,2,0:0:0:0:
11,142,80622,2,0,B|19:102|19:102|11:67,1,75,8|0,0:0|0:0,0:0:0:0:
95,0,80967,2,0,B|87:40|87:40|95:75,1,75,0|2,0:0|0:0,0:0:0:0:
159,134,81312,1,8,0:0:0:0:
159,134,81484,1,0,0:0:0:0:
319,38,81657,6,0,B|247:10|247:10|159:38,1,150,2|8,0:0|0:0,0:0:0:0:
247,94,82174,1,0,0:0:0:0:
251,218,82346,1,0,0:0:0:0:
251,218,82519,1,2,0:0:0:0:
367,150,82691,2,0,L|447:146,1,75,8|0,0:0|0:0,0:0:0:0:
343,294,83036,6,0,P|335:230|343:210,1,75,2|0,0:0|0:0,0:0:0:0:
361,77,83381,2,0,P|369:141|361:161,1,75,8|0,0:0|0:0,0:0:0:0:
337,221,83726,1,0,0:0:0:0:
411,326,83898,1,2,0:0:0:0:
283,334,84071,2,0,L|207:346,1,75,8|0,0:0|0:0,0:0:0:0:
131,250,84415,6,0,P|95:242|55:250,1,75,2|0,0:0|0:0,0:0:0:0:
91,334,84760,1,8,0:0:0:0:
91,334,85105,1,0,0:0:0:0:
131,250,85278,1,2,0:0:0:0:
167,170,85450,2,0,L|198:87,1,75,8|0,0:0|0:0,0:0:0:0:
91,70,85795,6,0,P|83:118|91:162,1,75,2|0,0:0|0:0,0:0:0:0:
275,170,86140,2,0,P|299:98|271:26,1,150,8|0,0:0|0:0,0:0:0:0:
193,99,86657,1,2,0:0:0:0:
223,246,86829,2,0,P|267:262|319:250,1,75,8|0,0:0|0:0,0:0:0:0:
367,206,87174,1,2,0:0:0:0:
367,206,87519,5,8,0:0:0:0:
367,206,87691,1,2,0:0:0:0:
404,357,88036,1,8,0:0:0:0:
404,357,88209,2,0,L|414:282,1,75,2|8,0:0|0:0,0:0:0:0:
294,259,88553,1,2,0:0:0:0:
294,259,88898,6,0,L|214:251,1,75,2|0,0:0|0:0,0:0:0:0:
106,355,89243,2,0,P|105:317|119:283,1,75,0|2,0:0|0:0,0:0:0:0:
148,199,89588,1,8,0:0:0:0:
148,199,89760,1,0,0:0:0:0:
196,343,89933,6,0,B|246:333|246:333|340:362,1,150,2|8,0:0|0:0,0:0:0:0:
365,275,90450,1,0,0:0:0:0:
365,275,90622,2,0,L|375:200,1,75,0|2,0:0|0:0,0:0:0:0:
210,175,90967,2,0,L|285:185,1,75,8|0,0:0|0:0,0:0:0:0:
343,44,91312,6,0,P|352:80|343:117,1,75,2|0,0:0|0:0,0:0:0:0:
259,82,91657,1,8,0:0:0:0:
259,82,91829,1,0,0:0:0:0:
284,184,92002,1,0,0:0:0:0:
343,116,92174,1,2,0:0:0:0:
372,200,92346,2,0,P|380:236|371:272,1,75,8|0,0:0|0:0,0:0:0:0:
282,256,92691,6,0,P|274:220|283:184,1,75,2|0,0:0|0:0,0:0:0:0:
343,116,93036,1,8,0:0:0:0:
431,134,93209,1,0,0:0:0:0:
400,49,93381,2,0,L|329:25,1,75,0|2,0:0|0:0,0:0:0:0:
197,115,93726,2,0,L|268:91,1,75,8|0,0:0|0:0,0:0:0:0:
205,26,94071,5,2,0:0:0:0:
191,205,94415,1,8,0:0:0:0:
183,294,94588,1,0,0:0:0:0:
105,248,94760,1,0,0:0:0:0:
113,337,94933,1,2,0:0:0:0:
20,291,95105,1,8,0:0:0:0:
53,123,95450,6,0,L|35:205,1,75,2|0,0:0|0:0,0:0:0:0:
20,291,95794,1,8,0:0:0:0:
20,291,95967,1,0,0:0:0:0:
100,251,96139,2,0,P|148:243|188:263,2,75,0|2|8,0:0|0:0|0:0,0:0:0:0:
20,291,96657,1,0,0:0:0:0:
88,338,96829,6,0,L|162:328,1,75,2|0,0:0|0:0,0:0:0:0:
240,296,97173,1,8,0:0:0:0:
236,384,97345,1,0,0:0:0:0:
163,328,97519,2,0,P|154:291|163:255,2,75,0|2|8,0:0|0:0|0:0,0:0:0:0:
236,384,98036,1,0,0:0:0:0:
299,314,98209,6,0,B|375:286|375:286|447:322,1,150,2|8,0:0|0:0,0:0:0:0:
504,265,98726,1,0,0:0:0:0:
432,141,98898,2,0,P|424:193|444:233,1,75,0|2,0:0|0:0,0:0:0:0:
512,181,99243,1,8,0:0:0:0:
512,181,99415,1,0,0:0:0:0:
340,185,99588,1,2,0:0:0:0:
340,185,99933,6,0,L|252:177,1,75,2|0,0:0|0:0,0:0:0:0:
156,85,100278,2,0,L|244:93,1,75,0|2,0:0|0:0,0:0:0:0:
320,93,100622,1,8,0:0:0:0:
268,17,100795,1,0,0:0:0:0:
188,173,100967,6,0,B|156:245|156:245|188:317,1,150,2|8,0:0|0:0,0:0:0:0:
256,253,101484,1,0,0:0:0:0:
100,317,101657,2,0,P|60:325|20:317,1,75,0|2,0:0|0:0,0:0:0:0:
60,237,102002,2,0,P|36:203|27:163,1,75,8|0,0:0|0:0,0:0:0:0:
52,85,102346,6,0,B|128:109|128:109|204:85,1,150,2|8,0:0|0:0,0:0:0:0:
280,61,102864,1,0,0:0:0:0:
254,143,103036,2,0,P|247:180|256:217,1,75,0|2,0:0|0:0,0:0:0:0:
388,221,103381,2,0,P|394:184|386:147,1,75,8|0,0:0|0:0,0:0:0:0:
368,61,103726,6,0,B|440:41|440:41|532:65,1,150,2|8,0:0|0:0,0:0:0:0:
480,301,104415,2,0,P|436:309|388:293,1,75,0|2,0:0|0:0,0:0:0:0:
320,273,104760,2,0,L|236:309,1,75,8|0,0:0|0:0,0:0:0:0:
160,308,105105,6,0,P|120:256|144:172,1,150,2|8,0:0|0:0,0:0:0:0:
208,232,105622,1,0,0:0:0:0:
260,160,105795,2,0,P|268:108|256:80,1,75,0|2,0:0|0:0,0:0:0:0:
188,36,106140,1,8,0:0:0:0:
192,124,106312,1,0,0:0:0:0:
348,49,106484,6,0,L|440:37,1,75,2|0,0:0|0:0,0:0:0:0:
504,113,106829,2,0,L|412:125,1,75,8|0,0:0|0:0,0:0:0:0:
348,173,107174,2,0,B|320:253|320:253|356:333,1,150,0|8,0:0|0:0,0:0:0:0:
412,249,107691,1,0,0:0:0:0:
240,273,107864,6,0,L|160:281,1,75,2|0,0:0|0:0,0:0:0:0:
40,165,108209,2,0,L|120:173,1,75,8|0,0:0|0:0,0:0:0:0:
204,181,108553,1,0,0:0:0:0:
204,181,108726,1,2,0:0:0:0:
160,101,108898,2,0,P|152:53|172:13,1,75,8|0,0:0|0:0,0:0:0:0:
244,65,109243,6,0,B|316:93|316:93|404:61,1,150,2|8,0:0|0:0,0:0:0:0:
488,173,109760,2,0,B|416:145|416:145|328:177,1,150,2|8,0:0|0:0,0:0:0:0:
416,301,110278,2,0,P|424:261|408:217,1,75,2|8,0:0|0:0,0:0:0:0:
336,268,110622,1,4,1:0:0:0:
256,192,110795,12,0,113381,0:0:0:0:
