osu file format v14

[General]
AudioFilename: Cartoon - Whatever I do (feat. Kostja).mp3
AudioLeadIn: 0
PreviewTime: 87519
Countdown: 0
SampleSet: Soft
StackLeniency: 0.5
Mode: 0
LetterboxInBreaks: 0
EpilepsyWarning: 1
WidescreenStoryboard: 1

[Editor]
Bookmarks: 22346,33381,44415,55450,66484,77519,87174,98209,110622
DistanceSpacing: 1
BeatDivisor: 4
GridSize: 4
TimelineZoom: 1

[Metadata]
Title:Whatever I Do (feat. Kostja)
TitleUnicode:Whatever I Do (feat. Kostja)
Artist:Cartoon
ArtistUnicode:Cartoon
Creator:Nhawak
Version:Freedom
Source:
Tags:dnb drum and bass edm moph -m4x zerss
BeatmapID:815071
BeatmapSetID:372144

[Difficulty]
HPDrainRate:7
CircleSize:4.2
OverallDifficulty:9
ApproachRate:9.2
SliderMultiplier:2
SliderTickRate:1

[Events]
//Background and Video events
0,0,"BG.jpg",0,0
//Break Periods
//Storyboard Layer 0 (Background)
//Storyboard Layer 1 (Fail)
//Storyboard Layer 2 (Pass)
//Storyboard Layer 3 (Foreground)
Sprite,Foreground,Centre,"SB/highlight.png",448,328 F,0,60909,60967,0,1 C,0,60967,,172,126,81 M,0,60967,61053,448,328,446,365 F,2,60967,62518,1,0 S,6,60967,62518,1,0.2 P,0,60967,62518,A M,0,61053,61139,446,365,445,402
Sprite,Foreground,Centre,"SB/highlight.png",364,336 F,0,61254,61312,0,1 C,0,61312,,172,126,81 M,0,61312,61398,364,336,362,373 F,2,61312,62863,1,0 S,6,61312,62863,1,0.2 P,0,61312,62863,A M,0,61398,61484,362,373,361,410
Sprite,Foreground,Centre,"SB/highlight.png",148,220 F,0,61599,61657,0,1 C,0,61657,,172,126,81 M,0,61657,61743,148,220,149,257 F,2,61657,63208,1,0 S,6,61657,63208,1,0.2 P,0,61657,63208,A M,0,61743,61829,149,257,150,294
Sprite,Foreground,Centre,"SB/highlight.png",232,228 F,0,61944,62002,0,1 C,0,62002,,172,126,81 M,0,62002,62088,232,228,233,265 F,2,62002,63553,1,0 S,6,62002,63553,1,0.2 P,0,62002,63553,A M,0,62088,62174,233,265,234,302
Sprite,Foreground,Centre,"SB/highlight.png",184,384 F,0,62288,62346,0,1 C,0,62346,,255,119,53 F,2,62346,63725,1,0 S,6,62346,63725,1,0.2 P,0,62346,63725,A
Sprite,Foreground,Centre,"SB/highlight.png",64,264 F,0,62461,62519,0,1 C,0,62519,,255,119,53 F,2,62519,63898,1,0 S,6,62519,63898,1,0.2 P,0,62519,63898,A
Sprite,Foreground,Centre,"SB/highlight.png",316,256 F,0,62633,62691,0,1 C,0,62691,,255,119,53 F,2,62691,64070,1,0 S,6,62691,64070,1,0.2 P,0,62691,64070,A
Sprite,Foreground,Centre,"SB/highlight.png",196,136 F,0,62806,62864,0,1 C,0,62864,,255,119,53 F,2,62864,64243,1,0 S,6,62864,64243,1,0.2 P,0,62864,64243,A
Sprite,Foreground,Centre,"SB/highlight.png",184,384 F,0,62978,63036,0,1 C,0,63036,,255,119,53 F,2,63036,64415,1,0 S,6,63036,64415,1,0.2 P,0,63036,64415,A
Sprite,Foreground,Centre,"SB/highlight.png",384,200 F,0,63151,63209,0,1 C,0,63209,,255,119,53 F,2,63209,64588,1,0 S,6,63209,64588,1,0.2 P,0,63209,64588,A
Sprite,Foreground,Centre,"SB/highlight.png",150,294 F,0,63323,63381,0,1 C,0,63381,,255,119,53 F,2,63381,64760,1,0 S,6,63381,64760,1,0.2 P,0,63381,64760,A
Sprite,Foreground,Centre,"SB/highlight.png",424,392 F,0,63495,63553,0,1 C,0,63553,,255,119,53 F,2,63553,64932,1,0 S,6,63553,64932,1,0.2 P,0,63553,64932,A
Sprite,Foreground,Centre,"SB/highlight.png",424,392 F,0,64013,64071,0,1 C,0,64071,,0,84,168 F,2,64071,65450,1,0 S,6,64071,65450,1,0.2 P,0,64071,65450,A
Sprite,Foreground,Centre,"SB/highlight.png",424,392 F,0,64357,64415,0,1 C,0,64415,,0,84,168 F,2,64415,65794,1,0 S,6,64415,65794,1,0.2 P,0,64415,65794,A
Sprite,Foreground,Centre,"SB/highlight.png",406,414 F,0,74702,74760,0,1 C,0,74760,,172,126,81 M,0,74760,74846,406,414,454,420 F,2,74760,76311,1,0 S,6,74760,76311,1,0.2 P,0,74760,76311,A M,0,74846,74932,454,420,501,403
Sprite,Foreground,Centre,"SB/highlight.png",552,260 F,0,75047,75105,0,1 C,0,75105,,172,126,81 F,2,75105,76484,1,0 S,6,75105,76484,1,0.2 P,0,75105,76484,A
Sprite,Foreground,Centre,"SB/highlight.png",320,264 F,0,75220,75278,0,1 C,0,75278,,172,126,81 F,2,75278,76657,1,0 S,6,75278,76657,1,0.2 P,0,75278,76657,A
Sprite,Foreground,Centre,"SB/highlight.png",552,260 F,0,75392,75450,0,1 C,0,75450,,172,126,81 F,2,75450,76829,1,0 S,6,75450,76829,1,0.2 P,0,75450,76829,A
Sprite,Foreground,Centre,"SB/highlight.png",344,184 F,0,75564,75622,0,1 C,0,75622,,172,126,81 F,2,75622,77001,1,0 S,6,75622,77001,1,0.2 P,0,75622,77001,A
Sprite,Foreground,Centre,"SB/highlight.png",546,234 F,0,75737,75795,0,1 C,0,75795,,172,126,81 F,2,75795,77174,1,0 S,6,75795,77174,1,0.2 P,0,75795,77174,A
Sprite,Foreground,Centre,"SB/highlight.png",372,104 F,0,75909,75967,0,1 C,0,75967,,172,126,81 F,2,75967,77346,1,0 S,6,75967,77346,1,0.2 P,0,75967,77346,A
Sprite,Foreground,Centre,"SB/highlight.png",540,208 F,0,76081,76139,0,1 C,0,76139,,255,119,53 F,2,76139,77518,1,0 S,6,76139,77518,1,0.2 P,0,76139,77518,A
Sprite,Foreground,Centre,"SB/highlight.png",320,264 F,0,76254,76312,0,1 C,0,76312,,255,119,53 F,2,76312,77691,1,0 S,6,76312,77691,1,0.2 P,0,76312,77691,A
Sprite,Foreground,Centre,"SB/highlight.png",534,182 F,0,76426,76484,0,1 C,0,76484,,255,119,53 F,2,76484,77863,1,0 S,6,76484,77863,1,0.2 P,0,76484,77863,A
Sprite,Foreground,Centre,"SB/highlight.png",344,344 F,0,76598,76656,0,1 C,0,76656,,255,119,53 F,2,76656,78035,1,0 S,6,76656,78035,1,0.2 P,0,76656,78035,A
Sprite,Foreground,Centre,"SB/highlight.png",528,156 F,0,76771,76829,0,1 C,0,76829,,255,119,53 F,2,76829,78208,1,0 S,6,76829,78208,1,0.2 P,0,76829,78208,A
Sprite,Foreground,Centre,"SB/highlight.png",372,424 F,0,76943,77001,0,1 C,0,77001,,255,119,53 F,2,77001,78380,1,0 S,6,77001,78380,1,0.2 P,0,77001,78380,A
Sprite,Foreground,Centre,"SB/highlight.png",522,130 F,0,77116,77174,0,1 C,0,77174,,0,84,168 F,2,77174,78553,1,0 S,6,77174,78553,1,0.2 P,0,77174,78553,A
Sprite,Foreground,Centre,"SB/highlight.png",263,324 F,0,77288,77346,0,1 C,0,77346,,0,84,168 F,2,77346,78725,1,0 S,6,77346,78725,1,0.2 P,0,77346,78725,A
Sprite,Foreground,Centre,"SB/highlight.png",558,290 F,0,77461,77519,0,1 C,0,77519,,0,84,168 F,2,77519,78898,1,0 S,6,77519,78898,1,0.2 P,0,77519,78898,A
Sprite,Foreground,Centre,"SB/highlight.png",528,287 F,0,87116,87174,0,1 C,0,87174,,0,84,168 F,2,87174,88553,1,0 S,6,87174,88553,1,0.2 P,0,87174,88553,A
Sprite,Foreground,Centre,"SB/highlight.png",528,287 F,0,87461,87519,0,1 C,0,87519,,221,241,78 F,2,87519,88898,1,0 S,6,87519,88898,1,0.2 P,0,87519,88898,A
Sprite,Foreground,Centre,"SB/highlight.png",236,328 F,0,87633,87691,0,1 C,0,87691,,221,241,78 F,2,87691,89070,1,0 S,6,87691,89070,1,0.2 P,0,87691,89070,A
Sprite,Foreground,Centre,"SB/highlight.png",236,328 F,0,87978,88036,0,1 C,0,88036,,172,126,81 F,2,88036,89415,1,0 S,6,88036,89415,1,0.2 P,0,88036,89415,A
Sprite,Foreground,Centre,"SB/highlight.png",576,119 F,0,88151,88209,0,1 C,0,88209,,172,126,81 F,2,88209,89588,1,0 S,6,88209,89588,1,0.2 P,0,88209,89588,A
Sprite,Foreground,Centre,"SB/highlight.png",284,160 F,0,88323,88381,0,1 C,0,88381,,172,126,81 F,2,88381,89760,1,0 S,6,88381,89760,1,0.2 P,0,88381,89760,A
Sprite,Foreground,Centre,"SB/highlight.png",528,287 F,0,88495,88553,0,1 C,0,88553,,172,126,81 F,2,88553,89932,1,0 S,6,88553,89932,1,0.2 P,0,88553,89932,A
Sprite,Foreground,Centre,"SB/highlight.png",112,320 F,0,98495,98553,0,1 C,0,98553,,255,119,53 M,0,98553,98639,112,320,95,273 F,2,98553,100104,1,0 S,6,98553,100104,1,0.2 P,0,98553,100104,A M,0,98639,98725,95,273,101,224
Sprite,Foreground,Centre,"SB/highlight.png",108,208 F,0,98754,98812,0,1 C,0,98812,,255,119,53 F,2,98812,100191,1,0 S,6,98812,100191,1,0.2 P,0,98812,100191,A
Sprite,Foreground,Centre,"SB/highlight.png",116,196 F,0,98840,98898,0,1 C,0,98898,,255,119,53 F,2,98898,100277,1,0 S,6,98898,100277,1,0.2 P,0,98898,100277,A
Sprite,Foreground,Centre,"SB/highlight.png",276,260 F,0,99013,99071,0,1 C,0,99071,,255,119,53 F,2,99071,100450,1,0 S,6,99071,100450,1,0.2 P,0,99071,100450,A
Sprite,Foreground,Centre,"SB/highlight.png",188,392 F,0,99185,99243,0,1 C,0,99243,,255,119,53 F,2,99243,100622,1,0 S,6,99243,100622,1,0.2 P,0,99243,100622,A
Sprite,Foreground,Centre,"SB/highlight.png",161,115 F,0,99357,99415,0,1 C,0,99415,,255,119,53 F,2,99415,100794,1,0 S,6,99415,100794,1,0.2 P,0,99415,100794,A
Sprite,Foreground,Centre,"SB/highlight.png",169,103 F,0,99444,99502,0,1 C,0,99502,,255,119,53 F,2,99502,100881,1,0 S,6,99502,100881,1,0.2 P,0,99502,100881,A
Sprite,Foreground,Centre,"SB/highlight.png",177,91 F,0,99530,99588,0,1 C,0,99588,,221,241,78 M,0,99588,99674,177,91,200,98 F,2,99588,101225,1,0 S,6,99588,101225,1,0.2 P,0,99588,101225,A M,0,99674,99760,200,98,224,106 M,0,99760,99846,224,106,248,114
Sprite,Foreground,Centre,"SB/highlight.png",503,342 F,0,109185,109243,0,1 C,0,109243,,221,241,78 M,0,109243,109329,503,342,466,352 F,2,109243,110967,1,0 S,6,109243,110967,1,0.2 P,0,109243,110967,A M,0,109329,109415,466,352,430,361 M,0,109415,109501,430,361,394,350 M,0,109501,109587,394,350,359,339
Sprite,Foreground,Centre,"SB/highlight.png",146,294 F,0,109702,109760,0,1 C,0,109760,,221,241,78 M,0,109760,109846,146,294,182,283 F,2,109760,111484,1,0 S,6,109760,111484,1,0.2 P,0,109760,111484,A M,0,109846,109932,182,283,218,274 M,0,109932,110018,218,274,254,285 M,0,110018,110104,254,285,289,296
Sprite,Foreground,Centre,"SB/highlight.png",340,156 F,0,110220,110278,0,1 C,0,110278,,221,241,78 M,0,110278,110364,340,156,347,192 F,2,110278,111829,1,0 S,6,110278,111829,1,0.2 P,0,110278,111829,A M,0,110364,110450,347,192,341,229
Sprite,Foreground,Centre,"SB/highlight.png",285,94 F,0,110564,110622,0,1 C,0,110622,,221,241,78 F,2,110622,112001,1,0 S,6,110622,112001,1,0.2 P,0,110622,112001,A
//Storyboard Sound Samples

[TimingPoints]
278,344.827586206897,4,2,1,45,1,0
22346,-153.846153846153,4,2,1,45,0,0
27088,-153.846153846153,4,2,1,5,0,0
27174,-153.846153846153,4,2,1,45,0,0
27433,-153.846153846153,4,2,1,5,0,0
27519,-153.846153846153,4,2,1,45,0,0
27778,-153.846153846153,4,2,1,5,0,0
27864,-153.846153846153,4,2,1,45,0,0
28467,-153.846153846153,4,2,1,5,0,0
28553,-153.846153846153,4,2,1,45,0,0
32605,-153.846153846153,4,2,1,5,0,0
32691,-153.846153846153,4,2,1,45,0,0
33295,-153.846153846153,4,2,1,5,0,0
33381,-153.846153846153,4,2,1,45,0,0
34674,-153.846153846153,4,2,1,5,0,0
34760,-153.846153846153,4,2,1,45,0,0
35364,-153.846153846153,4,2,1,5,0,0
35450,-153.846153846153,4,2,1,45,0,0
35709,-153.846153846153,4,2,1,5,0,0
35795,-153.846153846153,4,2,1,45,0,0
36053,-153.846153846153,4,2,1,5,0,0
36140,-153.846153846153,4,2,1,45,0,0
38122,-153.846153846153,4,2,1,5,0,0
38209,-153.846153846153,4,2,1,45,0,0
38467,-153.846153846153,4,2,1,5,0,0
38553,-153.846153846153,4,2,1,45,0,0
38812,-153.846153846153,4,2,1,5,0,0
38898,-153.846153846153,4,2,1,45,0,0
39502,-153.846153846153,4,2,1,5,0,0
39588,-153.846153846153,4,2,1,45,0,0
42260,-153.846153846153,4,2,1,5,0,0
42346,-153.846153846153,4,2,1,45,0,0
44415,-400,4,2,1,45,0,0
55450,-166.666666666667,4,2,1,45,0,0
60967,-133.333333333333,4,2,1,45,0,0
66829,-100,4,2,3,60,0,1
66915,-100,4,2,2,60,0,1
77519,-100,4,2,2,60,0,0
77864,-100,4,2,3,60,0,1
77950,-100,4,2,2,60,0,1
81915,-100,4,2,2,5,0,1
82002,-100,4,2,2,60,0,1
82260,-100,4,2,2,5,0,1
82346,-100,4,2,2,60,0,1
86398,-100,4,2,2,5,0,1
86484,-100,4,2,2,60,0,1
87174,-100,4,2,2,60,0,0
88898,-100,4,2,3,60,0,1
88984,-100,4,2,2,60,0,1
90191,-100,4,2,2,5,0,1
90278,-100,4,2,2,60,0,1
92950,-100,4,2,2,5,0,1
93036,-100,4,2,2,60,0,1
96743,-100,4,2,2,5,0,1
96829,-100,4,2,2,60,0,1
99588,-200,4,2,2,60,0,0
99846,-200,4,2,2,5,0,0
99933,-100,4,2,3,60,0,1
100019,-100,4,2,2,60,0,1
102605,-100,4,2,2,5,0,1
102691,-100,4,2,2,60,0,1
103984,-100,4,2,2,5,0,1
104071,-100,4,2,2,60,0,1
107088,-100,4,2,2,5,0,1
107174,-100,4,2,2,60,0,1
109243,-133.333333333333,4,2,2,60,0,1
110622,-133.333333333333,4,2,2,60,0,0
113381,-133.333333333333,4,2,1,5,0,0

[Colours]
Combo1 : 0,84,168
Combo2 : 221,241,78
Combo3 : 172,126,81
Combo4 : 255,119,53

[HitObjects]
256,192,18209,12,0,20967,0:0:0:0:
351,244,21312,5,0,0:0:0:0:
164,256,21657,1,0,0:0:0:0:
419,282,22002,1,0,0:0:0:0:
164,256,22346,6,0,B|300:224|300:224|360:248,1,194.999991073609,4|0,0:0|0:0,0:0:0:0:
140,180,23036,2,0,L|280:148,1,129.999994049073,8|0,0:0|0:0,0:0:0:0:
188,332,23726,1,2,0:0:0:0:
188,332,24071,5,0,0:0:0:0:
60,384,24415,1,8,0:0:0:0:
240,260,24760,5,0,0:0:0:0:
68,260,25105,1,2,0:0:0:0:
287,193,25450,5,0,0:0:0:0:
76,136,25795,1,8,0:0:0:0:
334,126,26140,5,0,0:0:0:0:
84,12,26484,1,0,0:0:0:0:
380,52,26829,6,0,P|407:105|415:153,1,97.4999955368044
436,108,27174,2,0,P|443:167|434:214,1,97.4999955368044,8|0,0:0|0:0,0:0:0:0:
468,180,27519,2,0,P|454:237|429:279,1,97.4999955368044
472,252,27864,2,0,B|396:200|396:292|284:264|288:208|340:176|376:216,1,227.499989585877,2|0,0:0|0:0,0:0:0:0:
396,230,28553,1,8,0:0:0:0:
116,169,29243,5,2,0:0:0:0:
100,89,29415,1,0,0:0:0:0:
84,12,29588,1,0,0:0:0:0:
183,104,29933,5,8,0:0:0:0:
151,261,30278,1,0,0:0:0:0:
249,350,30622,5,2,0:0:0:0:
233,273,30795,1,0,0:0:0:0:
217,193,30967,1,0,0:0:0:0:
316,285,31312,2,0,B|450:255|450:255|507:281|507:281|427:300,1,259.999988098145,8|0,0:0|0:0,0:0:0:0:
295,202,32346,6,0,L|416:170,1,97.4999955368044
414,170,32691,1,8,0:0:0:0:
209,352,33036,2,0,L|333:367,1,97.4999955368044
331,367,33381,5,6,0:0:0:0:
116,248,34071,2,0,B|156:76|156:76|196:36,1,227.499989585877,8|0,0:0|0:0,0:0:0:0:
208,28,34760,1,2,0:0:0:0:
52,184,35105,6,0,L|80:72,1,97.4999955368044
63,65,35450,2,0,L|40:160,1,97.4999955368044,8|0,0:0|0:0,0:0:0:0:
44,264,35795,2,0,L|16:376,1,97.4999955368044
176,320,36140,6,0,B|244:304|244:304|320:328,2,129.999994049073,2|0|8,0:0|0:0|0:0,0:0:0:0:
456,344,37174,1,0,0:0:0:0:
438,46,37519,2,0,B|416:110|416:110|446:182,1,129.999994049073
440,168,38209,6,0,P|456:216|448:264,1,97.4999955368044,8|0,0:0|0:0,0:0:0:0:
384,316,38553,2,0,P|368:268|376:220,1,97.4999955368044,8|0,0:0|0:0,0:0:0:0:
324,152,38898,6,0,B|152:140|152:140|196:176,1,227.499989585877,2|0,0:0|0:0,0:0:0:0:
216,196,39588,1,8,0:0:0:0:
216,196,39933,5,0,0:0:0:0:
268,272,40105,1,0,0:0:0:0:
176,272,40278,2,0,L|111:272,2,64.9999970245363,2|0|0,0:0|0:0|0:0,0:0:0:0:
352,336,40967,1,8,0:0:0:0:
504,296,41312,1,0,0:0:0:0:
504,296,41657,5,2,0:0:0:0:
416,268,41829,1,0,0:0:0:0:
500,88,42002,2,0,L|480:188,1,97.4999955368044
476,208,42346,1,8,0:0:0:0:
476,208,43036,6,0,L|492:140,2,64.9999970245363
416,268,43726,1,8,0:0:0:0:
161,309,44415,6,0,B|210:326|210:326|254:297|254:297|351:320|351:320|283:209|410:136|487:157|546:271|463:337,1,600,4|0,0:0|0:0,0:0:0:0:
462,337,49933,6,0,B|407:334|386:281|386:281|306:337|306:337|342:253|302:191|302:191|218:233|166:169|166:169|120:194|71:167,1,600
11,114,55450,6,0,L|84:108,1,59.9999981689454,4|0,0:0|0:0,0:0:0:0:
172,136,55795,2,0,L|252:128,1,59.9999981689454,2|0,0:0|0:0,0:0:0:0:
348,56,56140,1,0,0:0:0:0:
344,40,56312,1,0,0:0:0:0:
440,120,56484,1,2,0:0:0:0:
444,104,56656,1,0,0:0:0:0:
336,168,56829,6,0,L|336:248,1,59.9999981689454
280,316,57174,2,0,B|336:340|336:340|400:320,1,119.999996337891,2|0,0:0|0:0,0:0:0:0:
188,288,57691,1,0,0:0:0:0:
188,288,57864,2,0,P|184:324|196:364,1,59.9999981689454,2|0,0:0|0:0,0:0:0:0:
128,204,58209,6,0,B|40:184|40:184|76:164,2,119.999996337891,0|2|0,0:0|0:0|0:0,0:0:0:0:
256,208,59071,1,0,0:0:0:0:
200,72,59243,2,0,P|196:108|204:140,1,59.9999981689454,2|0,0:0|0:0,0:0:0:0:
372,156,59588,6,0,P|389:89|361:29,1,119.999996337891,0|2,0:0|0:0,0:0:0:0:
292,100,60105,1,0,0:0:0:0:
464,202,60278,1,0,0:0:0:0:
372,42,60450,1,0,0:0:0:0:
384,260,60622,1,2,0:0:0:0:
372,28,60795,1,0,0:0:0:0:
384,272,60967,6,2,L|380:372,1,75.0000028610231
300,280,61312,2,2,L|296:380,1,75.0000028610231
84,164,61657,2,2,L|88:264,1,75.0000028610231
168,172,62002,2,2,L|172:272,1,75.0000028610231
120,328,62346,5,2,0:0:0:0:
0,208,62519,1,2,0:0:0:0:
252,200,62691,1,10,0:0:0:0:
132,80,62864,1,2,0:0:0:0:
120,328,63036,1,10,0:0:0:0:
320,144,63209,1,10,0:0:0:0:
86,238,63381,1,10,0:0:0:0:
360,336,63553,1,10,0:0:0:0:
360,336,64071,5,0,0:0:0:0:
360,336,64415,1,0,0:0:0:0:
256,192,65105,12,2,66484,0:0:0:0:
200,156,66829,6,0,L|187:255,1,100,2|0,0:0|0:0,0:0:0:0:
126,87,67174,1,0,0:0:0:0:
126,87,67346,1,2,0:0:0:0:
109,296,67519,2,0,P|158:336|240:332,1,100,8|0,0:0|0:0,0:0:0:0:
359,223,67864,6,0,B|303:195|303:195|227:211|227:211|179:263,1,200,2|8,0:0|0:0,0:0:0:0:
286,293,68381,1,0,0:0:0:0:
247,120,68553,1,0,0:0:0:0:
86,215,68726,1,2,0:0:0:0:
304,370,68898,1,8,0:0:0:0:
247,120,69071,1,0,0:0:0:0:
111,371,69243,6,0,B|163:399|231:387|191:359|263:343|335:383,1,200,2|8,0:0|0:0,0:0:0:0:
406,384,69760,1,0,0:0:0:0:
180,193,69933,2,0,P|171:241|187:288,1,100,0|2,0:0|0:0,0:0:0:0:
247,120,70278,1,8,0:0:0:0:
212,375,70450,1,0,0:0:0:0:
401,183,70622,5,2,0:0:0:0:
180,193,70795,1,0,0:0:0:0:
497,256,70967,1,8,0:0:0:0:
342,59,71140,1,0,0:0:0:0:
355,319,71312,1,0,0:0:0:0:
497,101,71484,5,2,0:0:0:0:
255,195,71657,1,8,0:0:0:0:
463,355,71829,1,0,0:0:0:0:
441,7,72002,6,0,B|385:30|339:10|339:10|274:26|274:26|304:48,1,200,2|8,0:0|0:0,0:0:0:0:
353,115,72519,1,0,0:0:0:0:
137,14,72691,2,0,P|133:64|150:111,1,100,0|2,0:0|0:0,0:0:0:0:
147,284,73036,2,0,P|108:252|87:207,1,100,8|0,0:0|0:0,0:0:0:0:
352,114,73381,6,0,B|396:155|396:155|412:231|412:231|384:287,1,200,2|8,0:0|0:0,0:0:0:0:
308,208,73898,1,0,0:0:0:0:
488,204,74071,1,0,0:0:0:0:
280,208,74243,21,2,0:0:0:0:
496,128,74416,1,8,0:0:0:0:
256,208,74588,1,0,0:0:0:0:
342,358,74760,6,0,P|390:365|437:347,1,100,2|0,0:0|0:0,0:0:0:0:
488,204,75105,1,8,0:0:0:0:
256,208,75278,1,0,0:0:0:0:
488,204,75450,1,0,0:0:0:0:
280,128,75622,1,2,0:0:0:0:
482,178,75795,1,8,0:0:0:0:
308,48,75967,1,0,0:0:0:0:
476,152,76139,5,2,0:0:0:0:
256,208,76312,1,0,0:0:0:0:
470,126,76484,1,8,0:0:0:0:
280,288,76656,1,0,0:0:0:0:
464,100,76829,1,0,0:0:0:0:
308,368,77001,1,2,0:0:0:0:
458,74,77174,5,8,0:0:0:0:
199,268,77346,1,0,0:0:0:0:
494,234,77519,1,2,0:0:0:0:
494,234,77864,6,0,L|393:226,1,100,2|0,0:0|0:0,0:0:0:0:
135,216,78209,1,0,0:0:0:0:
267,100,78381,1,2,0:0:0:0:
199,268,78553,1,8,0:0:0:0:
203,48,78726,1,0,0:0:0:0:
384,160,78898,6,0,L|483:167,1,100,2|0,0:0|0:0,0:0:0:0:
293,367,79243,2,0,B|317:271|317:271|285:167,1,200,8|0,0:0|0:0,0:0:0:0:
236,44,79760,1,2,0:0:0:0:
148,268,79933,1,8,0:0:0:0:
287,174,80105,1,0,0:0:0:0:
56,220,80278,6,0,P|44:276|68:340,1,100,2|0,0:0|0:0,0:0:0:0:
180,144,80622,2,0,L|76:124,1,100,8|0,0:0|0:0,0:0:0:0:
287,174,80967,1,0,0:0:0:0:
148,268,81140,1,2,0:0:0:0:
219,24,81312,1,8,0:0:0:0:
81,125,81485,1,0,0:0:0:0:
376,188,81657,6,0,B|487:152|487:152|452:136,1,150,2|0,0:0|0:0,0:0:0:0:
388,92,82002,1,8,0:0:0:0:
352,296,82174,2,0,L|420:276,1,50
488,264,82346,1,0,0:0:0:0:
388,92,82519,1,2,0:0:0:0:
276,252,82691,2,0,P|264:312|288:360,1,100,8|0,0:0|0:0,0:0:0:0:
304,144,83036,6,0,B|208:104|208:104|96:148,1,200,2|8,0:0|0:0,0:0:0:0:
0,180,83553,1,0,0:0:0:0:
172,224,83726,1,0,0:0:0:0:
84,64,83898,1,2,0:0:0:0:
88,340,84071,1,8,0:0:0:0:
118,139,84243,1,0,0:0:0:0:
212,296,84415,6,0,L|312:296,1,100,2|0,0:0|0:0,0:0:0:0:
464,152,84760,2,0,B|432:248|432:248|472:356,1,200,8|0,0:0|0:0,0:0:0:0:
496,68,85278,1,2,0:0:0:0:
284,172,85450,1,8,0:0:0:0:
440,224,85622,1,0,0:0:0:0:
360,16,85795,6,0,P|352:68|368:120,1,100,2|0,0:0|0:0,0:0:0:0:
292,314,86140,2,0,P|308:258|272:158,1,150,8|0,0:0|0:0,0:0:0:0:
220,104,86484,1,0,0:0:0:0:
224,368,86657,1,2,0:0:0:0:
440,224,86829,1,8,0:0:0:0:
196,188,87002,1,0,0:0:0:0:
464,231,87174,5,2,0:0:0:0:
464,231,87519,5,8,0:0:0:0:
172,272,87691,1,2,0:0:0:0:
172,272,88036,5,8,0:0:0:0:
512,63,88209,1,2,0:0:0:0:
220,104,88381,1,8,0:0:0:0:
464,231,88553,1,2,0:0:0:0:
464,231,88898,6,0,P|440:159|444:111,1,100,2|0,0:0|0:0,0:0:0:0:
512,63,89243,1,0,0:0:0:0:
512,63,89415,1,2,0:0:0:0:
366,246,89588,2,0,P|386:291|421:327,1,100,8|0,0:0|0:0,0:0:0:0:
268,96,89933,2,0,P|212:80|112:116,1,150,2|0,0:0|0:0,0:0:0:0:
60,168,90278,6,0,L|53:267,1,100,8|0,0:0|0:0,0:0:0:0:
198,166,90622,1,0,0:0:0:0:
52,42,90795,1,2,0:0:0:0:
148,248,90967,2,0,P|196:260|244:250,1,100,8|0,0:0|0:0,0:0:0:0:
125,104,91312,5,2,0:0:0:0:
156,348,91484,1,0,0:0:0:0:
272,141,91657,2,0,P|321:148|362:176,1,100,8|0,0:0|0:0,0:0:0:0:
61,264,92002,2,0,P|68:214|96:173,1,100,0|2,0:0|0:0,0:0:0:0:
317,49,92346,1,8,0:0:0:0:
251,273,92519,1,0,0:0:0:0:
85,47,92691,2,0,B|174:9|174:9|263:30,1,150,2|0,0:0|0:0,0:0:0:0:
317,49,93036,5,8,0:0:0:0:
251,273,93209,1,0,0:0:0:0:
503,127,93381,5,0,0:0:0:0:
287,162,93554,1,2,0:0:0:0:
443,271,93726,5,8,0:0:0:0:
317,49,93899,1,0,0:0:0:0:
251,273,94071,6,0,B|303:301|371:289|331:261|403:245|475:285,1,200,2|8,0:0|0:0,0:0:0:0:
394,359,94588,1,0,0:0:0:0:
257,173,94760,2,0,L|248:311,1,100,0|2,0:0|0:0,0:0:0:0:
443,271,95105,1,8,0:0:0:0:
243,376,95278,1,0,0:0:0:0:
257,173,95450,6,0,L|141:197,1,100,2|0,0:0|0:0,0:0:0:0:
320,14,95795,2,0,P|338:59|334:109,1,100,8|0,0:0|0:0,0:0:0:0:
69,212,96140,1,0,0:0:0:0:
236,82,96312,1,2,0:0:0:0:
165,333,96484,2,0,B|265:316|265:316|342:353,1,150,8|0,0:0|0:0,0:0:0:0:
394,370,96829,5,2,0:0:0:0:
165,333,97002,1,0,0:0:0:0:
386,276,97174,5,8,0:0:0:0:
131,189,97347,1,0,0:0:0:0:
382,189,97519,5,0,0:0:0:0:
97,45,97692,1,2,0:0:0:0:
262,262,97864,5,8,0:0:0:0:
368,18,98036,1,0,0:0:0:0:
97,45,98209,6,0,L|204:82,1,100,2|0,0:0|0:0,0:0:0:0:
48,264,98553,2,0,P|32:192|56:136,1,100,8|0,0:0|0:0,0:0:0:0:
44,152,98812,1,0,0:0:0:0:
52,140,98898,1,0,0:0:0:0:
212,204,99071,1,2,0:0:0:0:
124,336,99243,1,8,0:0:0:0:
97,59,99415,1,0,0:0:0:0:
105,47,99502,1,0,0:0:0:0:
113,35,99588,22,0,L|200:64,1,75,2|0,0:0|0:0,0:0:0:0:
268,104,99933,6,0,B|320:92|320:92|392:112,1,100,2|0,0:0|0:0,0:0:0:0:
488,164,100278,1,0,0:0:0:0:
324,232,100450,1,2,0:0:0:0:
444,28,100622,1,8,0:0:0:0:
268,104,100795,1,0,0:0:0:0:
408,284,100967,6,0,P|420:228|388:168,1,100,2|0,0:0|0:0,0:0:0:0:
232,196,101312,1,8,0:0:0:0:
292,332,101484,1,0,0:0:0:0:
344,76,101657,1,0,0:0:0:0:
324,232,101829,1,2,0:0:0:0:
156,12,102002,1,8,0:0:0:0:
120,248,102174,1,0,0:0:0:0:
224,72,102346,6,0,P|160:100|76:60,1,150,2|0,0:0|0:0,0:0:0:0:
56,164,102691,2,0,P|24:202|15:250,1,100,8|0,0:0|0:0,0:0:0:0:
176,340,103036,1,0,0:0:0:0:
15,250,103209,1,2,0:0:0:0:
224,72,103381,1,8,0:0:0:0:
120,248,103553,1,0,0:0:0:0:
344,252,103726,6,0,B|460:284|460:284|404:316,1,150,2|0,0:0|0:0,0:0:0:0:
276,300,104071,2,0,P|264:240|296:184,1,100,8|0,0:0|0:0,0:0:0:0:
448,196,104415,1,0,0:0:0:0:
364,360,104588,1,2,0:0:0:0:
152,176,104760,1,8,0:0:0:0:
188,348,104933,1,0,0:0:0:0:
304,80,105105,6,0,B|252:108|184:96|224:68|152:52|80:92,1,200,2|8,0:0|0:0,0:0:0:0:
52,160,105622,1,0,0:0:0:0:
280,300,105795,2,0,B|288:248|288:248|276:196,1,100,0|2,0:0|0:0,0:0:0:0:
248,12,106140,1,8,0:0:0:0:
248,12,106312,1,0,0:0:0:0:
152,176,106484,5,2,0:0:0:0:
372,248,106657,1,0,0:0:0:0:
149,317,106829,2,0,B|125:245|125:245|153:173,1,150,8|0,0:0|0:0,0:0:0:0:
68,136,107174,2,0,P|56:88|72:36,1,100,0|2,0:0|0:0,0:0:0:0:
276,92,107519,1,8,0:0:0:0:
128,244,107691,1,0,0:0:0:0:
200,44,107864,5,2,0:0:0:0:
404,176,108036,1,0,0:0:0:0:
228,336,108209,2,0,P|216:268|232:232,1,100,8|0,0:0|0:0,0:0:0:0:
476,120,108553,2,0,P|488:188|472:224,1,100,0|2,0:0|0:0,0:0:0:0:
296,284,108898,1,8,0:0:0:0:
396,88,109071,1,0,0:0:0:0:
439,286,109243,6,0,B|367:306|367:306|266:274,1,150.000005722046,2|8,0:0|0:0,0:0:0:0:
82,238,109760,2,0,B|154:218|154:218|255:250,1,150.000005722046,2|8,0:0|0:0,0:0:0:0:
276,100,110278,2,0,P|284:140|268:192,1,75.0000028610231,2|8,0:0|0:0,0:0:0:0:
221,38,110622,1,4,1:0:0:0:
256,192,110795,12,0,113381,0:0:0:0:
