osu file format v14

[General]
AudioFilename: Cartoon - Whatever I do (feat. Kostja).mp3
AudioLeadIn: 0
PreviewTime: 87519
Countdown: 0
SampleSet: Soft
StackLeniency: 0.5
Mode: 0
LetterboxInBreaks: 0
EpilepsyWarning: 1
WidescreenStoryboard: 1

[Editor]
Bookmarks: 22346,33381,44415,55450,66484,77519,87174,98209,110622
DistanceSpacing: 0.7
BeatDivisor: 1
GridSize: 4
TimelineZoom: 1

[Metadata]
Title:Whatever I Do (feat. Kostja)
TitleUnicode:Whatever I Do (feat. Kostja)
Artist:Cartoon
ArtistUnicode:Cartoon
Creator:Nhawak
Version:Easy
Source:
Tags:dnb drum and bass edm moph -m4x zerss
BeatmapID:1021384
BeatmapSetID:372144

[Difficulty]
HPDrainRate:2
CircleSize:3
OverallDifficulty:2
ApproachRate:3
SliderMultiplier:0.799999999999999
SliderTickRate:1

[Events]
//Background and Video events
0,0,"BG.jpg",0,0
//Break Periods
2,44615,54010
//Storyboard Layer 0 (Background)
//Storyboard Layer 1 (Fail)
//Storyboard Layer 2 (Pass)
//Storyboard Layer 3 (Foreground)
Sprite,Foreground,Centre,"SB\highlight.png",400,396 F,0,60909,60967,0,1 C,0,60967,,255,119,53 M,0,60967,61053,400,396,380.0661,397.4825 F,2,60967,63725,1,0 S,6,60967,63725,1,0.2 P,0,60967,63725,A M,0,61053,61139,380.0661,397.4825,360.1125,396.4004 M,0,61139,61225,360.1125,396.4004,340.5786,392.2221 M,0,61225,61311,340.5786,392.2221,322.1201,384.6009 M,0,61311,61398,322.1201,384.6009,305.4481,373.6086 M,0,61398,61484,305.4481,373.6086,291.0458,359.7674 M,0,61484,61570,291.0458,359.7674,279.0151,343.8124 M,0,61570,61656,279.0151,343.8124,269.1715,326.4158 M,0,61656,61742,269.1715,326.4158,259.8304,339.2588 M,0,61742,61829,259.8304,339.2588,248.4129,355.6602 M,0,61829,61915,248.4129,355.6602,234.6526,370.1424 M,0,61915,62001,234.6526,370.1424,218.5581,381.9658 M,0,62001,62087,218.5581,381.9658,200.5139,390.5201 M,0,62087,62173,200.5139,390.5201,181.1974,395.6021 M,0,62173,62260,181.1974,395.6021,161.3035,397.4668 M,0,62260,62346,161.3035,397.4668,141.334,396.6187
Sprite,Foreground,Centre,"SB\highlight.png",160,280 F,0,62978,63036,0,1 C,0,63036,,255,119,53 F,2,63036,64415,1,0 S,6,63036,64415,1,0.2 P,0,63036,64415,A
Sprite,Foreground,Centre,"SB\highlight.png",208,264 F,0,75392,75450,0,1 C,0,75450,,221,241,78 F,2,75450,76829,1,0 S,6,75450,76829,1,0.2 P,0,75450,76829,A
Sprite,Foreground,Centre,"SB\highlight.png",104,224 F,0,76082,76140,0,1 C,0,76140,,221,241,78 M,0,76140,76226,104,224,99.39452,243.4161 F,2,76140,78898,1,0 S,6,76140,78898,1,0.2 P,0,76140,78898,A M,0,76226,76312,99.39452,243.4161,98.0789,263.3104 M,0,76312,76398,98.0789,263.3104,99.88477,283.1724 M,0,76398,76484,99.88477,283.1724,105.3838,302.3458 M,0,76484,76571,105.3838,302.3458,113.9857,320.3281 M,0,76571,76657,113.9857,320.3281,125.3671,336.6912 M,0,76657,76743,125.3671,336.6912,139.5527,350.7042 M,0,76743,76829,139.5527,350.7042,155,362 M,0,76829,76915,155,362,139.5527,350.7042 M,0,76915,77002,139.5527,350.7042,125.3671,336.6912 M,0,77002,77088,125.3671,336.6912,113.9857,320.3281 M,0,77088,77174,113.9857,320.3281,105.3838,302.3458 M,0,77174,77260,105.3838,302.3458,99.88477,283.1724 M,0,77260,77346,99.88477,283.1724,98.0789,263.3104 M,0,77346,77433,98.0789,263.3104,99.39452,243.4161 M,0,77433,77519,99.39452,243.4161,104,224
Sprite,Foreground,Centre,"SB\highlight.png",324,196 F,0,87116,87174,0,1 C,0,87174,,0,84,168 M,0,87174,87260,324,196,341.9981,187.2967 F,2,87174,89932,1,0 S,6,87174,89932,1,0.2 P,0,87174,89932,A M,0,87260,87346,341.9981,187.2967,360.8979,180.8086 M,0,87346,87432,360.8979,180.8086,380.6172,177.6788 M,0,87432,87518,380.6172,177.6788,400.5482,178.7943 M,0,87518,87605,400.5482,178.7943,420.0457,183.2057 M,0,87605,87691,420.0457,183.2057,439.4476,188.0454 M,0,87691,87777,439.4476,188.0454,459.2805,190.4122 M,0,87777,87863,459.2805,190.4122,479.2001,188.9988 M,0,87863,87949,479.2001,188.9988,498.6038,184.2284 M,0,87949,88036,498.6038,184.2284,517.2654,177.0612 M,0,88036,88122,517.2654,177.0612,523.2175,178.5734 M,0,88122,88208,523.2175,178.5734,514.0599,196.2993 M,0,88208,88294,514.0599,196.2993,510.1247,215.826 M,0,88294,88380,510.1247,215.826,512.4861,235.6043 M,0,88380,88467,512.4861,235.6043,520.2197,253.9955 M,0,88467,88553,520.2197,253.9955,531.5306,270.4611
Sprite,Foreground,Centre,"SB\highlight.png",383,211 F,0,98840,98898,0,1 C,0,98898,,172,126,81 F,2,98898,100277,1,0 S,6,98898,100277,1,0.2 P,0,98898,100277,A
Sprite,Foreground,Centre,"SB\highlight.png",468,284 F,0,99530,99588,0,1 C,0,99588,,255,119,53 M,0,99588,99674,468,284,478.2994,266.9056 F,2,99588,102346,1,0 S,6,99588,102346,1,0.2 P,0,99588,102346,A M,0,99674,99760,478.2994,266.9056,485.7165,248.3946 M,0,99760,99846,485.7165,248.3946,490.2054,228.9642 M,0,99846,99932,490.2054,228.9642,491.1415,209.0396 M,0,99932,100019,491.1415,209.0396,489.102,189.1888 M,0,100019,100105,489.102,189.1888,483.4498,170.0528 M,0,100105,100191,483.4498,170.0528,474.8059,152.0839 M,0,100191,100277,474.8059,152.0839,463.47,135.6831 M,0,100277,100363,463.47,135.6831,474.8059,152.0839 M,0,100363,100450,474.8059,152.0839,483.4498,170.0528 M,0,100450,100536,483.4498,170.0528,489.102,189.1888 M,0,100536,100622,489.102,189.1888,491.1415,209.0396 M,0,100622,100708,491.1415,209.0396,490.2054,228.9642 M,0,100708,100794,490.2054,228.9642,485.7165,248.3946 M,0,100794,100881,485.7165,248.3946,478.2994,266.9056 M,0,100881,100967,478.2994,266.9056,468,284
Sprite,Foreground,Centre,"SB\highlight.png",124,248 F,0,109185,109243,0,1 C,0,109243,,221,241,78 M,0,109243,109329,124,248,110.7878,262.94 F,2,109243,112001,1,0 S,6,109243,112001,1,0.2 P,0,109243,112001,A M,0,109329,109415,110.7878,262.94,102.0226,280.8441 M,0,109415,109501,102.0226,280.8441,98.72556,300.4954 M,0,109501,109587,98.72556,300.4954,101.3879,320.2406 M,0,109587,109674,101.3879,320.2406,109.6998,338.3537 M,0,109674,109760,109.6998,338.3537,122.732,353.441 M,0,109760,109846,122.732,353.441,139.3083,364.5252 M,0,109846,109932,139.3083,364.5252,158.2093,370.8769 M,0,109932,110018,158.2093,370.8769,178.1173,371.9021 M,0,110018,110105,178.1173,371.9021,197.5006,367.2721 M,0,110105,110191,197.5006,367.2721,214.7561,357.2975 M,0,110191,110277,214.7561,357.2975,228.8438,344.834 M,0,110277,110363,228.8438,344.834,244.43,357.3143 M,0,110363,110449,244.43,357.3143,262.151,366.5204 M,0,110449,110536,262.151,366.5204,281.2362,372.4225 M,0,110536,110622,281.2362,372.4225,300.9993,375.3901
//Storyboard Sound Samples

[TimingPoints]
278,344.827586206897,4,2,1,45,1,0
23036,-100,4,2,50,45,0,0
23381,-100,4,2,1,45,0,0
25795,-100,4,2,50,45,0,0
26140,-100,4,2,1,45,0,0
29933,-100,4,2,50,45,0,0
30278,-100,4,2,1,45,0,0
31312,-100,4,2,50,45,0,0
31657,-100,4,2,1,45,0,0
36829,-100,4,2,50,45,0,0
37174,-100,4,2,1,45,0,0
55795,-100,4,2,60,45,0,0
56140,-100,4,2,1,45,0,0
56484,-100,4,2,60,45,0,0
61657,-100,4,2,1,45,0,0
62002,-100,4,2,60,45,0,0
66484,-100,4,2,1,45,0,0
66829,-100,4,2,2,60,0,1
68209,-100,4,2,70,60,0,1
68553,-100,4,2,2,60,0,1
68898,-100,4,2,70,60,0,1
69243,-100,4,2,2,60,0,1
69588,-100,4,2,70,60,0,1
69933,-100,4,2,2,60,0,1
70278,-100,4,2,70,60,0,1
70622,-100,4,2,2,60,0,1
72346,-100,4,2,70,60,0,1
72691,-100,4,2,2,60,0,1
73036,-100,4,2,70,60,0,1
73381,-100,4,2,2,60,0,1
73726,-100,4,2,70,60,0,1
74071,-100,4,2,2,60,0,1
74415,-100,4,2,70,60,0,1
74760,-100,4,2,2,60,0,1
76484,-100,4,2,70,60,0,1
77519,-100,4,2,2,60,0,0
77864,-100,4,2,2,60,0,1
79243,-100,4,2,70,60,0,1
79588,-100,4,2,2,60,0,1
80622,-100,4,2,70,60,0,1
80967,-100,4,2,2,60,0,1
83381,-100,4,2,70,60,0,1
84415,-100,4,2,2,60,0,1
86140,-100,4,2,70,60,0,1
87174,-100,4,2,2,60,0,0
87519,-100,4,2,70,60,0,0
87864,-100,4,2,2,60,0,0
88209,-100,4,2,60,60,0,0
88553,-100,4,2,2,60,0,0
88898,-100,4,2,2,60,0,1
90967,-100,4,2,70,60,0,1
91312,-100,4,2,2,60,0,1
92346,-100,4,2,70,60,0,1
92691,-100,4,2,2,60,0,1
93036,-100,4,2,70,60,0,1
93381,-100,4,2,2,60,0,1
95795,-100,4,2,70,60,0,1
96140,-100,4,2,2,60,0,1
96484,-100,4,2,70,60,0,1
96829,-100,4,2,2,60,0,1
97174,-100,4,2,70,60,0,1
97519,-100,4,2,2,60,0,1
97864,-100,4,2,70,60,0,1
98209,-100,4,2,2,60,0,1
99588,-100,4,2,2,60,0,0
99933,-100,4,2,70,60,0,1
100967,-100,4,2,2,60,0,1
102691,-100,4,2,70,60,0,1
103726,-100,4,2,2,60,0,1
104071,-100,4,2,70,60,0,1
105105,-100,4,2,2,60,0,1
105450,-100,4,2,70,60,0,1
106484,-100,4,2,2,60,0,1
108209,-100,4,2,70,60,0,1
109243,-100,4,2,2,60,0,1
109588,-100,4,2,70,60,0,1
109933,-100,4,2,2,60,0,1
110278,-100,4,2,60,60,0,1
110622,-100,4,2,60,60,0,0
113381,-100,4,2,1,5,0,0

[Colours]
Combo1 : 0,84,168
Combo2 : 221,241,78
Combo3 : 172,126,81
Combo4 : 255,119,53

[HitObjects]
256,192,18209,12,0,20967,0:0:0:0:
16,256,22346,6,0,B|168:188|168:340|324:256,1,320,4|2,0:0|0:0,0:0:0:0:
408,188,24415,1,8,0:0:0:0:
324,112,25105,2,0,P|200:58|264:172,1,320,2|0,0:0|0:0,0:0:0:0:
320,244,27174,1,8,0:0:0:0:
408,175,27864,6,0,P|433:257|383:341,1,160,2|8,0:0|0:0,0:0:0:0:
297,290,29243,2,0,B|224:259|224:259|-22:319,2,320,2|2|0,0:0|0:0|0:0,0:0:0:0:
387,355,32691,1,8,0:0:0:0:
436,252,33381,6,0,P|460:160|424:92,2,160,4|8|2,0:0|0:0|0:0,0:0:0:0:
387,355,35450,1,8,0:0:0:0:
284,312,36140,2,0,B|208:284|208:284|136:316|136:316|84:292|72:212|124:176,1,320,2|0,0:0|0:0,0:0:0:0:
228,168,38209,1,8,0:0:0:0:
152,84,38898,6,0,P|228:56|316:100,1,160,2|8,0:0|0:0,0:0:0:0:
328,192,40278,2,0,L|464:92,1,160,2|8,0:0|0:0,0:0:0:0:
468,208,41657,2,0,P|496:280|472:356,2,160,2|8|0,0:0|0:0|0:0,0:0:0:0:
384,284,43726,1,8,0:0:0:0:
281,238,44415,5,4,0:0:0:0:
112,344,55450,6,0,B|176:288|140:160|80:236|60:100|132:32,1,320,4|0,0:0|0:0,0:0:0:0:
196,128,57519,1,2,0:0:0:0:
292,68,58209,38,0,P|368:48|456:76,1,160
408,176,59588,2,0,L|452:344,1,160,0|2,0:0|0:0,0:0:0:0:
336,340,60967,22,0,B|244:352|204:268|204:268|164:352|72:340,1,320,0|0,0:0|0:0,0:0:0:0:
96,224,63036,1,2,0:0:0:0:
256,192,63726,12,2,66484,0:0:0:0:
256,192,67864,6,0,B|346:208|416:168|416:168|366:255|436:344,2,320,2|2|2,0:0|0:0|0:0,0:0:0:0:
144,208,71312,1,0,0:0:0:0:
188,104,72002,6,0,B|223:31|356:32|298:110|435:94|469:25,2,320,2|2|2,0:0|0:0|0:0,0:0:0:0:
144,208,75450,1,0,0:0:0:0:
40,168,76140,2,0,P|41:246|91:306,2,160,2|0|2,0:0|0:0|0:0,0:0:0:0:
96,72,78209,5,0,0:0:0:0:
200,116,78898,2,0,L|376:92,1,160,2|0,0:0|0:0,0:0:0:0:
456,148,80278,2,0,P|480:236|444:324,1,160,2|0,0:0|0:0,0:0:0:0:
356,340,81657,1,2,0:0:0:0:
256,288,82346,1,0,0:0:0:0:
156,340,83036,6,0,B|84:304|84:304|4:344,2,160,2|0|2,0:0|0:0|0:0,0:0:0:0:
256,288,85105,1,0,0:0:0:0:
172,212,85795,2,0,P|148:144|176:64,1,160,2|0,0:0|0:0,0:0:0:0:
260,140,87174,6,0,B|356:88|360:168|464:116|464:116|420:172|484:232,1,320,2|2,0:0|0:0,0:0:0:0:
504,320,89243,5,0,0:0:0:0:
396,292,89933,1,2,0:0:0:0:
307,360,90622,2,0,B|287:306|287:306|250:277|250:277|217:187,1,160,0|2,0:0|0:0,0:0:0:0:
189,120,92002,2,0,B|157:97|113:99|113:99|87:151|8:156,2,160,0|2|0,0:0|0:0|0:0,0:0:0:0:
231,224,94071,1,2,0:0:0:0:
319,155,94760,1,0,0:0:0:0:
316,267,95450,6,0,B|281:340|148:339|206:261|69:277|35:346,2,320,2|2|2,0:0|0:0|0:0,0:0:0:0:
319,155,98898,1,0,0:0:0:0:
404,228,99588,6,0,P|424:128|384:64,2,160,2|0|2,0:0|0:0|0:0,0:0:0:0:
319,155,101657,1,0,0:0:0:0:
232,88,102346,2,0,L|72:96,1,160,2|0,0:0|0:0,0:0:0:0:
60,208,103726,2,0,L|220:200,1,160,2|0,0:0|0:0,0:0:0:0:
312,260,105105,6,0,B|388:292|388:292|476:256,2,160,2|0|2,0:0|0:0|0:0,0:0:0:0:
219,200,107174,1,0,0:0:0:0:
292,116,107864,6,0,P|216:92|112:148,1,160,2|0,0:0|0:0,0:0:0:0:
60,192,109243,2,0,B|28:220|16:268|44:320|120:344|164:288|164:288|196:320|252:320,1,320,2|4,0:0|1:0,0:0:0:0:
256,192,110967,12,0,113381,0:0:0:0:
