osu file format v5

[General]
AudioFilename: Cartel - Honestly.mp3
AudioLeadIn: 0
PreviewTime: -1
Countdown: 2
SampleSet: Normal
StackLeniency: 0.7
Mode: 0

[Metadata]
Title:Honestly
Artist:Cartel
Creator:huskyhawkcougar
Version:Normal

[Difficulty]
HPDrainRate:5
CircleSize:5
OverallDifficulty:5
SliderMultiplier:1.4
SliderTickRate:1

[Events]
//Background and Video events
0,0,"cartel.jpg"
//Break Periods
2,39108,47315
2,71688,74256
2,90483,94723
2,127867,132733
2,148543,154244
//Storyboard Layer 0 (Background)
//Storyboard Layer 1 (Failing)
//Storyboard Layer 2 (Passing)
//Storyboard Layer 3 (Foreground)
//Storyboard Sound Samples
//Background Colour Transformations
3,100,163,162,255

[TimingPoints]
15110,417.691304347826,4,1,0,100

[Colours]
Combo1 : 27,228,223
Combo2 : 0,0,0
Combo3 : 192,192,192
Combo4 : 0,0,160

[HitObjects]
192,192,15527,1,0
320,192,15945,1,0
448,192,16780,2,0,B|256:320,1,210
273,308,17824,1,0
273,308,18242,1,0
160,320,19078,1,0
160,288,19286,1,0
160,256,19495,1,0
160,224,19704,1,0
160,192,19913,1,0
160,128,20331,1,0
160,64,20748,1,0
224,64,21166,1,0
288,64,21584,2,0,B|288:128|352:192|448:192,1,210
431,191,22628,1,0
448,288,23254,1,0
448,288,23463,1,0
448,288,23672,1,0
448,288,23881,1,0
448,288,24090,1,0
384,288,24508,1,0
320,288,24925,1,0
224,288,25552,1,0
224,224,25969,1,0
160,224,26387,1,0
160,224,26596,1,0
160,224,26805,2,0,B|160:160|192:96|320:96,1,210
288,96,28058,1,0
352,96,28476,6,0,B|352:256,4,140
64,256,31817,6,0,B|160:256,3,70
160,256,32653,1,0
192,256,32861,1,0
224,256,33070,1,0
320,256,33906,1,0
352,256,34114,1,0
384,256,34323,1,0
448,256,34741,1,0
480,160,35785,1,0
448,160,35994,1,0
416,160,36203,1,0
384,160,36412,1,0
352,160,36621,2,0,B|288:160|288:64|352:64,4,140
352,160,38918,1,0
256,192,48525,6,0,B|416:192,3,140
384,128,49987,1,0
352,128,50196,1,0
320,128,50404,1,0
288,128,50613,1,0
256,128,50822,1,0
160,192,51657,5,0
96,192,51866,2,0,B|96:288|204:297|258:267|256:160,1,280
256,96,53119,1,0
256,32,53537,2,0,L|303:77|352:32|416:96,1,210
416,224,55417,5,0
416,224,55626,1,0
416,224,55834,1,0
416,224,56043,1,0
320,224,56461,1,0
320,224,56670,1,0
320,160,56879,2,0,B|160:160,1,140
160,224,57505,2,0,B|96:224|96:160|96:96,1,140
192,64,58341,2,0,C|320:0|352:64,1,210
192,128,61891,5,0
320,128,62309,1,0
320,256,62726,1,0
192,256,63144,1,0
256,192,63771,1,0
256,192,63979,1,0
256,192,64188,1,0
256,192,64397,1,0
256,192,64815,1,0
320,192,65441,1,0
352,192,65650,1,0
384,192,65859,1,0
416,192,66068,1,0
480,192,66486,1,0
480,256,67112,1,0
448,256,67321,1,0
416,256,67530,1,0
384,256,67739,1,0
320,256,68156,1,0
256,256,68783,1,0
256,224,68992,1,0
256,192,69201,1,0
256,160,69409,1,0
256,96,69827,1,0
192,96,70454,2,0,B|224:32,3,70
288,64,71498,1,0
128,128,75466,5,0
128,160,75675,1,0
160,160,75884,1,0
192,160,76092,1,0
224,160,76301,1,0
256,160,76510,1,0
256,192,76719,1,0
384,128,77137,5,0
384,160,77346,1,0
352,160,77554,1,0
320,160,77763,1,0
288,160,77972,1,0
256,160,78181,1,0
256,192,78390,1,0
128,256,78807,5,0
128,224,79016,1,0
160,224,79225,1,0
192,224,79434,1,0
224,224,79643,1,0
256,224,79852,1,0
256,192,80060,1,0
384,256,80478,5,0
384,224,80687,1,0
352,224,80896,1,0
320,224,81105,1,0
288,224,81314,1,0
256,224,81522,1,0
256,192,81731,1,0
192,64,82149,6,0,C|218:143|256:64|288:139|320:64|352:160,1,420
256,192,83820,6,0,C|192:128|160:192|96:160|106:238|178:241|224:224,1,420
416,128,85490,6,0,L|352:160|416:192|352:224|416:256|352:288|416:320,1,420
192,64,87161,6,0,B|235:6|335:36|330:141|228:130|258:255|258:255,1,280
256,288,88205,1,0
256,288,88414,1,0
256,288,88623,2,0,B|416:288,4,140
160,192,95933,5,0
160,192,96142,1,0
160,192,96350,1,0
160,192,96559,1,0
160,192,96768,2,0,B|160:96|256:128,3,140
384,128,99065,1,0
256,192,101363,5,0
256,192,101572,1,0
256,192,101780,1,0
256,192,101989,1,0
192,192,102616,2,0,B|96:192|-49:42|192:64|320:160|384:288,1,490
160,192,105331,5,0
256,192,105957,1,0
352,192,106584,2,0,B|487:146|463:10|224:64|410:35|231:21|79:24|32:192,1,560
96,192,108672,6,0,B|256:192,3,140
320,192,110343,1,0
352,160,110552,1,0
384,192,110761,1,0
416,160,110970,1,0
480,192,111805,5,0
480,160,112014,2,0,B|398:46|398:46|331:48|254:59|197:69|96:96,1,420
96,160,113685,1,0
128,192,113893,1,0
96,224,114102,1,0
128,256,114311,1,0
256,160,115564,5,0
256,160,115773,1,0
256,160,115982,1,0
256,160,116191,1,0
320,160,116608,1,0
320,160,116817,1,0
320,160,117026,1,0
384,160,117444,1,0
384,160,117653,1,0
384,224,118070,1,0
384,288,118488,2,0,B|160:352,1,210
256,256,120577,1,0
256,224,120785,1,0
256,192,120994,1,0
256,160,121203,1,0
256,128,121412,1,0
256,96,121621,1,0
256,32,122038,6,0,B|384:32|416:160|416:256,2,280
256,32,123918,1,0
256,32,124336,1,0
128,32,125171,1,0
96,32,125380,2,0,B|96:128|224:192|320:192,2,280
96,32,127260,1,0
96,32,127677,1,0
256,192,133943,5,0
256,192,134152,1,0
256,192,134360,1,0
256,192,134569,1,0
256,192,134778,1,0
256,192,134987,1,0
256,128,135405,2,0,B|480:128,3,210
448,192,138746,2,0,B|394:303|256:320,3,210
96,64,142088,5,0
160,64,142505,1,0
224,64,142923,1,0
288,64,143341,1,0
320,64,143550,1,0
384,64,143967,1,0
448,64,144385,2,0,B|427:175|288:192,1,210
256,256,145429,5,0
320,256,145742,1,0
384,256,146160,1,0
384,320,146682,1,0
384,320,146891,2,0,B|224:320,2,140
384,320,148353,1,0
160,192,155454,6,0,B|254:130|384:192,3,210
256,320,158795,6,0,B|32:320,3,210
256,32,162137,6,0,B|320:64|224:96|192:160|288:224,3,210
160,192,165478,6,0,B|384:192,2,210
160,192,167358,1,0
160,192,167567,1,0
160,192,167776,1,0
160,192,167985,1,0
160,192,168193,1,0
160,192,168402,1,0
160,64,169238,6,0,B|416:192,1,280
416,224,170282,1,0
416,256,170491,1,0
416,288,170700,1,0
416,320,170908,1,0
416,352,171117,1,0
256,320,172579,6,0,B|160:320|32:224|24:168|32:0,1,420
30,24,174250,1,0
30,24,174459,1,0
224,96,175712,5,0
256,64,175921,1,0
288,96,176129,1,0
320,64,176338,1,0
256,192,177174,12,0,180515
96,192,182186,6,0,L|125:55|223:164|265:39|352:192,1,560
334,162,184066,1,0
334,162,184483,1,0
480,192,185528,6,0,L|480:52|334:52|334:190|480:192,1,560
469,191,187407,1,0
469,191,187825,1,0
256,192,188869,12,0,192211
128,128,194090,5,0
128,160,194299,1,0
160,160,194508,1,0
192,160,194717,1,0
224,160,194926,1,0
256,160,195134,1,0
256,192,195343,1,0
128,256,195761,5,0
128,224,195970,1,0
160,224,196179,1,0
192,224,196388,1,0
224,224,196596,1,0
256,224,196805,1,0
256,192,197014,1,0
384,256,197432,5,0
384,224,197641,1,0
352,224,197849,1,0
320,224,198058,1,0
288,224,198267,1,0
256,224,198476,1,0
256,192,198685,1,0
384,128,199103,5,0
384,160,199311,1,0
352,160,199520,1,0
320,160,199729,1,0
288,160,199938,1,0
256,160,200147,1,0
256,192,200356,1,0
256,32,202026,6,0,L|464:32|404:141|492:232|444:300|403:228|360:299|325:222|256:256,1,840
282,242,204950,1,0
282,242,205368,1,0
