osu file format v14

[General]
AudioFilename: Carpenter Brut - Paradise Warfare & Run, Sally, Run!.mp3
AudioLeadIn: 0
PreviewTime: 148414
Countdown: 1
SampleSet: None
StackLeniency: 0.7
Mode: 0
LetterboxInBreaks: 1
WidescreenStoryboard: 1

[Editor]
Bookmarks: 255084
DistanceSpacing: 1.4
BeatDivisor: 4
GridSize: 4
TimelineZoom: 2.3

[Metadata]
Title:Paradise Warfare & Run, Sally, Run!
TitleUnicode:Paradise Warfare & Run, Sally, Run!
Artist:Carpenter Brut
ArtistUnicode:Carpenter Brut
Creator:BrianTheDrummer
Version:Paradise Warfare
Source:
Tags:EP III Synthwave Instrumental
BeatmapID:769413
BeatmapSetID:333956

[Difficulty]
HPDrainRate:6
CircleSize:4
OverallDifficulty:7
ApproachRate:9
SliderMultiplier:1.8
SliderTickRate:1

[Events]
//Background and Video events
0,0,"Carpenter Brut EP III.jpg",0,0
//Break Periods
2,53799,64851
2,107132,133184
//Storyboard Layer 0 (Background)
//Storyboard Layer 1 (Fail)
//Storyboard Layer 2 (Pass)
//Storyboard Layer 3 (Foreground)
//Storyboard Sound Samples

[TimingPoints]
266,370.37037037037,4,1,1,60,1,0
636,-111.111111111111,4,1,1,60,0,0
1006,-125,4,1,1,60,0,0
1377,-142.857142857143,4,1,1,60,0,0
1747,-166.666666666667,4,1,1,60,0,0
2488,-133.333333333333,4,1,1,60,0,0
3228,-117.647058823529,4,1,1,60,0,0
3599,-100,4,1,1,60,0,0
5265,-166.666666666667,4,1,1,60,0,0
6191,-133.333333333333,4,1,1,60,0,0
29895,-133.333333333333,4,1,2,60,0,0
65451,-133.333333333333,4,1,1,60,0,0
77303,-133.333333333333,4,1,2,60,0,0
133784,-133.333333333333,4,1,1,60,0,0
136562,-117.647058823529,4,1,1,60,0,0
145451,-111.111111111111,4,1,1,60,0,0
148414,-100,4,1,2,70,0,1
171747,-100,4,1,1,70,0,1
172117,-100,4,1,2,70,0,1
189525,-100,4,1,1,70,0,0
189895,-100,4,1,2,70,0,1
206932,-133.333333333333,4,1,1,60,0,0
231377,-133.333333333333,4,1,2,60,0,0
255084,468.75,4,1,1,50,1,0
382584,-95.2380952380952,4,1,1,50,0,0
427584,-90.9090909090909,4,1,1,50,0,0
455709,-90.9090909090909,4,1,2,40,0,0
457584,-80,4,1,2,70,0,1
472115,-80,4,1,2,50,0,1
472584,-80,4,1,2,70,0,1
517584,-133.333333333333,4,2,1,30,0,0
521099,-133.333333333333,4,2,1,5,0,0
521334,-133.333333333333,4,2,1,20,0,0
524849,-133.333333333333,4,2,1,5,0,0
525084,-133.333333333333,4,2,1,15,0,0
528365,-142.857142857143,4,2,1,5,0,0
528834,-142.857142857143,4,2,1,15,0,0
532584,-142.857142857143,4,2,1,5,0,0

[Colours]
Combo1 : 128,128,0
Combo2 : 128,0,0
Combo3 : 245,141,71
Combo4 : 128,64,64
Combo5 : 63,63,63

[HitObjects]
160,88,266,6,0,L|252:84,1,90
224,160,636,2,0,L|312:156,1,80.9999975280763
288,232,1006,2,0,L|372:228,1,72
352,304,1377,2,0,L|436:300,1,62.9999980773926
272,356,1747,6,0,L|200:352,3,53.9999983520508
152,284,2488,2,0,P|152:240|160:204,3,67.5000025749208
268,104,3228,6,0,L|240:184,1,76.5000014591217
408,104,3599,2,0,L|336:160,1,90
500,192,3969,1,0,0:0:0:0:
420,288,4154,1,0,0:0:0:0:
296,256,4340,1,0,0:0:0:0:
268,104,4525,1,0,0:0:0:0:
128,272,4710,1,8,0:0:0:0:
140,284,5265,5,0,0:0:0:0:
140,284,5451,1,0,0:0:0:0:
140,284,5636,2,0,P|184:280|232:240,1,107.999996704102
157,53,6191,6,0,L|150:189,1,135.000005149842,6|0,0:0|0:0,0:0:0:0:
270,115,6932,1,8,0:0:0:0:
275,112,7117,2,0,P|346:101|399:168,1,135.000005149842,0|2,0:0|0:0,0:0:0:0:
416,230,7673,1,0,0:0:0:0:
416,230,7858,2,0,L|473:271,1,67.5000025749208,0|2,0:0|0:0,0:0:0:0:
316,234,8228,2,0,L|344:298,1,67.5000025749208,0|8,0:0|0:0,0:0:0:0:
227,187,8599,2,0,L|219:256,1,67.5000025749208
152,140,8969,6,0,L|120:4,1,135.000005149842
52,72,9525,1,0,0:0:0:0:
52,72,9895,2,0,L|44:216,1,135.000005149842,8|0,0:0|0:0,0:0:0:0:
200,316,10636,1,2,0:0:0:0:
124,144,11006,1,2,0:0:0:0:
124,144,11377,2,0,P|216:184|268:172,1,135.000005149842,8|2,0:0|0:0,0:0:0:0:
156,260,11932,6,0,L|16:296,1,135.000005149842
25,293,12488,1,0,0:0:0:0:
25,293,12858,2,0,P|64:236|60:152,1,135.000005149842,8|0,0:0|0:0,0:0:0:0:
36,84,13414,1,2,0:0:0:0:
216,32,13969,1,2,0:0:0:0:
216,32,14340,2,0,P|228:120|288:156,1,135.000005149842,8|0,0:0|0:0,0:0:0:0:
156,192,14895,6,0,P|112:260|180:344,1,202.500007724762,0|2,0:0|0:0,0:0:0:0:
292,236,15821,2,0,P|352:232|372:240,1,67.5000025749208,8|0,0:0|0:0,0:0:0:0:
440,284,16191,1,0,0:0:0:0:
488,200,16377,2,0,P|488:116|404:40,1,202.500007724762,2|2,0:0|0:0,0:0:0:0:
332,100,17117,2,0,L|256:92,1,67.5000025749208,0|8,0:0|0:0,0:0:0:0:
200,24,17488,1,0,0:0:0:0:
184,184,17673,1,2,0:0:0:0:
292,236,17858,1,4,3:0:0:0:
160,88,18043,6,0,P|96:140|87:202,1,135.000005149842,6|0,0:0|0:0,0:0:0:0:
233,298,18784,2,0,P|219:216|170:177,1,135.000005149842,8|0,0:0|0:0,0:0:0:0:
88,196,19340,1,2,0:0:0:0:
88,196,19525,2,0,L|59:260,1,67.5000025749208
144,271,19895,1,2,0:0:0:0:
144,271,20080,2,0,L|152:340,1,67.5000025749208,0|8,0:0|0:0,0:0:0:0:
233,298,20451,2,0,L|274:353,1,67.5000025749208
284,216,20821,6,0,P|240:168|164:172,1,135.000005149842
75,267,21377,1,0,0:0:0:0:
75,267,21747,2,0,P|142:273|204:248,1,135.000005149842,8|0,0:0|0:0,0:0:0:0:
148,32,22488,1,2,0:0:0:0:
128,192,22858,1,2,0:0:0:0:
268,268,23228,2,0,L|420:232,1,135.000005149842,8|2,0:0|0:0,0:0:0:0:
259,160,23784,6,0,L|107:196,1,135.000005149842
208,336,24340,1,0,0:0:0:0:
208,336,24710,2,0,P|288:356|340:324,1,135.000005149842,8|0,0:0|0:0,0:0:0:0:
316,240,25265,1,2,0:0:0:0:
316,240,25821,2,0,L|328:92,2,135.000005149842,2|8|0,0:0|0:0|0:0,0:0:0:0:
224,220,26747,1,0,0:0:0:0:
172,140,26932,6,0,P|192:80|252:40,2,135.000005149842,2|2|8,0:0|0:0|0:0,0:0:0:0:
124,220,27858,2,0,P|76:252|0:248,1,135.000005149842,0|2,0:0|0:0,0:0:0:0:
168,144,28414,1,0,0:0:0:0:
168,144,28599,2,0,P|219:169|254:237,1,135.000005149842,2|2,0:0|0:0,0:0:0:0:
220,324,29154,1,8,0:0:0:0:
124,220,29340,1,8,3:0:0:0:
68,352,29525,2,0,P|28:364|-4:360,1,67.5000025749208,6|4,3:0|3:0,0:0:0:0:
240,236,29895,6,0,P|296:252|344:316,2,135.000005149842,6|0|8,0:0|0:0|0:0,0:0:0:0:
160,288,30821,2,0,L|136:156,1,135.000005149842,0|2,0:0|0:0,0:0:0:0:
60,84,31377,1,0,0:0:0:0:
60,84,31562,2,0,P|56:132|36:160,1,67.5000025749208,0|2,0:0|0:0,0:0:0:0:
168,80,31932,2,0,P|202:113|210:147,1,67.5000025749208,0|8,0:0|0:0,0:0:0:0:
112,208,32303,2,0,P|124:161|148:137,1,67.5000025749208
280,80,32673,1,0,0:0:0:0:
344,148,32858,6,0,L|356:300,1,135.000005149842,2|0,0:0|0:0,0:0:0:0:
428,80,33599,2,0,L|440:232,1,135.000005149842,8|0,0:0|0:0,0:0:0:0:
280,80,34340,2,0,P|208:68|136:120,1,135.000005149842,2|2,0:0|0:0,0:0:0:0:
284,232,35080,2,0,P|300:308|280:372,1,135.000005149842,8|2,0:0|0:0,0:0:0:0:
376,232,35636,6,0,L|396:84,1,135.000005149842
300,80,36191,2,0,L|304:152,1,67.5000025749208
284,232,36562,2,0,P|228:264|160:248,1,135.000005149842,8|0,0:0|0:0,0:0:0:0:
100,180,37117,1,2,0:0:0:0:
48,260,37303,1,0,0:0:0:0:
48,260,37488,2,0,P|48:312|60:344,1,67.5000025749208,0|2,0:0|0:0,0:0:0:0:
200,368,37858,2,0,P|200:316|188:284,1,67.5000025749208,0|8,0:0|0:0,0:0:0:0:
120,208,38228,2,0,P|120:260|132:292,1,67.5000025749208
204,184,38599,1,0,0:0:0:0:
204,184,38784,6,0,P|144:124|84:128,1,135.000005149842,2|2,0:0|0:0,0:0:0:0:
124,312,39525,2,0,B|196:352|196:352|260:344,1,135.000005149842,8|0,0:0|0:0,0:0:0:0:
320,284,40080,1,2,0:0:0:0:
320,284,40636,1,2,0:0:0:0:
356,196,40821,2,0,L|344:128,1,67.5000025749208,0|8,0:0|0:0,0:0:0:0:
216,68,41191,1,0,0:0:0:0:
264,168,41377,1,2,0:0:0:0:
448,80,41562,1,8,3:0:0:0:
408,260,41747,6,0,P|324:276|284:240,1,135.000005149842,2|0,0:0|0:0,0:0:0:0:
216,68,42488,1,8,0:0:0:0:
216,68,42858,2,0,P|176:92|132:100,1,67.5000025749208,0|2,0:0|0:0,0:0:0:0:
68,68,43228,2,0,L|36:4,2,67.5000025749208,0|0|2,0:0|0:0|0:0,0:0:0:0:
92,160,43784,2,0,P|88:216|76:248,1,67.5000025749208,0|8,0:0|0:0,0:0:0:0:
180,220,44154,2,0,P|184:264|180:308,1,67.5000025749208
264,240,44525,6,0,P|336:228|396:260,1,135.000005149842
364,344,45080,1,0,0:0:0:0:
288,144,45451,2,0,L|276:8,1,135.000005149842,8|0,0:0|0:0,0:0:0:0:
192,176,46191,1,2,0:0:0:0:
92,16,46562,1,2,0:0:0:0:
288,144,46932,2,0,P|316:208|276:284,1,135.000005149842,8|2,0:0|0:0,0:0:0:0:
152,324,47488,6,0,L|292:344,1,135.000005149842
285,343,48043,1,0,0:0:0:0:
228,204,48414,2,0,B|231:171|248:134|250:152|275:119|273:79,1,135.000005149842,8|0,0:0|0:0,0:0:0:0:
348,136,48969,2,0,P|446:124|511:49,1,202.500007724762,2|2,0:0|0:0,0:0:0:0:
388,16,49895,2,0,L|447:138,1,135.000005149842,8|0,0:0|0:0,0:0:0:0:
412,228,50451,6,0,P|408:280|420:312,1,67.5000025749208,0|2,0:0|0:0,0:0:0:0:
411,294,51006,1,2,0:0:0:0:
236,228,51377,2,0,P|148:236|104:272,1,135.000005149842,8|0,0:0|0:0,0:0:0:0:
140,352,51932,1,2,0:0:0:0:
196,152,52303,1,10,3:0:0:0:
0,200,52673,1,10,3:0:0:0:
84,240,52858,2,0,P|112:200|120:168,1,67.5000025749208,8|8,0:0|0:0,0:0:0:0:
166,92,53228,2,0,P|177:124|196:152,1,67.5000025749208,6|4,3:0|3:0,0:0:0:0:
284,188,53599,1,6,0:0:0:0:
408,176,65451,5,2,0:0:0:0:
408,176,65821,2,0,P|336:216|268:188,1,135.000005149842,0|8,0:0|0:0,0:0:0:0:
228,132,66377,2,0,L|204:-4,1,135.000005149842,0|2,0:0|0:0,0:0:0:0:
292,32,66932,1,0,0:0:0:0:
148,156,67303,1,2,0:0:0:0:
304,260,67673,2,0,P|324:316|324:340,1,67.5000025749208,8|0,0:0|0:0,0:0:0:0:
232,308,68043,1,0,0:0:0:0:
148,344,68228,2,0,P|72:324|64:316,1,67.5000025749208,0|2,0:0|0:0,0:0:0:0:
12,156,68784,5,0,0:0:0:0:
12,156,69340,1,0,0:0:0:0:
104,16,69895,2,0,L|127:149,1,135.000005149842,2|2,0:0|0:0,0:0:0:0:
316,124,70636,2,0,L|300:268,1,135.000005149842,8|2,0:0|0:0,0:0:0:0:
220,208,71191,2,0,L|184:7,1,202.500007724762
12,84,72117,1,8,0:0:0:0:
200,100,72488,1,0,0:0:0:0:
140,200,72673,6,0,P|172:272|284:256,1,202.500007724762,2|2,0:0|0:0,0:0:0:0:
200,100,73599,2,0,L|208:176,2,67.5000025749208,8|0|0,0:0|0:0|0:0,0:0:0:0:
278,36,74340,2,0,P|296:88|348:152,1,135.000005149842,2|2,0:0|0:0,0:0:0:0:
508,244,75080,1,8,0:0:0:0:
432,300,75265,2,0,L|424:372,2,67.5000025749208,0|0|2,0:0|0:0|0:0,0:0:0:0:
368,192,75821,1,8,3:0:0:0:
244,376,76191,1,4,3:0:0:0:
116,240,76562,2,0,P|112:200|116:168,1,67.5000025749208,8|8,0:0|0:0,0:0:0:0:
224,252,76932,1,6,3:0:0:0:
144,88,77117,1,4,3:0:0:0:
368,192,77303,6,0,P|424:176|432:92,1,135.000005149842,6|0,0:0|0:0,0:0:0:0:
288,132,77858,1,0,0:0:0:0:
288,132,78043,2,0,L|268:268,1,135.000005149842,8|0,0:0|0:0,0:0:0:0:
196,328,78599,1,2,0:0:0:0:
184,348,79154,2,0,P|140:360|112:356,1,67.5000025749208,2|0,0:0|0:0,0:0:0:0:
144,268,79525,2,0,P|240:264|272:304,1,135.000005149842,8|0,0:0|0:0,0:0:0:0:
356,288,80080,1,0,0:0:0:0:
396,204,80265,6,0,L|384:64,1,135.000005149842,2|0,0:0|0:0,0:0:0:0:
262,286,81006,2,0,P|198:302|142:267,1,135.000005149842,8|0,0:0|0:0,0:0:0:0:
156,80,81747,1,2,0:0:0:0:
292,212,82117,2,0,B|336:252|336:252|380:240|412:276,1,135.000005149842,2|8,0:0|0:0,0:0:0:0:
405,269,82858,1,2,0:0:0:0:
352,156,83043,2,0,P|296:132|260:136,1,67.5000025749208,0|2,0:0|0:0,0:0:0:0:
188,292,83599,5,0,0:0:0:0:
64,132,83969,2,0,P|124:184|208:184,1,135.000005149842,8|0,0:0|0:0,0:0:0:0:
264,152,84525,2,0,B|297:155|334:172|316:174|349:199|389:197,1,135.000005149842,2|0,0:0|0:0,0:0:0:0:
448,268,85080,1,2,0:0:0:0:
281,366,85451,2,0,P|209:350|157:318,1,135.000005149842,8|0,0:0|0:0,0:0:0:0:
85,254,86006,2,0,L|69:334,1,67.5000025749208,0|2,0:0|0:0,0:0:0:0:
5,142,86562,5,2,0:0:0:0:
188,232,86932,2,0,P|280:216|312:160,1,135.000005149842,8|0,0:0|0:0,0:0:0:0:
139,156,87488,2,0,P|98:239|166:321,1,202.500007724762,2|2,0:0|0:0,0:0:0:0:
302,187,88414,1,8,0:0:0:0:
436,364,88784,2,0,L|448:288,1,67.5000025749208,2|0,0:0|0:0,0:0:0:0:
440,168,89154,6,0,B|432:116|392:80|392:80|304:144|236:48,2,270.000010299683,2|8|0,0:0|0:0|0:0,0:0:0:0:
364,340,91006,1,2,0:0:0:0:
236,200,91377,2,0,P|136:200|104:248,1,135.000005149842,8|0,0:0|0:0,0:0:0:0:
188,281,91932,6,0,L|153:82,1,202.500007724762
304,200,92858,2,0,B|384:240|440:168|440:168|496:232|456:304,1,270.000010299683,8|2,0:0|0:0,0:0:0:0:
468,274,93969,1,2,0:0:0:0:
356,116,94340,2,0,P|300:100|228:136,1,135.000005149842,8|2,0:0|0:0,0:0:0:0:
304,200,94895,1,0,0:0:0:0:
252,276,95080,6,0,P|193:305|128:290,1,135.000005149842,2|0,0:0|0:0,0:0:0:0:
56,72,95821,2,0,L|36:208,1,135.000005149842,8|0,0:0|0:0,0:0:0:0:
148,144,96377,2,0,P|240:124|340:160,1,202.500007724762,2|2,0:0|0:0,0:0:0:0:
232,332,97303,2,0,P|224:264|272:208,1,135.000005149842,8|0,0:0|0:0,0:0:0:0:
408,96,98043,5,2,0:0:0:0:
492,268,98414,1,2,0:0:0:0:
304,288,98784,2,0,L|144:268,1,135.000005149842,8|0,0:0|0:0,0:0:0:0:
92,216,99340,2,0,P|84:172|92:132,1,67.5000025749208,2|8,0:0|3:0,0:0:0:0:
170,271,99895,1,6,3:0:0:0:
364,184,100265,1,8,0:0:0:0:
304,288,100451,1,8,0:0:0:0:
252,164,100636,1,10,3:0:0:0:
425,288,100821,1,4,3:0:0:0:
226,383,101006,1,6,0:0:0:0:
256,192,101099,12,6,106932,0:0:0:0:
316,120,133784,5,8,0:0:0:0:
336,136,134340,1,8,0:0:0:0:
356,152,134895,2,0,P|387:203|371:275,1,135.000005149842,4|8,3:0|3:0,0:0:0:0:
340,344,135636,1,8,3:0:0:0:
256,224,135821,1,8,3:0:0:0:
412,244,136006,1,8,3:0:0:0:
240,336,136191,1,4,3:0:0:0:
206,333,136283,1,4,3:0:0:0:
174,322,136376,1,4,3:0:0:0:
92,220,136562,6,0,P|100:172|124:144,1,76.5000014591217,2|0,0:0|0:0,0:0:0:0:
256,224,136932,2,0,P|212:224|180:212,1,76.5000014591217,8|0,0:0|0:0,0:0:0:0:
112,76,137303,2,0,L|100:-4,1,76.5000014591217,2|0,0:0|0:0,0:0:0:0:
32,144,137673,2,0,L|20:224,1,76.5000014591217,8|0,0:0|0:0,0:0:0:0:
172,128,138043,1,2,0:0:0:0:
92,220,138228,1,0,0:0:0:0:
174,322,138414,2,0,P|216:328|256:324,1,76.5000014591217,8|0,0:0|0:0,0:0:0:0:
172,128,138784,2,0,L|164:208,1,76.5000014591217,2|0,0:0|0:0,0:0:0:0:
264,168,139154,2,0,L|272:88,1,76.5000014591217,8|0,0:0|0:0,0:0:0:0:
92,220,139525,6,0,L|84:300,1,76.5000014591217,2|0,0:0|0:0,0:0:0:0:
236,272,139895,1,8,0:0:0:0:
264,168,140080,2,0,P|240:112|212:84,1,76.5000014591217,0|2,0:0|0:0,0:0:0:0:
128,140,140451,2,0,L|44:128,2,76.5000014591217,0|8|0,0:0|0:0|0:0,0:0:0:0:
236,272,141006,1,2,0:0:0:0:
92,220,141191,1,0,0:0:0:0:
264,168,141377,2,0,L|339:157,1,76.5000014591217,8|0,0:0|0:0,0:0:0:0:
309,286,141747,2,0,P|271:285|236:272,1,76.5000014591217,2|0,0:0|0:0,0:0:0:0:
128,140,142117,2,0,L|116:216,1,76.5000014591217,8|0,0:0|0:0,0:0:0:0:
304,76,142488,5,2,0:0:0:0:
352,204,142673,1,0,0:0:0:0:
224,128,142858,2,0,L|216:48,1,76.5000014591217,8|0,0:0|0:0,0:0:0:0:
144,208,143228,2,0,P|92:216|52:200,1,76.5000014591217,2|0,0:0|0:0,0:0:0:0:
264,200,143599,2,0,P|296:241|303:283,1,76.5000014591217,8|0,0:0|0:0,0:0:0:0:
108,144,143969,1,2,0:0:0:0:
40,280,144154,1,0,0:0:0:0:
204,360,144340,2,0,L|284:344,1,76.5000014591217,8|0,0:0|0:0,0:0:0:0:
144,208,144710,2,0,L|117:285,1,76.5000014591217,2|0,0:0|0:0,0:0:0:0:
272,60,145080,2,0,L|218:-1,1,76.5000014591217,8|0,0:0|0:0,0:0:0:0:
220,204,145451,6,0,P|296:220|364:168,1,161.999995056153,2|8,0:0|0:0,0:0:0:0:
364,60,146006,1,0,0:0:0:0:
460,208,146191,2,0,L|472:292,1,80.9999975280763,2|0,0:0|0:0,0:0:0:0:
280,136,146562,2,0,L|204:104,1,80.9999975280763,8|0,0:0|0:0,0:0:0:0:
76,296,146932,2,0,P|124:356|216:352,1,161.999995056153,2|8,0:0|0:0,0:0:0:0:
144,220,147488,1,0,0:0:0:0:
363,143,147673,5,8,3:0:0:0:
417,154,147765,1,8,3:0:0:0:
458,192,147858,1,8,3:0:0:0:
473,246,147950,1,8,3:0:0:0:
457,300,148043,1,4,3:0:0:0:
416,338,148135,1,4,3:0:0:0:
361,348,148228,1,4,3:0:0:0:
308,329,148321,1,4,3:0:0:0:
274,285,148413,1,6,0:0:0:0:
194,141,148599,5,0,0:0:0:0:
371,246,148784,2,0,P|381:305|377:353,1,90,8|0,0:0|0:0,0:0:0:0:
296,152,149154,1,2,0:0:0:0:
473,246,149340,1,0,0:0:0:0:
232,352,149525,2,0,P|160:312|144:276,1,90,8|0,0:0|0:0,0:0:0:0:
40,76,149895,5,2,0:0:0:0:
84,196,150080,2,0,L|60:288,1,90,0|8,0:0|0:0,0:0:0:0:
204,88,150451,1,0,0:0:0:0:
0,156,150636,1,2,0:0:0:0:
160,256,150821,2,0,P|208:268|248:264,1,90,0|8,0:0|0:0,0:0:0:0:
376,168,151191,6,0,L|400:268,2,90,0|2|0,0:0|0:0|0:0,0:0:0:0:
188,344,151747,2,0,P|144:347|101:336,1,90,8|0,0:0|0:0,0:0:0:0:
168,208,152117,1,2,0:0:0:0:
28,368,152303,1,0,0:0:0:0:
0,184,152488,2,0,L|24:92,1,90,8|0,0:0|0:0,0:0:0:0:
204,36,152858,5,2,0:0:0:0:
100,168,153043,1,0,0:0:0:0:
37,11,153228,1,8,0:0:0:0:
168,208,153414,1,0,0:0:0:0:
11,270,153599,1,2,0:0:0:0:
35,102,153784,1,0,0:0:0:0:
152,296,153969,2,0,P|140:344|116:380,1,90,8|0,0:0|0:0,0:0:0:0:
100,168,154340,6,0,P|157:130|244:184,1,180,6|8,0:0|0:0,0:0:0:0:
112,272,154895,1,0,0:0:0:0:
28,212,155080,2,0,P|20:176|28:116,1,90,2|0,0:0|0:0,0:0:0:0:
168,208,155451,1,8,0:0:0:0:
12,312,155636,1,0,0:0:0:0:
196,372,155821,6,0,P|256:360|284:344,1,90,2|0,0:0|0:0,0:0:0:0:
236,176,156191,1,8,0:0:0:0:
344,256,156377,2,0,L|436:268,1,90,0|2,0:0|0:0,0:0:0:0:
168,256,156747,2,0,L|76:268,1,90,0|8,0:0|0:0,0:0:0:0:
156,160,157117,1,0,0:0:0:0:
252,240,157303,6,0,P|240:308|212:328,1,90,2|0,0:0|0:0,0:0:0:0:
56,148,157673,1,8,0:0:0:0:
108,344,157858,1,0,0:0:0:0:
240,152,158043,2,0,P|304:128|336:142,1,90,2|0,0:0|0:0,0:0:0:0:
424,208,158414,1,8,0:0:0:0:
169,206,158599,6,0,P|116:161|112:127,1,90,0|2,0:0|0:0,0:0:0:0:
296,204,158969,2,0,L|316:308,1,90,0|8,0:0|0:0,0:0:0:0:
189,132,159340,1,0,0:0:0:0:
233,320,159525,1,2,0:0:0:0:
373,187,159710,1,0,0:0:0:0:
153,288,159895,2,0,P|104:273|81:242,1,90,8|0,0:0|0:0,0:0:0:0:
320,377,160265,5,6,0:0:0:0:
320,377,160451,1,0,0:0:0:0:
256,268,160636,2,0,L|264:172,1,90,8|0,0:0|0:0,0:0:0:0:
356,264,161006,1,2,0:0:0:0:
152,115,161191,2,0,L|144:204,2,90,0|8|0,0:0|0:0|0:0,0:0:0:0:
289,304,161747,5,0,0:0:0:0:
368,168,161932,1,0,0:0:0:0:
152,259,162117,1,8,0:0:0:0:
289,71,162303,1,0,0:0:0:0:
289,304,162488,1,2,0:0:0:0:
152,115,162673,5,0,0:0:0:0:
57,329,162858,1,8,0:0:0:0:
0,120,163043,1,0,0:0:0:0:
300,144,163228,6,0,P|348:120|364:88,1,90,2|0,0:0|0:0,0:0:0:0:
200,172,163599,2,0,L|220:352,1,180,8|2,0:0|0:0,0:0:0:0:
304,256,164154,2,0,P|348:272|380:308,2,90,0|8|0,0:0|0:0|0:0,0:0:0:0:
122,303,164710,5,0,0:0:0:0:
242,91,164895,1,0,0:0:0:0:
122,303,165080,1,8,0:0:0:0:
344,228,165265,1,0,0:0:0:0:
72,110,165451,1,2,0:0:0:0:
72,110,165636,1,0,0:0:0:0:
232,281,165821,5,8,0:0:0:0:
203,38,166006,1,0,0:0:0:0:
424,204,166191,6,0,P|412:280|296:296,1,180,6|8,0:0|0:0,0:0:0:0:
192,128,166747,2,0,L|204:32,1,90,0|2,0:0|0:0,0:0:0:0:
344,228,167117,2,0,L|356:324,1,90,0|8,0:0|0:0,0:0:0:0:
328,112,167488,1,0,0:0:0:0:
216,248,167673,6,0,P|156:236|124:196,1,90,2|0,0:0|0:0,0:0:0:0:
336,192,168043,1,8,0:0:0:0:
388,288,168228,2,0,P|404:348|396:376,1,90,0|2,0:0|0:0,0:0:0:0:
200,172,168599,2,0,P|196:116|216:76,2,90,0|8|0,0:0|0:0|0:0,0:0:0:0:
288,52,169154,6,0,P|240:12|196:8,1,90,2|0,0:0|0:0,0:0:0:0:
196,252,169525,2,0,P|254:230|280:194,1,90,8|0,0:0|0:0,0:0:0:0:
96,140,169895,1,2,0:0:0:0:
60,348,170080,1,0,0:0:0:0:
60,348,170265,1,8,0:0:0:0:
232,184,170451,6,0,P|280:180|320:192,1,90,0|2,0:0|0:0,0:0:0:0:
68,136,170821,1,0,0:0:0:0:
196,252,171006,1,8,0:0:0:0:
332,112,171191,2,0,L|376:128,1,45,8|8,3:0|3:0,0:0:0:0:
228,96,171377,2,0,L|219:49,1,45,8|8,3:0|3:0,0:0:0:0:
266,194,171562,2,0,L|230:224,1,45,4|4,3:0|3:0,0:0:0:0:
88,156,171747,1,8,0:0:0:0:
88,156,171840,1,8,0:0:0:0:
88,156,171932,1,8,0:0:0:0:
88,156,172025,1,8,0:0:0:0:
88,156,172117,6,0,L|96:256,1,90,6|0,0:0|0:0,0:0:0:0:
40,360,172488,1,8,0:0:0:0:
266,194,172673,2,0,P|330:202|362:218,1,90,0|2,0:0|0:0,0:0:0:0:
348,24,173043,2,0,P|383:78|391:112,1,90,0|8,0:0|0:0,0:0:0:0:
292,272,173414,1,0,0:0:0:0:
88,156,173599,5,2,0:0:0:0:
88,156,173784,1,0,0:0:0:0:
290,37,173969,1,8,0:0:0:0:
412,220,174154,2,0,L|504:232,1,90,0|2,0:0|0:0,0:0:0:0:
247,194,174525,2,0,P|266:235|292:272,1,90,0|8,0:0|0:0,0:0:0:0:
290,37,174895,1,0,0:0:0:0:
88,156,175080,6,0,L|104:260,1,90,2|0,0:0|0:0,0:0:0:0:
303,125,175451,2,0,L|287:21,1,90,8|0,0:0|0:0,0:0:0:0:
292,272,175821,1,2,0:0:0:0:
101,244,176006,1,0,0:0:0:0:
219,92,176191,1,8,0:0:0:0:
364,243,176377,1,0,0:0:0:0:
95,322,176562,6,0,P|40:296|28:272,1,90,2|0,0:0|0:0,0:0:0:0:
298,194,176932,2,0,P|353:220|365:244,1,90,8|0,0:0|0:0,0:0:0:0:
197,177,177303,2,0,B|201:129|201:129|221:86,1,90,2|0,0:0|0:0,0:0:0:0:
452,104,177673,1,8,0:0:0:0:
436,228,177858,1,8,0:0:0:0:
399,278,177950,1,8,0:0:0:0:
345,309,178043,6,0,P|292:316|256:312,1,90,6|0,0:0|0:0,0:0:0:0:
135,146,178414,1,8,0:0:0:0:
329,209,178599,1,0,0:0:0:0:
135,272,178784,2,0,P|128:324|136:372,1,90,2|0,0:0|0:0,0:0:0:0:
255,107,179154,2,0,L|256:12,1,90,8|0,0:0|0:0,0:0:0:0:
380,93,179525,5,2,0:0:0:0:
204,223,179710,1,0,0:0:0:0:
404,310,179895,1,8,0:0:0:0:
135,272,180080,2,0,P|67:288|35:308,1,90,0|2,0:0|0:0,0:0:0:0:
116,176,180451,2,0,P|108:128|80:76,1,90,0|8,0:0|0:0,0:0:0:0:
204,223,180821,1,0,0:0:0:0:
284,128,181006,6,0,L|288:36,1,90,2|0,0:0|0:0,0:0:0:0:
400,220,181377,2,0,L|404:312,1,90,8|0,0:0|0:0,0:0:0:0:
468,116,181747,1,2,0:0:0:0:
404,312,181932,1,0,0:0:0:0:
468,116,182117,1,8,0:0:0:0:
204,223,182303,6,0,P|132:208|108:112,1,180
280,204,182858,2,0,P|280:244|244:292,1,90,8|0,0:0|0:0,0:0:0:0:
107,114,183228,1,2,0:0:0:0:
276,200,183414,1,0,0:0:0:0:
48,292,183599,1,8,0:0:0:0:
272,360,183784,1,8,0:0:0:0:
331,345,183876,1,8,0:0:0:0:
368,295,183969,6,0,B|383:239|375:199|360:215|352:175|368:119,1,180,6|8,0:0|0:0,0:0:0:0:
452,240,184525,1,0,0:0:0:0:
280,204,184710,2,0,P|244:172|228:128,1,90,2|0,0:0|0:0,0:0:0:0:
456,120,185080,2,0,P|428:164|392:184,1,90,8|0,0:0|0:0,0:0:0:0:
176,216,185451,2,0,P|112:248|68:368,1,180,2|8,0:0|0:0,0:0:0:0:
8,200,186006,1,0,0:0:0:0:
188,332,186191,2,0,P|248:336|292:308,1,90,2|0,0:0|0:0,0:0:0:0:
208,72,186562,1,8,0:0:0:0:
181,198,186747,1,0,0:0:0:0:
72,112,186932,6,0,L|-20:96,1,90,2|0,0:0|0:0,0:0:0:0:
224,268,187303,2,0,L|312:252,1,90,8|0,0:0|0:0,0:0:0:0:
88,192,187673,1,2,0:0:0:0:
60,340,187858,1,0,0:0:0:0:
181,198,188043,1,8,0:0:0:0:
157,49,188228,1,0,0:0:0:0:
300,100,188414,6,0,P|348:116|392:112,1,90,2|0,0:0|0:0,0:0:0:0:
444,0,188784,1,8,0:0:0:0:
268,172,188969,1,8,3:0:0:0:
235,224,189061,1,8,3:0:0:0:
237,286,189154,1,8,3:0:0:0:
274,337,189246,1,8,3:0:0:0:
332,358,189339,1,4,3:0:0:0:
392,343,189431,1,4,3:0:0:0:
434,297,189524,1,8,0:0:0:0:
434,297,189617,1,8,0:0:0:0:
434,297,189710,1,8,0:0:0:0:
434,297,189803,1,8,0:0:0:0:
434,297,189895,6,0,L|444:180,1,90,6|0,0:0|0:0,0:0:0:0:
248,48,190265,1,8,0:0:0:0:
125,333,190451,1,0,0:0:0:0:
452,264,190636,2,0,L|441:147,1,90,2|0,0:0|0:0,0:0:0:0:
225,52,191006,1,8,0:0:0:0:
154,354,191192,1,0,0:0:0:0:
464,230,191377,6,0,L|433:116,1,90,2|0,0:0|0:0,0:0:0:0:
204,59,191747,1,8,0:0:0:0:
186,369,191933,1,0,0:0:0:0:
469,194,192117,2,0,L|419:87,1,90,2|0,0:0|0:0,0:0:0:0:
184,71,192488,1,8,0:0:0:0:
220,379,192673,1,0,0:0:0:0:
467,157,192858,6,0,L|399:60,1,90,2|0,0:0|0:0,0:0:0:0:
424,328,193228,1,8,0:0:0:0:
144,200,193414,1,0,0:0:0:0:
394,56,193599,2,0,L|458:120,1,90,2|0,0:0|0:0,0:0:0:0:
304,320,193969,1,8,0:0:0:0:
184,71,194154,1,0,0:0:0:0:
80,304,194340,6,0,P|24:340|-16:336,1,90,2|0,0:0|0:0,0:0:0:0:
112,36,194710,1,8,0:0:0:0:
112,36,194895,1,0,0:0:0:0:
168,280,195080,2,0,P|159:346|130:374,1,90,2|0,0:0|0:0,0:0:0:0:
6,76,195450,1,8,0:0:0:0:
6,76,195635,1,0,0:0:0:0:
341,238,195821,6,0,P|389:226|420:196,1,90,2|0,0:0|0:0,0:0:0:0:
172,384,196191,1,8,0:0:0:0:
62,96,196377,1,0,0:0:0:0:
349,160,196562,2,0,P|378:119|382:77,1,90,2|0,0:0|0:0,0:0:0:0:
313,380,196932,1,8,0:0:0:0:
43,230,197118,1,0,0:0:0:0:
304,95,197303,6,0,P|300:45|276:9,1,90,2|0,0:0|0:0,0:0:0:0:
418,286,197673,1,8,0:0:0:0:
115,345,197859,1,0,0:0:0:0:
227,74,198043,2,0,P|192:38|151:26,1,90,2|0,0:0|0:0,0:0:0:0:
439,142,198413,1,8,0:0:0:0:
245,382,198599,1,0,0:0:0:0:
154,107,198784,6,0,L|143:206,1,90,2|0,0:0|0:0,0:0:0:0:
430,223,199154,2,0,L|441:322,1,90,8|0,0:0|0:0,0:0:0:0:
227,74,199525,1,2,0:0:0:0:
167,352,199710,1,0,0:0:0:0:
360,184,199895,2,0,L|371:85,1,90,8|0,0:0|0:0,0:0:0:0:
233,211,200265,6,0,L|241:258,1,45,10|8,3:0|3:0,0:0:0:0:
161,151,200451,2,0,L|153:106,1,45,8|8,3:0|3:0,0:0:0:0:
114,233,200636,2,0,L|122:280,1,45,8|8,3:0|3:0,0:0:0:0:
42,173,200821,2,0,L|34:128,1,45,8|8,3:0|3:0,0:0:0:0:
40,312,201006,5,6,3:0:0:0:
79,354,201098,1,4,3:0:0:0:
135,363,201191,1,4,3:0:0:0:
186,337,201283,1,4,3:0:0:0:
211,285,201376,1,4,3:0:0:0:
202,227,201469,1,4,3:0:0:0:
220,172,201562,1,4,3:0:0:0:
261,130,201654,1,4,3:0:0:0:
320,116,201747,6,0,P|416:136|432:312,1,270,6|0,0:0|0:0,0:0:0:0:
345,231,202488,1,8,0:0:0:0:
345,231,202673,2,0,P|281:218|173:260,1,180
96,356,203228,2,0,L|80:248,1,90,2|0,0:0|0:0,0:0:0:0:
204,104,203599,2,0,L|188:212,1,90
96,108,203969,2,0,L|112:0,1,90,8|0,0:0|0:0,0:0:0:0:
232,168,204340,1,0,0:0:0:0:
109,18,204525,1,0,0:0:0:0:
276,44,204710,6,0,P|300:100|288:148,1,90,2|0,0:0|0:0,0:0:0:0:
244,240,205080,2,0,L|240:308,2,45,8|8|8,3:0|3:0|3:0,0:0:0:0:
204,104,205451,1,8,0:0:0:0:
112,248,205636,1,8,3:0:0:0:
272,160,205821,2,0,P|320:176|344:208,1,90,8|8,3:0|3:0,0:0:0:0:
96,108,206191,2,0,L|84:12,1,90,8|8,3:0|3:0,0:0:0:0:
112,248,206562,1,4,3:0:0:0:
204,104,206747,1,4,3:0:0:0:
244,240,206932,5,10,0:0:0:0:
244,240,207117,2,0,P|312:264|376:244,1,135.000005149842
416,164,207673,5,6,0:0:0:0:
416,164,208043,2,0,P|456:216|456:284,2,135.000005149842,0|8|0,0:0|0:0|0:0,0:0:0:0:
312,168,208969,1,2,0:0:0:0:
312,168,209525,2,0,P|276:200|192:208,1,135.000005149842,2|8,0:0|0:0,0:0:0:0:
64,140,210265,1,0,0:0:0:0:
8,216,210451,6,0,P|40:296|160:312,1,202.500007724762
320,240,211377,2,0,L|464:264,1,135.000005149842,8|0,0:0|0:0,0:0:0:0:
348,104,212117,1,2,0:0:0:0:
348,104,212488,1,2,0:0:0:0:
236,256,212858,2,0,P|180:276|96:244,1,135.000005149842,8|2,0:0|0:0,0:0:0:0:
72,168,213414,2,0,L|144:180,1,67.5000025749208,0|2,0:0|0:0,0:0:0:0:
138,179,214340,6,0,P|196:160|272:160,1,135.000005149842,8|0,0:0|0:0,0:0:0:0:
352,208,214895,2,0,P|432:156|416:48,1,202.500007724762,2|2,0:0|0:0,0:0:0:0:
269,159,215821,2,0,P|253:239|273:311,1,135.000005149842,8|0,0:0|0:0,0:0:0:0:
172,268,216377,6,0,P|136:260|104:264,1,67.5000025749208,0|2,0:0|0:0,0:0:0:0:
20,368,216932,1,2,0:0:0:0:
80,188,217303,2,0,L|96:48,1,135.000005149842
95,53,217858,1,2,0:0:0:0:
95,53,218414,1,2,0:0:0:0:
176,100,218599,2,0,L|184:168,1,67.5000025749208,0|8,0:0|0:0,0:0:0:0:
272,204,218969,1,0,0:0:0:0:
196,308,219154,1,2,0:0:0:0:
112,176,219340,1,8,3:0:0:0:
300,280,219525,6,0,P|360:272|424:224,2,135.000005149842,6|0|8,0:0|0:0|0:0,0:0:0:0:
112,264,220636,2,0,L|96:332,1,67.5000025749208,0|2,0:0|0:0,0:0:0:0:
196,308,221006,1,0,0:0:0:0:
200,212,221191,2,0,L|160:156,1,67.5000025749208,0|2,0:0|0:0,0:0:0:0:
280,248,221562,2,0,L|285:179,1,67.5000025749208,0|8,0:0|0:0,0:0:0:0:
318,327,221932,2,0,L|366:277,1,67.5000025749208
408,192,222303,1,0,0:0:0:0:
356,112,222488,6,0,P|312:84|228:100,1,135.000005149842,2|0,0:0|0:0,0:0:0:0:
275,296,223228,2,0,L|287:162,1,135.000005149842,8|0,0:0|0:0,0:0:0:0:
207,347,223969,2,0,P|251:375|335:359,1,135.000005149842,2|2,0:0|0:0,0:0:0:0:
200,224,224710,2,0,P|128:256|80:320,1,135.000005149842,8|2,0:0|0:0,0:0:0:0:
16,356,225265,6,0,L|24:264,1,67.5000025749208,0|2,0:0|0:0,0:0:0:0:
56,104,225821,1,0,0:0:0:0:
176,248,226191,2,0,P|236:288|304:272,1,135.000005149842,8|0,0:0|0:0,0:0:0:0:
366,218,226747,1,2,0:0:0:0:
366,218,227303,2,0,L|378:84,1,135.000005149842,2|8,0:0|0:0,0:0:0:0:
454,29,227858,2,0,L|466:164,1,135.000005149842
372,144,228414,1,2,0:0:0:0:
372,144,228599,2,0,P|324:112|248:116,1,135.000005149842
388,220,229154,1,8,0:0:0:0:
388,220,229340,6,0,P|436:252|512:248,1,135.000005149842,0|2,0:0|0:0,0:0:0:0:
344,144,229896,1,0,0:0:0:0:
344,144,230081,2,0,P|293:169|258:237,1,135.000005149842,2|2,0:0|0:0,0:0:0:0:
292,324,230636,1,8,0:0:0:0:
388,220,230822,1,8,3:0:0:0:
444,352,231007,2,0,P|484:364|516:360,1,67.5000025749208,6|4,3:0|3:0,0:0:0:0:
272,236,231377,6,0,P|216:252|168:316,2,135.000005149842,6|0|8,0:0|0:0|0:0,0:0:0:0:
352,288,232303,2,0,L|376:156,1,135.000005149842,0|2,0:0|0:0,0:0:0:0:
452,84,232859,1,0,0:0:0:0:
452,84,233044,2,0,P|456:132|476:160,1,67.5000025749208,0|2,0:0|0:0,0:0:0:0:
344,80,233414,2,0,P|310:113|302:147,1,67.5000025749208,0|8,0:0|0:0,0:0:0:0:
400,208,233785,2,0,P|388:161|364:137,1,67.5000025749208
232,80,234155,1,0,0:0:0:0:
168,148,234340,6,0,L|156:300,1,135.000005149842,2|0,0:0|0:0,0:0:0:0:
84,80,235081,2,0,L|72:232,1,135.000005149842,8|0,0:0|0:0,0:0:0:0:
232,80,235822,2,0,P|304:68|376:120,1,135.000005149842,2|2,0:0|0:0,0:0:0:0:
228,232,236562,2,0,P|212:308|232:372,1,135.000005149842,8|2,0:0|0:0,0:0:0:0:
136,232,237118,6,0,L|116:84,1,135.000005149842
212,80,237673,2,0,L|208:152,1,67.5000025749208
228,232,238044,2,0,P|284:264|352:248,1,135.000005149842,8|0,0:0|0:0,0:0:0:0:
412,180,238599,1,2,0:0:0:0:
464,260,238785,1,0,0:0:0:0:
464,260,238970,2,0,P|464:312|452:344,1,67.5000025749208,0|2,0:0|0:0,0:0:0:0:
312,368,239340,2,0,P|312:316|324:284,1,67.5000025749208,0|8,0:0|0:0,0:0:0:0:
392,208,239710,2,0,P|392:260|380:292,1,67.5000025749208
308,184,240081,1,0,0:0:0:0:
308,184,240266,6,0,P|368:124|428:128,1,135.000005149842,2|2,0:0|0:0,0:0:0:0:
388,312,241007,2,0,B|316:352|316:352|252:344,1,135.000005149842,8|0,0:0|0:0,0:0:0:0:
192,284,241562,1,2,0:0:0:0:
192,284,242118,1,2,0:0:0:0:
156,196,242303,2,0,L|168:128,1,67.5000025749208,0|8,0:0|0:0,0:0:0:0:
296,68,242673,1,0,0:0:0:0:
248,168,242859,1,2,0:0:0:0:
64,80,243044,1,8,3:0:0:0:
104,260,243229,6,0,P|188:276|228:240,1,135.000005149842,2|0,0:0|0:0,0:0:0:0:
296,68,243970,1,8,0:0:0:0:
296,68,244340,2,0,P|336:92|380:100,1,67.5000025749208,0|2,0:0|0:0,0:0:0:0:
444,68,244710,2,0,L|476:4,2,67.5000025749208,0|0|2,0:0|0:0|0:0,0:0:0:0:
420,160,245266,2,0,P|424:216|436:248,1,67.5000025749208,0|8,0:0|0:0,0:0:0:0:
332,220,245636,2,0,P|328:264|332:308,1,67.5000025749208
248,240,246007,6,0,P|176:228|116:260,1,135.000005149842
148,344,246562,1,0,0:0:0:0:
224,144,246933,2,0,L|236:8,1,135.000005149842,8|0,0:0|0:0,0:0:0:0:
320,176,247673,1,2,0:0:0:0:
420,16,248044,1,2,0:0:0:0:
224,144,248414,2,0,P|196:208|236:284,1,135.000005149842,8|2,0:0|0:0,0:0:0:0:
360,324,248970,6,0,L|220:344,1,135.000005149842
227,343,249525,1,0,0:0:0:0:
284,204,249896,2,0,B|281:171|264:134|262:152|237:119|239:79,1,135.000005149842,8|0,0:0|0:0,0:0:0:0:
164,136,250451,2,0,P|66:124|1:49,1,202.500007724762,2|2,0:0|0:0,0:0:0:0:
124,16,251377,2,0,L|65:138,1,135.000005149842,8|0,0:0|0:0,0:0:0:0:
100,228,251933,6,0,P|104:280|92:312,1,67.5000025749208,0|2,0:0|0:0,0:0:0:0:
101,294,252488,1,2,0:0:0:0:
276,228,252859,2,0,P|364:236|408:272,1,135.000005149842,8|0,0:0|0:0,0:0:0:0:
372,352,253414,1,2,0:0:0:0:
316,152,253785,1,10,3:0:0:0:
512,200,254155,1,10,3:0:0:0:
428,240,254340,2,0,P|400:200|392:168,1,67.5000025749208,8|8,0:0|0:0,0:0:0:0:
346,92,254710,2,0,P|335:124|316:152,1,67.5000025749208,6|4,3:0|3:0,0:0:0:0:
228,188,255084,5,6,0:0:0:0:
