osu file format v14

[General]
AudioFilename: Carpenter Brut - Paradise Warfare & Run, Sally, Run!.mp3
AudioLeadIn: 0
PreviewTime: 148414
Countdown: 1
SampleSet: Normal
StackLeniency: 0.7
Mode: 0
LetterboxInBreaks: 1
WidescreenStoryboard: 0

[Editor]
Bookmarks: 255084
DistanceSpacing: 1.4
BeatDivisor: 4
GridSize: 4
TimelineZoom: 2.3

[Metadata]
Title:Paradise Warfare & Run, Sally, Run!
TitleUnicode:Paradise Warfare & Run, Sally, Run!
Artist:Carpenter Brut
ArtistUnicode:Carpenter Brut
Creator:BrianTheDrummer
Version:Incursion
Source:
Tags:EP III Synthwave Instrumental
BeatmapID:738942
BeatmapSetID:333956

[Difficulty]
HPDrainRate:6
CircleSize:4
OverallDifficulty:7
ApproachRate:9
SliderMultiplier:1.8
SliderTickRate:1

[Events]
//Background and Video events
0,0,"Carpenter Brut EP III.jpg",0,0
//Break Periods
2,53799,64851
2,107132,133184
//Storyboard Layer 0 (Background)
//Storyboard Layer 1 (Fail)
//Storyboard Layer 2 (Pass)
//Storyboard Layer 3 (Foreground)
//Storyboard Sound Samples

[TimingPoints]
266,370.37037037037,4,1,1,60,1,0
636,-111.111111111111,4,1,1,60,0,0
1006,-125,4,1,1,60,0,0
1377,-142.857142857143,4,1,1,60,0,0
1747,-166.666666666667,4,1,1,60,0,0
2488,-133.333333333333,4,1,1,60,0,0
3228,-117.647058823529,4,1,1,60,0,0
3599,-100,4,1,1,60,0,0
5265,-166.666666666667,4,1,1,60,0,0
6191,-133.333333333333,4,1,1,60,0,0
29895,-133.333333333333,4,1,2,60,0,0
65451,-133.333333333333,4,1,1,60,0,0
77303,-133.333333333333,4,1,2,60,0,0
133784,-133.333333333333,4,1,1,60,0,0
136562,-117.647058823529,4,1,1,60,0,0
145451,-111.111111111111,4,1,1,60,0,0
148414,-100,4,1,2,70,0,1
171747,-100,4,1,1,70,0,1
172117,-100,4,1,2,70,0,1
189525,-100,4,1,1,70,0,0
189895,-100,4,1,2,70,0,1
206932,-133.333333333333,4,1,1,60,0,0
231377,-133.333333333333,4,1,2,60,0,0
255084,468.75,4,1,1,50,1,0
382584,-95.2380952380952,4,1,1,50,0,0
427584,-90.9090909090909,4,1,1,50,0,0
455709,-90.9090909090909,4,1,2,40,0,0
457584,-80,4,1,2,70,0,1
472115,-80,4,1,2,50,0,1
472584,-80,4,1,2,70,0,1
517584,-133.333333333333,4,2,1,30,0,0
521099,-133.333333333333,4,2,1,5,0,0
521334,-133.333333333333,4,2,1,20,0,0
524849,-133.333333333333,4,2,1,5,0,0
525084,-133.333333333333,4,2,1,15,0,0
528365,-142.857142857143,4,2,1,5,0,0
528834,-142.857142857143,4,2,1,15,0,0
532584,-142.857142857143,4,2,1,5,0,0

[Colours]
Combo1 : 128,128,0
Combo2 : 128,0,0
Combo3 : 245,141,71
Combo4 : 128,64,64
Combo5 : 63,63,63

[HitObjects]
160,88,266,6,0,L|252:84,1,90
224,160,636,2,0,L|312:156,1,80.9999975280763
288,232,1006,2,0,L|372:228,1,72
352,304,1377,2,0,L|436:300,1,62.9999980773926
272,356,1747,6,0,L|200:352,3,53.9999983520508
152,284,2488,2,0,P|152:240|160:204,3,67.5000025749208
268,104,3228,6,0,L|240:184,1,76.5000014591217
408,104,3599,2,0,L|336:160,1,90
500,192,3969,1,0,0:0:0:0:
420,288,4154,1,0,0:0:0:0:
296,256,4340,1,0,0:0:0:0:
268,104,4525,1,0,0:0:0:0:
128,272,4710,1,8,0:0:0:0:
140,284,5265,5,0,0:0:0:0:
140,284,5451,1,0,0:0:0:0:
140,284,5636,2,0,P|184:280|232:240,1,107.999996704102
157,53,6191,6,0,L|150:189,1,135.000005149842,6|0,0:0|0:0,0:0:0:0:
270,115,6932,1,8,0:0:0:0:
275,112,7117,2,0,P|346:101|399:168,1,135.000005149842,0|2,0:0|0:0,0:0:0:0:
416,230,7673,1,0,0:0:0:0:
416,230,7858,2,0,L|473:271,1,67.5000025749208,0|2,0:0|0:0,0:0:0:0:
316,234,8228,2,0,L|344:298,1,67.5000025749208,0|8,0:0|0:0,0:0:0:0:
227,187,8599,2,0,L|219:256,1,67.5000025749208
152,140,8969,6,0,L|120:4,1,135.000005149842
52,72,9525,1,0,0:0:0:0:
52,72,9895,2,0,L|44:216,1,135.000005149842,8|0,0:0|0:0,0:0:0:0:
200,316,10636,1,2,0:0:0:0:
124,144,11006,1,2,0:0:0:0:
124,144,11377,2,0,P|216:184|268:172,1,135.000005149842,8|2,0:0|0:0,0:0:0:0:
156,260,11932,6,0,L|16:296,1,135.000005149842
25,293,12488,1,0,0:0:0:0:
25,293,12858,2,0,P|64:236|60:152,1,135.000005149842,8|0,0:0|0:0,0:0:0:0:
36,84,13414,1,2,0:0:0:0:
216,32,13969,1,2,0:0:0:0:
216,32,14340,2,0,P|228:120|288:156,1,135.000005149842,8|0,0:0|0:0,0:0:0:0:
156,192,14895,6,0,P|112:260|180:344,1,202.500007724762,0|2,0:0|0:0,0:0:0:0:
292,236,15821,2,0,P|352:232|372:240,1,67.5000025749208,8|0,0:0|0:0,0:0:0:0:
440,284,16191,1,0,0:0:0:0:
488,200,16377,2,0,P|488:116|404:40,1,202.500007724762,2|2,0:0|0:0,0:0:0:0:
332,100,17117,2,0,L|256:92,1,67.5000025749208,0|8,0:0|0:0,0:0:0:0:
200,24,17488,1,0,0:0:0:0:
184,184,17673,1,2,0:0:0:0:
292,236,17858,1,4,3:0:0:0:
160,88,18043,6,0,P|96:140|87:202,1,135.000005149842,6|0,0:0|0:0,0:0:0:0:
233,298,18784,2,0,P|219:216|170:177,1,135.000005149842,8|0,0:0|0:0,0:0:0:0:
88,196,19340,1,2,0:0:0:0:
88,196,19525,2,0,L|59:260,1,67.5000025749208
144,271,19895,1,2,0:0:0:0:
144,271,20080,2,0,L|152:340,1,67.5000025749208,0|8,0:0|0:0,0:0:0:0:
233,298,20451,2,0,L|274:353,1,67.5000025749208
284,216,20821,6,0,P|240:168|164:172,1,135.000005149842
75,267,21377,1,0,0:0:0:0:
75,267,21747,2,0,P|142:273|204:248,1,135.000005149842,8|0,0:0|0:0,0:0:0:0:
148,32,22488,1,2,0:0:0:0:
128,192,22858,1,2,0:0:0:0:
268,268,23228,2,0,L|420:232,1,135.000005149842,8|2,0:0|0:0,0:0:0:0:
259,160,23784,6,0,L|107:196,1,135.000005149842
208,336,24340,1,0,0:0:0:0:
208,336,24710,2,0,P|288:356|340:324,1,135.000005149842,8|0,0:0|0:0,0:0:0:0:
316,240,25265,1,2,0:0:0:0:
316,240,25821,2,0,L|328:92,2,135.000005149842,2|8|0,0:0|0:0|0:0,0:0:0:0:
224,220,26747,1,0,0:0:0:0:
172,140,26932,6,0,P|192:80|252:40,2,135.000005149842,2|2|8,0:0|0:0|0:0,0:0:0:0:
124,220,27858,2,0,P|76:252|0:248,1,135.000005149842,0|2,0:0|0:0,0:0:0:0:
168,144,28414,1,0,0:0:0:0:
168,144,28599,2,0,P|219:169|254:237,1,135.000005149842,2|2,0:0|0:0,0:0:0:0:
220,324,29154,1,8,0:0:0:0:
124,220,29340,1,8,3:0:0:0:
68,352,29525,2,0,P|28:364|-4:360,1,67.5000025749208,6|4,3:0|3:0,0:0:0:0:
240,236,29895,6,0,P|296:252|344:316,2,135.000005149842,6|0|8,0:0|0:0|0:0,0:0:0:0:
160,288,30821,2,0,L|136:156,1,135.000005149842,0|2,0:0|0:0,0:0:0:0:
60,84,31377,1,0,0:0:0:0:
60,84,31562,2,0,P|56:132|36:160,1,67.5000025749208,0|2,0:0|0:0,0:0:0:0:
168,80,31932,2,0,P|202:113|210:147,1,67.5000025749208,0|8,0:0|0:0,0:0:0:0:
112,208,32303,2,0,P|124:161|148:137,1,67.5000025749208
280,80,32673,1,0,0:0:0:0:
344,148,32858,6,0,L|356:300,1,135.000005149842,2|0,0:0|0:0,0:0:0:0:
428,80,33599,2,0,L|440:232,1,135.000005149842,8|0,0:0|0:0,0:0:0:0:
280,80,34340,2,0,P|208:68|136:120,1,135.000005149842,2|2,0:0|0:0,0:0:0:0:
284,232,35080,2,0,P|300:308|280:372,1,135.000005149842,8|2,0:0|0:0,0:0:0:0:
376,232,35636,6,0,L|396:84,1,135.000005149842
300,80,36191,2,0,L|304:152,1,67.5000025749208
284,232,36562,2,0,P|228:264|160:248,1,135.000005149842,8|0,0:0|0:0,0:0:0:0:
100,180,37117,1,2,0:0:0:0:
48,260,37303,1,0,0:0:0:0:
48,260,37488,2,0,P|48:312|60:344,1,67.5000025749208,0|2,0:0|0:0,0:0:0:0:
200,368,37858,2,0,P|200:316|188:284,1,67.5000025749208,0|8,0:0|0:0,0:0:0:0:
120,208,38228,2,0,P|120:260|132:292,1,67.5000025749208
204,184,38599,1,0,0:0:0:0:
204,184,38784,6,0,P|144:124|84:128,1,135.000005149842,2|2,0:0|0:0,0:0:0:0:
124,312,39525,2,0,B|196:352|196:352|260:344,1,135.000005149842,8|0,0:0|0:0,0:0:0:0:
320,284,40080,1,2,0:0:0:0:
320,284,40636,1,2,0:0:0:0:
356,196,40821,2,0,L|344:128,1,67.5000025749208,0|8,0:0|0:0,0:0:0:0:
216,68,41191,1,0,0:0:0:0:
264,168,41377,1,2,0:0:0:0:
448,80,41562,1,8,3:0:0:0:
408,260,41747,6,0,P|324:276|284:240,1,135.000005149842,2|0,0:0|0:0,0:0:0:0:
216,68,42488,1,8,0:0:0:0:
216,68,42858,2,0,P|176:92|132:100,1,67.5000025749208,0|2,0:0|0:0,0:0:0:0:
68,68,43228,2,0,L|36:4,2,67.5000025749208,0|0|2,0:0|0:0|0:0,0:0:0:0:
92,160,43784,2,0,P|88:216|76:248,1,67.5000025749208,0|8,0:0|0:0,0:0:0:0:
180,220,44154,2,0,P|184:264|180:308,1,67.5000025749208
264,240,44525,6,0,P|336:228|396:260,1,135.000005149842
364,344,45080,1,0,0:0:0:0:
288,144,45451,2,0,L|276:8,1,135.000005149842,8|0,0:0|0:0,0:0:0:0:
192,176,46191,1,2,0:0:0:0:
92,16,46562,1,2,0:0:0:0:
288,144,46932,2,0,P|316:208|276:284,1,135.000005149842,8|2,0:0|0:0,0:0:0:0:
152,324,47488,6,0,L|292:344,1,135.000005149842
285,343,48043,1,0,0:0:0:0:
228,204,48414,2,0,B|231:171|248:134|250:152|275:119|273:79,1,135.000005149842,8|0,0:0|0:0,0:0:0:0:
348,136,48969,2,0,P|446:124|511:49,1,202.500007724762,2|2,0:0|0:0,0:0:0:0:
388,16,49895,2,0,L|447:138,1,135.000005149842,8|0,0:0|0:0,0:0:0:0:
412,228,50451,6,0,P|408:280|420:312,1,67.5000025749208,0|2,0:0|0:0,0:0:0:0:
411,294,51006,1,2,0:0:0:0:
236,228,51377,2,0,P|148:236|104:272,1,135.000005149842,8|0,0:0|0:0,0:0:0:0:
140,352,51932,1,2,0:0:0:0:
196,152,52303,1,10,3:0:0:0:
0,200,52673,1,10,3:0:0:0:
84,240,52858,2,0,P|112:200|120:168,1,67.5000025749208,8|8,0:0|0:0,0:0:0:0:
166,92,53228,2,0,P|177:124|196:152,1,67.5000025749208,6|4,3:0|3:0,0:0:0:0:
284,188,53599,1,6,0:0:0:0:
408,176,65451,5,2,0:0:0:0:
408,176,65821,2,0,P|336:216|268:188,1,135.000005149842,0|8,0:0|0:0,0:0:0:0:
228,132,66377,2,0,L|204:-4,1,135.000005149842,0|2,0:0|0:0,0:0:0:0:
292,32,66932,1,0,0:0:0:0:
148,156,67303,1,2,0:0:0:0:
304,260,67673,2,0,P|324:316|324:340,1,67.5000025749208,8|0,0:0|0:0,0:0:0:0:
232,308,68043,1,0,0:0:0:0:
148,344,68228,2,0,P|72:324|64:316,1,67.5000025749208,0|2,0:0|0:0,0:0:0:0:
12,156,68784,5,0,0:0:0:0:
12,156,69340,1,0,0:0:0:0:
104,16,69895,2,0,L|127:149,1,135.000005149842,2|2,0:0|0:0,0:0:0:0:
316,124,70636,2,0,L|300:268,1,135.000005149842,8|2,0:0|0:0,0:0:0:0:
220,208,71191,2,0,L|184:7,1,202.500007724762
12,84,72117,1,8,0:0:0:0:
200,100,72488,1,0,0:0:0:0:
140,200,72673,6,0,P|172:272|284:256,1,202.500007724762,2|2,0:0|0:0,0:0:0:0:
200,100,73599,2,0,L|208:176,2,67.5000025749208,8|0|0,0:0|0:0|0:0,0:0:0:0:
278,36,74340,2,0,P|296:88|348:152,1,135.000005149842,2|2,0:0|0:0,0:0:0:0:
508,244,75080,1,8,0:0:0:0:
432,300,75265,2,0,L|424:372,2,67.5000025749208,0|0|2,0:0|0:0|0:0,0:0:0:0:
368,192,75821,1,8,3:0:0:0:
244,376,76191,1,4,3:0:0:0:
116,240,76562,2,0,P|112:200|116:168,1,67.5000025749208,8|8,0:0|0:0,0:0:0:0:
224,252,76932,1,6,3:0:0:0:
144,88,77117,1,4,3:0:0:0:
368,192,77303,6,0,P|424:176|432:92,1,135.000005149842,6|0,0:0|0:0,0:0:0:0:
288,132,77858,1,0,0:0:0:0:
288,132,78043,2,0,L|268:268,1,135.000005149842,8|0,0:0|0:0,0:0:0:0:
196,328,78599,1,2,0:0:0:0:
184,348,79154,2,0,P|140:360|112:356,1,67.5000025749208,2|0,0:0|0:0,0:0:0:0:
144,268,79525,2,0,P|240:264|272:304,1,135.000005149842,8|0,0:0|0:0,0:0:0:0:
356,288,80080,1,0,0:0:0:0:
396,204,80265,6,0,L|384:64,1,135.000005149842,2|0,0:0|0:0,0:0:0:0:
262,286,81006,2,0,P|198:302|142:267,1,135.000005149842,8|0,0:0|0:0,0:0:0:0:
156,80,81747,1,2,0:0:0:0:
292,212,82117,2,0,B|336:252|336:252|380:240|412:276,1,135.000005149842,2|8,0:0|0:0,0:0:0:0:
405,269,82858,1,2,0:0:0:0:
352,156,83043,2,0,P|296:132|260:136,1,67.5000025749208,0|2,0:0|0:0,0:0:0:0:
188,292,83599,5,0,0:0:0:0:
64,132,83969,2,0,P|124:184|208:184,1,135.000005149842,8|0,0:0|0:0,0:0:0:0:
264,152,84525,2,0,B|297:155|334:172|316:174|349:199|389:197,1,135.000005149842,2|0,0:0|0:0,0:0:0:0:
448,268,85080,1,2,0:0:0:0:
281,366,85451,2,0,P|209:350|157:318,1,135.000005149842,8|0,0:0|0:0,0:0:0:0:
85,254,86006,2,0,L|69:334,1,67.5000025749208,0|2,0:0|0:0,0:0:0:0:
5,142,86562,5,2,0:0:0:0:
188,232,86932,2,0,P|280:216|312:160,1,135.000005149842,8|0,0:0|0:0,0:0:0:0:
139,156,87488,2,0,P|98:239|166:321,1,202.500007724762,2|2,0:0|0:0,0:0:0:0:
302,187,88414,1,8,0:0:0:0:
436,364,88784,2,0,L|448:288,1,67.5000025749208,2|0,0:0|0:0,0:0:0:0:
440,168,89154,6,0,B|432:116|392:80|392:80|304:144|236:48,2,270.000010299683,2|8|0,0:0|0:0|0:0,0:0:0:0:
364,340,91006,1,2,0:0:0:0:
236,200,91377,2,0,P|136:200|104:248,1,135.000005149842,8|0,0:0|0:0,0:0:0:0:
188,281,91932,6,0,L|153:82,1,202.500007724762
304,200,92858,2,0,B|384:240|440:168|440:168|496:232|456:304,1,270.000010299683,8|2,0:0|0:0,0:0:0:0:
468,274,93969,1,2,0:0:0:0:
356,116,94340,2,0,P|300:100|228:136,1,135.000005149842,8|2,0:0|0:0,0:0:0:0:
304,200,94895,1,0,0:0:0:0:
252,276,95080,6,0,P|193:305|128:290,1,135.000005149842,2|0,0:0|0:0,0:0:0:0:
56,72,95821,2,0,L|36:208,1,135.000005149842,8|0,0:0|0:0,0:0:0:0:
148,144,96377,2,0,P|240:124|340:160,1,202.500007724762,2|2,0:0|0:0,0:0:0:0:
232,332,97303,2,0,P|224:264|272:208,1,135.000005149842,8|0,0:0|0:0,0:0:0:0:
408,96,98043,5,2,0:0:0:0:
492,268,98414,1,2,0:0:0:0:
304,288,98784,2,0,L|144:268,1,135.000005149842,8|0,0:0|0:0,0:0:0:0:
92,216,99340,2,0,P|84:172|92:132,1,67.5000025749208,2|8,0:0|3:0,0:0:0:0:
170,271,99895,1,6,3:0:0:0:
364,184,100265,1,8,0:0:0:0:
304,288,100451,1,8,0:0:0:0:
252,164,100636,1,10,3:0:0:0:
425,288,100821,1,4,3:0:0:0:
226,383,101006,1,6,0:0:0:0:
256,192,101099,12,6,106932,0:0:0:0:
316,120,133784,5,8,0:0:0:0:
336,136,134340,1,8,0:0:0:0:
356,152,134895,2,0,P|387:203|371:275,1,135.000005149842,4|8,3:0|3:0,0:0:0:0:
340,344,135636,1,8,3:0:0:0:
256,224,135821,1,8,3:0:0:0:
412,244,136006,1,8,3:0:0:0:
240,336,136191,1,4,3:0:0:0:
206,333,136283,1,4,3:0:0:0:
174,322,136376,1,4,3:0:0:0:
92,220,136562,6,0,P|100:172|124:144,1,76.5000014591217,2|0,0:0|0:0,0:0:0:0:
256,224,136932,2,0,P|212:224|180:212,1,76.5000014591217,8|0,0:0|0:0,0:0:0:0:
112,76,137303,2,0,L|100:-4,1,76.5000014591217,2|0,0:0|0:0,0:0:0:0:
32,144,137673,2,0,L|20:224,1,76.5000014591217,8|0,0:0|0:0,0:0:0:0:
172,128,138043,1,2,0:0:0:0:
92,220,138228,1,0,0:0:0:0:
174,322,138414,2,0,P|216:328|256:324,1,76.5000014591217,8|0,0:0|0:0,0:0:0:0:
172,128,138784,2,0,L|164:208,1,76.5000014591217,2|0,0:0|0:0,0:0:0:0:
264,168,139154,2,0,L|272:88,1,76.5000014591217,8|0,0:0|0:0,0:0:0:0:
92,220,139525,6,0,L|84:300,1,76.5000014591217,2|0,0:0|0:0,0:0:0:0:
236,272,139895,1,8,0:0:0:0:
264,168,140080,2,0,P|240:112|212:84,1,76.5000014591217,0|2,0:0|0:0,0:0:0:0:
128,140,140451,2,0,L|44:128,2,76.5000014591217,0|8|0,0:0|0:0|0:0,0:0:0:0:
236,272,141006,1,2,0:0:0:0:
92,220,141191,1,0,0:0:0:0:
264,168,141377,2,0,L|339:157,1,76.5000014591217,8|0,0:0|0:0,0:0:0:0:
309,286,141747,2,0,P|271:285|236:272,1,76.5000014591217,2|0,0:0|0:0,0:0:0:0:
128,140,142117,2,0,L|116:216,1,76.5000014591217,8|0,0:0|0:0,0:0:0:0:
304,76,142488,5,2,0:0:0:0:
352,204,142673,1,0,0:0:0:0:
224,128,142858,2,0,L|216:48,1,76.5000014591217,8|0,0:0|0:0,0:0:0:0:
144,208,143228,2,0,P|92:216|52:200,1,76.5000014591217,2|0,0:0|0:0,0:0:0:0:
264,200,143599,2,0,P|296:241|303:283,1,76.5000014591217,8|0,0:0|0:0,0:0:0:0:
108,144,143969,1,2,0:0:0:0:
40,280,144154,1,0,0:0:0:0:
204,360,144340,2,0,L|284:344,1,76.5000014591217,8|0,0:0|0:0,0:0:0:0:
144,208,144710,2,0,L|117:285,1,76.5000014591217,2|0,0:0|0:0,0:0:0:0:
272,60,145080,2,0,L|218:-1,1,76.5000014591217,8|0,0:0|0:0,0:0:0:0:
220,204,145451,6,0,P|296:220|364:168,1,161.999995056153,2|8,0:0|0:0,0:0:0:0:
364,60,146006,1,0,0:0:0:0:
460,208,146191,2,0,L|472:292,1,80.9999975280763,2|0,0:0|0:0,0:0:0:0:
280,136,146562,2,0,L|204:104,1,80.9999975280763,8|0,0:0|0:0,0:0:0:0:
76,296,146932,2,0,P|124:356|216:352,1,161.999995056153,2|8,0:0|0:0,0:0:0:0:
144,220,147488,1,0,0:0:0:0:
363,143,147673,5,8,3:0:0:0:
417,154,147765,1,8,3:0:0:0:
458,192,147858,1,8,3:0:0:0:
473,246,147950,1,8,3:0:0:0:
457,300,148043,1,4,3:0:0:0:
416,338,148135,1,4,3:0:0:0:
361,348,148228,1,4,3:0:0:0:
308,329,148321,1,4,3:0:0:0:
274,285,148413,1,6,0:0:0:0:
194,141,148599,5,0,0:0:0:0:
371,246,148784,2,0,P|381:305|377:353,1,90,8|0,0:0|0:0,0:0:0:0:
296,152,149154,1,2,0:0:0:0:
473,246,149340,1,0,0:0:0:0:
232,352,149525,2,0,P|160:312|144:276,1,90,8|0,0:0|0:0,0:0:0:0:
40,76,149895,5,2,0:0:0:0:
84,196,150080,2,0,L|60:288,1,90,0|8,0:0|0:0,0:0:0:0:
204,88,150451,1,0,0:0:0:0:
0,156,150636,1,2,0:0:0:0:
160,256,150821,2,0,P|208:268|248:264,1,90,0|8,0:0|0:0,0:0:0:0:
376,168,151191,6,0,L|400:268,2,90,0|2|0,0:0|0:0|0:0,0:0:0:0:
188,344,151747,2,0,P|144:347|101:336,1,90,8|0,0:0|0:0,0:0:0:0:
168,208,152117,1,2,0:0:0:0:
28,368,152303,1,0,0:0:0:0:
0,184,152488,2,0,L|24:92,1,90,8|0,0:0|0:0,0:0:0:0:
204,36,152858,5,2,0:0:0:0:
100,168,153043,1,0,0:0:0:0:
37,11,153228,1,8,0:0:0:0:
168,208,153414,1,0,0:0:0:0:
11,270,153599,1,2,0:0:0:0:
35,102,153784,1,0,0:0:0:0:
152,296,153969,2,0,P|140:344|116:380,1,90,8|0,0:0|0:0,0:0:0:0:
100,168,154340,6,0,P|157:130|244:184,1,180,6|8,0:0|0:0,0:0:0:0:
112,272,154895,1,0,0:0:0:0:
28,212,155080,2,0,P|20:176|28:116,1,90,2|0,0:0|0:0,0:0:0:0:
168,208,155451,1,8,0:0:0:0:
12,312,155636,1,0,0:0:0:0:
196,372,155821,6,0,P|256:360|284:344,1,90,2|0,0:0|0:0,0:0:0:0:
236,176,156191,1,8,0:0:0:0:
344,256,156377,2,0,L|436:268,1,90,0|2,0:0|0:0,0:0:0:0:
168,256,156747,2,0,L|76:268,1,90,0|8,0:0|0:0,0:0:0:0:
156,160,157117,1,0,0:0:0:0:
252,240,157303,6,0,P|240:308|212:328,1,90,2|0,0:0|0:0,0:0:0:0:
56,148,157673,1,8,0:0:0:0:
108,344,157858,1,0,0:0:0:0:
240,152,158043,2,0,P|304:128|336:142,1,90,2|0,0:0|0:0,0:0:0:0:
424,208,158414,1,8,0:0:0:0:
169,206,158599,6,0,P|116:161|112:127,1,90,0|2,0:0|0:0,0:0:0:0:
296,204,158969,2,0,L|316:308,1,90,0|8,0:0|0:0,0:0:0:0:
189,132,159340,1,0,0:0:0:0:
233,320,159525,1,2,0:0:0:0:
373,187,159710,1,0,0:0:0:0:
153,288,159895,2,0,P|104:273|81:242,1,90,8|0,0:0|0:0,0:0:0:0:
320,377,160265,5,6,0:0:0:0:
320,377,160451,1,0,0:0:0:0:
256,268,160636,2,0,L|264:172,1,90,8|0,0:0|0:0,0:0:0:0:
356,264,161006,1,2,0:0:0:0:
152,115,161191,2,0,L|144:204,2,90,0|8|0,0:0|0:0|0:0,0:0:0:0:
289,304,161747,5,0,0:0:0:0:
368,168,161932,1,0,0:0:0:0:
152,259,162117,1,8,0:0:0:0:
289,71,162303,1,0,0:0:0:0:
289,304,162488,1,2,0:0:0:0:
152,115,162673,5,0,0:0:0:0:
57,329,162858,1,8,0:0:0:0:
0,120,163043,1,0,0:0:0:0:
300,144,163228,6,0,P|348:120|364:88,1,90,2|0,0:0|0:0,0:0:0:0:
200,172,163599,2,0,L|220:352,1,180,8|2,0:0|0:0,0:0:0:0:
304,256,164154,2,0,P|348:272|380:308,2,90,0|8|0,0:0|0:0|0:0,0:0:0:0:
122,303,164710,5,0,0:0:0:0:
242,91,164895,1,0,0:0:0:0:
122,303,165080,1,8,0:0:0:0:
344,228,165265,1,0,0:0:0:0:
72,110,165451,1,2,0:0:0:0:
72,110,165636,1,0,0:0:0:0:
232,281,165821,5,8,0:0:0:0:
203,38,166006,1,0,0:0:0:0:
424,204,166191,6,0,P|412:280|296:296,1,180,6|8,0:0|0:0,0:0:0:0:
192,128,166747,2,0,L|204:32,1,90,0|2,0:0|0:0,0:0:0:0:
344,228,167117,2,0,L|356:324,1,90,0|8,0:0|0:0,0:0:0:0:
328,112,167488,1,0,0:0:0:0:
216,248,167673,6,0,P|156:236|124:196,1,90,2|0,0:0|0:0,0:0:0:0:
336,192,168043,1,8,0:0:0:0:
388,288,168228,2,0,P|404:348|396:376,1,90,0|2,0:0|0:0,0:0:0:0:
200,172,168599,2,0,P|196:116|216:76,2,90,0|8|0,0:0|0:0|0:0,0:0:0:0:
288,52,169154,6,0,P|240:12|196:8,1,90,2|0,0:0|0:0,0:0:0:0:
196,252,169525,2,0,P|254:230|280:194,1,90,8|0,0:0|0:0,0:0:0:0:
96,140,169895,1,2,0:0:0:0:
60,348,170080,1,0,0:0:0:0:
60,348,170265,1,8,0:0:0:0:
232,184,170451,6,0,P|280:180|320:192,1,90,0|2,0:0|0:0,0:0:0:0:
68,136,170821,1,0,0:0:0:0:
196,252,171006,1,8,0:0:0:0:
332,112,171191,2,0,L|376:128,1,45,8|8,3:0|3:0,0:0:0:0:
228,96,171377,2,0,L|219:49,1,45,8|8,3:0|3:0,0:0:0:0:
266,194,171562,2,0,L|230:224,1,45,4|4,3:0|3:0,0:0:0:0:
88,156,171747,1,8,0:0:0:0:
88,156,171840,1,8,0:0:0:0:
88,156,171932,1,8,0:0:0:0:
88,156,172025,1,8,0:0:0:0:
88,156,172117,6,0,L|96:256,1,90,6|0,0:0|0:0,0:0:0:0:
40,360,172488,1,8,0:0:0:0:
266,194,172673,2,0,P|330:202|362:218,1,90,0|2,0:0|0:0,0:0:0:0:
348,24,173043,2,0,P|383:78|391:112,1,90,0|8,0:0|0:0,0:0:0:0:
292,272,173414,1,0,0:0:0:0:
88,156,173599,5,2,0:0:0:0:
88,156,173784,1,0,0:0:0:0:
290,37,173969,1,8,0:0:0:0:
412,220,174154,2,0,L|504:232,1,90,0|2,0:0|0:0,0:0:0:0:
247,194,174525,2,0,P|266:235|292:272,1,90,0|8,0:0|0:0,0:0:0:0:
290,37,174895,1,0,0:0:0:0:
88,156,175080,6,0,L|104:260,1,90,2|0,0:0|0:0,0:0:0:0:
303,125,175451,2,0,L|287:21,1,90,8|0,0:0|0:0,0:0:0:0:
292,272,175821,1,2,0:0:0:0:
101,244,176006,1,0,0:0:0:0:
219,92,176191,1,8,0:0:0:0:
364,243,176377,1,0,0:0:0:0:
95,322,176562,6,0,P|40:296|28:272,1,90,2|0,0:0|0:0,0:0:0:0:
298,194,176932,2,0,P|353:220|365:244,1,90,8|0,0:0|0:0,0:0:0:0:
197,177,177303,2,0,B|201:129|201:129|221:86,1,90,2|0,0:0|0:0,0:0:0:0:
452,104,177673,1,8,0:0:0:0:
436,228,177858,1,8,0:0:0:0:
399,278,177950,1,8,0:0:0:0:
345,309,178043,6,0,P|292:316|256:312,1,90,6|0,0:0|0:0,0:0:0:0:
135,146,178414,1,8,0:0:0:0:
329,209,178599,1,0,0:0:0:0:
135,272,178784,2,0,P|128:324|136:372,1,90,2|0,0:0|0:0,0:0:0:0:
255,107,179154,2,0,L|256:12,1,90,8|0,0:0|0:0,0:0:0:0:
380,93,179525,5,2,0:0:0:0:
204,223,179710,1,0,0:0:0:0:
404,310,179895,1,8,0:0:0:0:
135,272,180080,2,0,P|67:288|35:308,1,90,0|2,0:0|0:0,0:0:0:0:
116,176,180451,2,0,P|108:128|80:76,1,90,0|8,0:0|0:0,0:0:0:0:
204,223,180821,1,0,0:0:0:0:
284,128,181006,6,0,L|288:36,1,90,2|0,0:0|0:0,0:0:0:0:
400,220,181377,2,0,L|404:312,1,90,8|0,0:0|0:0,0:0:0:0:
468,116,181747,1,2,0:0:0:0:
404,312,181932,1,0,0:0:0:0:
468,116,182117,1,8,0:0:0:0:
204,223,182303,6,0,P|132:208|108:112,1,180
280,204,182858,2,0,P|280:244|244:292,1,90,8|0,0:0|0:0,0:0:0:0:
107,114,183228,1,2,0:0:0:0:
276,200,183414,1,0,0:0:0:0:
48,292,183599,1,8,0:0:0:0:
272,360,183784,1,8,0:0:0:0:
331,345,183876,1,8,0:0:0:0:
368,295,183969,6,0,B|383:239|375:199|360:215|352:175|368:119,1,180,6|8,0:0|0:0,0:0:0:0:
452,240,184525,1,0,0:0:0:0:
280,204,184710,2,0,P|244:172|228:128,1,90,2|0,0:0|0:0,0:0:0:0:
456,120,185080,2,0,P|428:164|392:184,1,90,8|0,0:0|0:0,0:0:0:0:
176,216,185451,2,0,P|112:248|68:368,1,180,2|8,0:0|0:0,0:0:0:0:
8,200,186006,1,0,0:0:0:0:
188,332,186191,2,0,P|248:336|292:308,1,90,2|0,0:0|0:0,0:0:0:0:
208,72,186562,1,8,0:0:0:0:
181,198,186747,1,0,0:0:0:0:
72,112,186932,6,0,L|-20:96,1,90,2|0,0:0|0:0,0:0:0:0:
224,268,187303,2,0,L|312:252,1,90,8|0,0:0|0:0,0:0:0:0:
88,192,187673,1,2,0:0:0:0:
60,340,187858,1,0,0:0:0:0:
181,198,188043,1,8,0:0:0:0:
157,49,188228,1,0,0:0:0:0:
300,100,188414,6,0,P|348:116|392:112,1,90,2|0,0:0|0:0,0:0:0:0:
444,0,188784,1,8,0:0:0:0:
268,172,188969,1,8,3:0:0:0:
235,224,189061,1,8,3:0:0:0:
237,286,189154,1,8,3:0:0:0:
274,337,189246,1,8,3:0:0:0:
332,358,189339,1,4,3:0:0:0:
392,343,189431,1,4,3:0:0:0:
434,297,189524,1,8,0:0:0:0:
434,297,189617,1,8,0:0:0:0:
434,297,189710,1,8,0:0:0:0:
434,297,189803,1,8,0:0:0:0:
434,297,189895,6,0,L|444:180,1,90,6|0,0:0|0:0,0:0:0:0:
248,48,190265,1,8,0:0:0:0:
125,333,190451,1,0,0:0:0:0:
452,264,190636,2,0,L|441:147,1,90,2|0,0:0|0:0,0:0:0:0:
225,52,191006,1,8,0:0:0:0:
154,354,191192,1,0,0:0:0:0:
464,230,191377,6,0,L|433:116,1,90,2|0,0:0|0:0,0:0:0:0:
204,59,191747,1,8,0:0:0:0:
186,369,191933,1,0,0:0:0:0:
469,194,192117,2,0,L|419:87,1,90,2|0,0:0|0:0,0:0:0:0:
184,71,192488,1,8,0:0:0:0:
220,379,192673,1,0,0:0:0:0:
467,157,192858,6,0,L|399:60,1,90,2|0,0:0|0:0,0:0:0:0:
424,328,193228,1,8,0:0:0:0:
144,200,193414,1,0,0:0:0:0:
394,56,193599,2,0,L|458:120,1,90,2|0,0:0|0:0,0:0:0:0:
304,320,193969,1,8,0:0:0:0:
184,71,194154,1,0,0:0:0:0:
80,304,194340,6,0,P|24:340|-16:336,1,90,2|0,0:0|0:0,0:0:0:0:
112,36,194710,1,8,0:0:0:0:
112,36,194895,1,0,0:0:0:0:
168,280,195080,2,0,P|159:346|130:374,1,90,2|0,0:0|0:0,0:0:0:0:
6,76,195450,1,8,0:0:0:0:
6,76,195635,1,0,0:0:0:0:
341,238,195821,6,0,P|389:226|420:196,1,90,2|0,0:0|0:0,0:0:0:0:
172,384,196191,1,8,0:0:0:0:
62,96,196377,1,0,0:0:0:0:
349,160,196562,2,0,P|378:119|382:77,1,90,2|0,0:0|0:0,0:0:0:0:
313,380,196932,1,8,0:0:0:0:
43,230,197118,1,0,0:0:0:0:
304,95,197303,6,0,P|300:45|276:9,1,90,2|0,0:0|0:0,0:0:0:0:
418,286,197673,1,8,0:0:0:0:
115,345,197859,1,0,0:0:0:0:
227,74,198043,2,0,P|192:38|151:26,1,90,2|0,0:0|0:0,0:0:0:0:
439,142,198413,1,8,0:0:0:0:
245,382,198599,1,0,0:0:0:0:
154,107,198784,6,0,L|143:206,1,90,2|0,0:0|0:0,0:0:0:0:
430,223,199154,2,0,L|441:322,1,90,8|0,0:0|0:0,0:0:0:0:
227,74,199525,1,2,0:0:0:0:
167,352,199710,1,0,0:0:0:0:
360,184,199895,2,0,L|371:85,1,90,8|0,0:0|0:0,0:0:0:0:
233,211,200265,6,0,L|241:258,1,45,10|8,3:0|3:0,0:0:0:0:
161,151,200451,2,0,L|153:106,1,45,8|8,3:0|3:0,0:0:0:0:
114,233,200636,2,0,L|122:280,1,45,8|8,3:0|3:0,0:0:0:0:
42,173,200821,2,0,L|34:128,1,45,8|8,3:0|3:0,0:0:0:0:
40,312,201006,5,6,3:0:0:0:
79,354,201098,1,4,3:0:0:0:
135,363,201191,1,4,3:0:0:0:
186,337,201283,1,4,3:0:0:0:
211,285,201376,1,4,3:0:0:0:
202,227,201469,1,4,3:0:0:0:
220,172,201562,1,4,3:0:0:0:
261,130,201654,1,4,3:0:0:0:
320,116,201747,6,0,P|416:136|432:312,1,270,6|0,0:0|0:0,0:0:0:0:
345,231,202488,1,8,0:0:0:0:
345,231,202673,2,0,P|281:218|173:260,1,180
96,356,203228,2,0,L|80:248,1,90,2|0,0:0|0:0,0:0:0:0:
204,104,203599,2,0,L|188:212,1,90
96,108,203969,2,0,L|112:0,1,90,8|0,0:0|0:0,0:0:0:0:
232,168,204340,1,0,0:0:0:0:
109,18,204525,1,0,0:0:0:0:
276,44,204710,6,0,P|300:100|288:148,1,90,2|0,0:0|0:0,0:0:0:0:
244,240,205080,2,0,L|240:308,2,45,8|8|8,3:0|3:0|3:0,0:0:0:0:
204,104,205451,1,8,0:0:0:0:
112,248,205636,1,8,3:0:0:0:
272,160,205821,2,0,P|320:176|344:208,1,90,8|8,3:0|3:0,0:0:0:0:
96,108,206191,2,0,L|84:12,1,90,8|8,3:0|3:0,0:0:0:0:
112,248,206562,1,4,3:0:0:0:
204,104,206747,1,4,3:0:0:0:
244,240,206932,5,10,0:0:0:0:
244,240,207117,2,0,P|312:264|376:244,1,135.000005149842
416,164,207673,5,6,0:0:0:0:
416,164,208043,2,0,P|456:216|456:284,2,135.000005149842,0|8|0,0:0|0:0|0:0,0:0:0:0:
312,168,208969,1,2,0:0:0:0:
312,168,209525,2,0,P|276:200|192:208,1,135.000005149842,2|8,0:0|0:0,0:0:0:0:
64,140,210265,1,0,0:0:0:0:
8,216,210451,6,0,P|40:296|160:312,1,202.500007724762
320,240,211377,2,0,L|464:264,1,135.000005149842,8|0,0:0|0:0,0:0:0:0:
348,104,212117,1,2,0:0:0:0:
348,104,212488,1,2,0:0:0:0:
236,256,212858,2,0,P|180:276|96:244,1,135.000005149842,8|2,0:0|0:0,0:0:0:0:
72,168,213414,2,0,L|144:180,1,67.5000025749208,0|2,0:0|0:0,0:0:0:0:
138,179,214340,6,0,P|196:160|272:160,1,135.000005149842,8|0,0:0|0:0,0:0:0:0:
352,208,214895,2,0,P|432:156|416:48,1,202.500007724762,2|2,0:0|0:0,0:0:0:0:
269,159,215821,2,0,P|253:239|273:311,1,135.000005149842,8|0,0:0|0:0,0:0:0:0:
172,268,216377,6,0,P|136:260|104:264,1,67.5000025749208,0|2,0:0|0:0,0:0:0:0:
20,368,216932,1,2,0:0:0:0:
80,188,217303,2,0,L|96:48,1,135.000005149842
95,53,217858,1,2,0:0:0:0:
95,53,218414,1,2,0:0:0:0:
176,100,218599,2,0,L|184:168,1,67.5000025749208,0|8,0:0|0:0,0:0:0:0:
272,204,218969,1,0,0:0:0:0:
196,308,219154,1,2,0:0:0:0:
112,176,219340,1,8,3:0:0:0:
300,280,219525,6,0,P|360:272|424:224,2,135.000005149842,6|0|8,0:0|0:0|0:0,0:0:0:0:
112,264,220636,2,0,L|96:332,1,67.5000025749208,0|2,0:0|0:0,0:0:0:0:
196,308,221006,1,0,0:0:0:0:
200,212,221191,2,0,L|160:156,1,67.5000025749208,0|2,0:0|0:0,0:0:0:0:
280,248,221562,2,0,L|285:179,1,67.5000025749208,0|8,0:0|0:0,0:0:0:0:
318,327,221932,2,0,L|366:277,1,67.5000025749208
408,192,222303,1,0,0:0:0:0:
356,112,222488,6,0,P|312:84|228:100,1,135.000005149842,2|0,0:0|0:0,0:0:0:0:
275,296,223228,2,0,L|287:162,1,135.000005149842,8|0,0:0|0:0,0:0:0:0:
207,347,223969,2,0,P|251:375|335:359,1,135.000005149842,2|2,0:0|0:0,0:0:0:0:
200,224,224710,2,0,P|128:256|80:320,1,135.000005149842,8|2,0:0|0:0,0:0:0:0:
16,356,225265,6,0,L|24:264,1,67.5000025749208,0|2,0:0|0:0,0:0:0:0:
56,104,225821,1,0,0:0:0:0:
176,248,226191,2,0,P|236:288|304:272,1,135.000005149842,8|0,0:0|0:0,0:0:0:0:
366,218,226747,1,2,0:0:0:0:
366,218,227303,2,0,L|378:84,1,135.000005149842,2|8,0:0|0:0,0:0:0:0:
454,29,227858,2,0,L|466:164,1,135.000005149842
372,144,228414,1,2,0:0:0:0:
372,144,228599,2,0,P|324:112|248:116,1,135.000005149842
388,220,229154,1,8,0:0:0:0:
388,220,229340,6,0,P|436:252|512:248,1,135.000005149842,0|2,0:0|0:0,0:0:0:0:
344,144,229896,1,0,0:0:0:0:
344,144,230081,2,0,P|293:169|258:237,1,135.000005149842,2|2,0:0|0:0,0:0:0:0:
292,324,230636,1,8,0:0:0:0:
388,220,230822,1,8,3:0:0:0:
444,352,231007,2,0,P|484:364|516:360,1,67.5000025749208,6|4,3:0|3:0,0:0:0:0:
272,236,231377,6,0,P|216:252|168:316,2,135.000005149842,6|0|8,0:0|0:0|0:0,0:0:0:0:
352,288,232303,2,0,L|376:156,1,135.000005149842,0|2,0:0|0:0,0:0:0:0:
452,84,232859,1,0,0:0:0:0:
452,84,233044,2,0,P|456:132|476:160,1,67.5000025749208,0|2,0:0|0:0,0:0:0:0:
344,80,233414,2,0,P|310:113|302:147,1,67.5000025749208,0|8,0:0|0:0,0:0:0:0:
400,208,233785,2,0,P|388:161|364:137,1,67.5000025749208
232,80,234155,1,0,0:0:0:0:
168,148,234340,6,0,L|156:300,1,135.000005149842,2|0,0:0|0:0,0:0:0:0:
84,80,235081,2,0,L|72:232,1,135.000005149842,8|0,0:0|0:0,0:0:0:0:
232,80,235822,2,0,P|304:68|376:120,1,135.000005149842,2|2,0:0|0:0,0:0:0:0:
228,232,236562,2,0,P|212:308|232:372,1,135.000005149842,8|2,0:0|0:0,0:0:0:0:
136,232,237118,6,0,L|116:84,1,135.000005149842
212,80,237673,2,0,L|208:152,1,67.5000025749208
228,232,238044,2,0,P|284:264|352:248,1,135.000005149842,8|0,0:0|0:0,0:0:0:0:
412,180,238599,1,2,0:0:0:0:
464,260,238785,1,0,0:0:0:0:
464,260,238970,2,0,P|464:312|452:344,1,67.5000025749208,0|2,0:0|0:0,0:0:0:0:
312,368,239340,2,0,P|312:316|324:284,1,67.5000025749208,0|8,0:0|0:0,0:0:0:0:
392,208,239710,2,0,P|392:260|380:292,1,67.5000025749208
308,184,240081,1,0,0:0:0:0:
308,184,240266,6,0,P|368:124|428:128,1,135.000005149842,2|2,0:0|0:0,0:0:0:0:
388,312,241007,2,0,B|316:352|316:352|252:344,1,135.000005149842,8|0,0:0|0:0,0:0:0:0:
192,284,241562,1,2,0:0:0:0:
192,284,242118,1,2,0:0:0:0:
156,196,242303,2,0,L|168:128,1,67.5000025749208,0|8,0:0|0:0,0:0:0:0:
296,68,242673,1,0,0:0:0:0:
248,168,242859,1,2,0:0:0:0:
64,80,243044,1,8,3:0:0:0:
104,260,243229,6,0,P|188:276|228:240,1,135.000005149842,2|0,0:0|0:0,0:0:0:0:
296,68,243970,1,8,0:0:0:0:
296,68,244340,2,0,P|336:92|380:100,1,67.5000025749208,0|2,0:0|0:0,0:0:0:0:
444,68,244710,2,0,L|476:4,2,67.5000025749208,0|0|2,0:0|0:0|0:0,0:0:0:0:
420,160,245266,2,0,P|424:216|436:248,1,67.5000025749208,0|8,0:0|0:0,0:0:0:0:
332,220,245636,2,0,P|328:264|332:308,1,67.5000025749208
248,240,246007,6,0,P|176:228|116:260,1,135.000005149842
148,344,246562,1,0,0:0:0:0:
224,144,246933,2,0,L|236:8,1,135.000005149842,8|0,0:0|0:0,0:0:0:0:
320,176,247673,1,2,0:0:0:0:
420,16,248044,1,2,0:0:0:0:
224,144,248414,2,0,P|196:208|236:284,1,135.000005149842,8|2,0:0|0:0,0:0:0:0:
360,324,248970,6,0,L|220:344,1,135.000005149842
227,343,249525,1,0,0:0:0:0:
284,204,249896,2,0,B|281:171|264:134|262:152|237:119|239:79,1,135.000005149842,8|0,0:0|0:0,0:0:0:0:
164,136,250451,2,0,P|66:124|1:49,1,202.500007724762,2|2,0:0|0:0,0:0:0:0:
124,16,251377,2,0,L|65:138,1,135.000005149842,8|0,0:0|0:0,0:0:0:0:
100,228,251933,6,0,P|104:280|92:312,1,67.5000025749208,0|2,0:0|0:0,0:0:0:0:
101,294,252488,1,2,0:0:0:0:
276,228,252859,2,0,P|364:236|408:272,1,135.000005149842,8|0,0:0|0:0,0:0:0:0:
372,352,253414,1,2,0:0:0:0:
316,152,253785,1,10,3:0:0:0:
512,200,254155,1,10,3:0:0:0:
428,240,254340,2,0,P|400:200|392:168,1,67.5000025749208,8|8,0:0|0:0,0:0:0:0:
346,92,254710,2,0,P|335:124|316:152,1,67.5000025749208,6|4,3:0|3:0,0:0:0:0:
228,188,255084,5,6,0:0:0:0:
120,52,256724,5,8,0:3:0:0:
120,52,256841,1,8,0:3:0:0:
120,52,256959,1,8,0:3:0:0:
120,52,258599,6,0,L|128:120,1,45,2|8,0:0|3:0,0:0:0:0:
228,188,258834,1,6,0:0:0:0:
120,52,260709,5,8,0:3:0:0:
77,170,261060,1,8,0:3:0:0:
177,249,261412,1,8,0:3:0:0:
280,177,261763,1,4,3:0:0:0:
246,57,262115,1,4,3:0:0:0:
120,52,262349,2,0,L|128:120,1,45,8|8,0:0|0:0,0:0:0:0:
280,177,262584,1,6,0:0:0:0:
380,304,264224,5,8,3:0:0:0:
380,304,264341,1,8,3:0:0:0:
380,304,264459,1,8,3:0:0:0:
380,304,266099,6,0,L|372:236,1,45,2|4,0:0|3:0,0:0:0:0:
272,168,266334,1,6,0:0:0:0:
380,304,268209,5,8,3:0:0:0:
423,186,268560,1,8,3:0:0:0:
323,107,268912,1,8,3:0:0:0:
220,179,269263,1,4,3:0:0:0:
254,299,269615,1,4,3:0:0:0:
380,304,269849,1,8,0:0:0:0:
395,262,269966,1,8,0:0:0:0:
394,217,270084,6,0,P|368:136|336:108,1,90,6|0,0:0|0:0,0:0:0:0:
220,179,270552,2,0,L|132:164,1,90,8|0,0:0|0:0,0:0:0:0:
80,128,270904,1,0,0:0:0:0:
80,128,271021,2,0,P|36:216|48:292,1,135,2|0,0:0|0:0,0:0:0:0:
100,248,271490,2,0,P|151:265|200:308,1,90,8|0,0:0|0:0,0:0:0:0:
268,376,271959,2,0,L|276:308,2,45,2|0|0,0:0|0:0|0:0,0:0:0:0:
340,272,272427,1,8,0:0:0:0:
340,272,272544,2,0,P|352:204|328:160,1,90
336,124,272896,2,0,P|407:55|483:66,2,180,2|8|2,0:0|0:0|0:0,0:0:0:0:
436,160,274068,6,0,P|452:236|448:256,1,90
416,300,274419,1,0,0:0:0:0:
384,336,274654,1,0,0:0:0:0:
384,336,274771,2,0,P|324:320|288:332,1,90,2|0,0:0|0:0,0:0:0:0:
216,228,275240,2,0,L|200:132,1,90,8|0,0:0|0:0,0:0:0:0:
128,240,275709,1,2,0:0:0:0:
64,132,275943,1,0,0:0:0:0:
32,252,276177,2,0,L|20:300,3,45,8|0|0|0,0:0|0:0|0:0|0:0,0:0:0:0:
48,352,276646,1,2,0:0:0:0:
128,240,276880,2,0,L|100:96,2,135,0|0|2,0:0|0:0|0:0,0:0:0:0:
240,296,277818,6,0,P|276:272|320:256,1,90,0|8,0:0|0:0,0:0:0:0:
319,256,278169,1,0,0:0:0:0:
416,176,278404,1,0,0:0:0:0:
424,112,278521,2,0,P|400:64|284:52,1,180,2|8,0:0|0:0,0:0:0:0:
310,167,279224,2,0,P|321:211|319:256,2,90,0|2|0,0:0|0:0|0:0,0:0:0:0:
120,120,279927,1,8,0:0:0:0:
120,120,280044,2,0,P|152:168|192:192,1,90
208,240,280396,2,0,L|224:352,1,90,2|0,0:0|0:0,0:0:0:0:
280,344,280748,1,0,0:0:0:0:
324,300,280865,2,0,L|332:256,3,45,8|0|0|0,0:0|0:0|0:0|0:0,0:0:0:0:
324,192,281334,5,2,0:0:0:0:
268,80,281568,1,0,0:0:0:0:
408,136,281802,2,0,L|416:180,2,45,8|0|0,0:0|0:0|0:0,0:0:0:0:
364,88,282154,1,0,0:0:0:0:
364,88,282271,2,0,P|340:136|288:168,1,90,2|0,0:0|0:0,0:0:0:0:
181,81,282740,2,0,P|224:70|268:80,1,90,8|0,0:0|0:0,0:0:0:0:
352,216,283209,1,8,3:0:0:0:
440,384,283560,1,8,3:0:0:0:
288,272,283912,1,8,3:0:0:0:
472,312,284263,1,4,3:0:0:0:
288,352,284615,1,4,3:0:0:0:
152,232,284849,1,4,3:0:0:0:
119,262,284966,1,4,3:0:0:0:
103,304,285084,6,0,P|128:344|168:368,1,90,6|0,0:0|0:0,0:0:0:0:
228,256,285552,2,0,L|220:164,1,90,8|0,0:0|0:0,0:0:0:0:
144,142,285904,2,0,L|151:231,1,90
164,300,286255,2,0,P|212:332|284:308,1,135
226,121,286959,2,0,L|218:177,1,45,2|0,0:0|0:0,0:0:0:0:
324,236,287310,1,0,0:0:0:0:
364,188,287427,2,0,P|376:144|368:100,1,90,8|0,0:0|0:0,0:0:0:0:
226,121,287896,2,0,L|46:89,2,180,2|8|2,0:0|0:0|0:0,0:0:0:0:
244,248,289068,5,0,0:0:0:0:
136,184,289302,2,0,L|128:276,1,90,8|0,0:0|0:0,0:0:0:0:
164,332,289654,2,0,P|232:364|308:348,1,135
244,248,290240,1,8,0:0:0:0:
372,164,290474,1,0,0:0:0:0:
312,288,290709,6,0,L|296:376,1,90,2|0,0:0|0:0,0:0:0:0:
244,248,291060,2,0,L|228:160,1,90
196,104,291412,1,0,0:0:0:0:
80,128,291646,1,8,3:0:0:0:
80,128,291763,2,0,L|72:188,1,45,8|0,3:0|0:0,0:0:0:0:
104,228,291998,2,0,L|124:288,1,45,4|8,3:0|0:0,0:0:0:0:
168,308,292232,1,8,0:0:0:0:
228,320,292349,1,8,0:0:0:0:
288,304,292466,1,8,0:0:0:0:
332,260,292584,6,0,P|344:216|336:152,1,90,6|0,0:0|0:0,0:0:0:0:
236,100,293052,2,0,P|224:144|232:208,1,90,8|0,0:0|0:0,0:0:0:0:
328,100,293521,1,2,0:0:0:0:
424,200,293755,1,0,0:0:0:0:
424,200,293873,1,0,0:0:0:0:
424,200,293990,2,0,L|436:296,1,90,8|0,0:0|0:0,0:0:0:0:
320,236,294459,5,2,0:0:0:0:
278,218,294576,1,0,0:0:0:0:
233,216,294693,1,0,0:0:0:0:
191,229,294810,1,0,0:0:0:0:
155,256,294927,2,0,P|96:252|56:224,1,90,8|0,0:0|0:0,0:0:0:0:
108,116,295396,1,2,0:0:0:0:
233,216,295630,2,0,P|268:276|276:348,2,135,0|0|2,0:0|0:0|0:0,0:0:0:0:
184,100,296568,5,0,0:0:0:0:
104,220,296802,2,0,L|96:316,1,90,8|0,0:0|0:0,0:0:0:0:
220,292,297271,2,0,L|232:352,2,45,2|0|0,0:0|0:0|0:0,0:0:0:0:
280,180,297740,2,0,P|336:156|368:160,1,90,8|0,0:0|0:0,0:0:0:0:
298,273,298209,6,0,P|224:256|184:164,1,180,2|8,0:0|0:0,0:0:0:0:
204,44,298912,2,0,L|192:120,2,45,0|0|2,0:0|0:0|0:0,0:0:0:0:
280,180,299380,2,0,L|292:316,2,135,0|0|6,0:0|0:0|0:0,0:0:0:0:
368,88,300318,5,0,0:0:0:0:
364,212,300552,1,8,0:0:0:0:
372,255,300669,1,0,0:0:0:0:
395,294,300786,1,0,0:0:0:0:
428,324,300903,1,0,0:0:0:0:
469,342,301021,2,0,L|376:360,1,90,2|0,0:0|0:0,0:0:0:0:
364,212,301490,1,8,0:0:0:0:
260,284,301724,2,0,P|200:280|168:268,1,90,0|2,0:0|0:0,0:0:0:0:
72,192,302193,6,0,L|16:200,2,45,0|0|8,0:0|0:0|0:0,0:0:0:0:
196,204,302662,1,0,0:0:0:0:
56,288,302896,1,2,0:0:0:0:
56,288,303130,2,0,P|120:336|200:352,2,135
88,108,304068,5,0,0:0:0:0:
192,180,304302,2,0,L|208:268,1,90,8|0,0:0|0:0,0:0:0:0:
324,216,304771,1,2,0:0:0:0:
337,173,304888,1,0,0:0:0:0:
331,129,305005,1,0,0:0:0:0:
307,92,305122,1,0,0:0:0:0:
269,68,305240,2,0,P|212:72|176:88,1,90,8|0,0:0|0:0,0:0:0:0:
136,204,305709,6,0,P|72:212|4:120,1,180,2|8,0:0|0:0,0:0:0:0:
89,37,306412,1,0,0:0:0:0:
101,80,306529,1,8,3:0:0:0:
94,123,306646,1,2,0:0:0:0:
52,288,306880,2,0,P|104:336|208:312,1,180,4|4,3:0|3:0,0:0:0:0:
248,112,307584,6,0,L|278:201,1,90,6|0,0:0|0:0,0:0:0:0:
368,284,308052,2,0,L|432:304,1,45,8|0,0:0|0:0,0:0:0:0:
432,220,308287,2,0,L|488:183,1,45
424,129,308521,2,0,P|376:100|344:100,1,90,2|0,0:0|0:0,0:0:0:0:
240,176,308990,2,0,L|228:268,1,90,8|0,0:0|0:0,0:0:0:0:
80,168,309459,5,2,0:0:0:0:
40,288,309693,1,0,0:0:0:0:
198,347,309927,2,0,P|266:343|290:327,1,90,8|0,0:0|0:0,0:0:0:0:
124,373,310396,1,2,0:0:0:0:
228,265,310630,2,0,L|249:106,2,135,0|0|2,0:0|0:0|0:0,0:0:0:0:
316,356,311568,5,0,0:0:0:0:
144,248,311802,2,0,P|96:256|60:288,1,90,8|0,0:0|0:0,0:0:0:0:
228,264,312271,2,0,P|216:200|108:176,1,180,2|8,0:0|0:0,0:0:0:0:
115,171,312974,1,0,0:0:0:0:
172,324,313209,2,0,P|233:345|308:264,1,180,2|8,0:0|0:0,0:0:0:0:
240,168,313912,2,0,P|232:104|244:56,1,90,0|2,0:0|0:0,0:0:0:0:
356,36,314380,1,0,0:0:0:0:
384,56,314732,1,0,0:0:0:0:
412,76,315084,6,0,P|432:124|432:184,1,90,2|0,0:0|0:0,0:0:0:0:
376,272,315552,2,0,L|368:320,3,45,8|0|0|0,0:0|0:0|0:0|0:0,0:0:0:0:
336,224,316021,2,0,P|276:204|232:216,1,90,2|0,0:0|0:0,0:0:0:0:
200,248,316373,1,0,0:0:0:0:
152,288,316490,2,0,P|107:290|66:271,1,90,8|0,0:0|0:0,0:0:0:0:
136,148,316959,6,0,P|148:96|140:48,1,90,2|0,0:0|0:0,0:0:0:0:
121,219,317427,1,8,0:0:0:0:
194,103,317662,1,0,0:0:0:0:
57,98,317896,1,2,0:0:0:0:
210,187,318130,2,0,P|278:124|259:49,1,135
121,219,318834,6,0,P|125:269|158:313,1,90,2|0,0:0|0:0,0:0:0:0:
210,187,319302,2,0,P|206:137|173:93,1,90,8|0,0:0|0:0,0:0:0:0:
216,268,319771,2,0,L|304:284,1,90,2|0,0:0|0:0,0:0:0:0:
210,187,320240,1,8,0:0:0:0:
304,284,320474,1,0,0:0:0:0:
121,219,320709,6,0,P|133:127|240:98,1,180,2|8,0:0|0:0,0:0:0:0:
296,180,321412,1,0,0:0:0:0:
392,76,321646,1,8,3:0:0:0:
434,211,321880,1,8,0:0:0:0:
435,255,321997,1,8,0:0:0:0:
420,297,322114,1,10,0:0:0:0:
424,304,322349,1,8,0:0:0:0:
212,188,322584,6,0,P|128:196|80:276,1,180,6|8,0:0|0:0,0:0:0:0:
272,244,323287,1,0,0:0:0:0:
272,244,323521,2,0,P|292:200|288:160,1,90,2|0,0:0|0:0,0:0:0:0:
212,60,323990,1,8,0:0:0:0:
376,232,324224,1,0,0:0:0:0:
212,188,324459,6,0,P|160:194|104:308,1,180,2|8,0:0|0:0,0:0:0:0:
24,196,325162,2,0,L|8:105,1,90,0|2,0:0|0:0,0:0:0:0:
120,4,325630,2,0,L|96:137,1,135
296,52,326334,5,6,0:0:0:0:
360,132,326568,2,0,P|436:136|464:124,1,90,0|8,0:0|0:0,0:0:0:0:
273,91,327037,1,0,0:0:0:0:
265,135,327154,1,0,0:0:0:0:
279,178,327271,2,0,B|284:225|284:225|272:277,2,90,2|0|8,0:0|0:0|0:0,0:0:0:0:
165,123,327974,1,0,0:0:0:0:
209,323,328209,6,0,P|265:352|357:290,1,180,2|8,0:0|0:0,0:0:0:0:
355,294,328912,1,0,0:0:0:0:
182,251,329146,2,0,P|144:283|133:325,1,90,2|0,0:0|0:0,0:0:0:0:
274,266,329615,2,0,P|279:216|271:174,1,90,8|0,0:0|0:0,0:0:0:0:
2,242,330084,6,0,L|182:251,1,180,6|8,0:0|0:0,0:0:0:0:
224,120,330787,1,0,0:0:0:0:
124,44,331021,2,0,P|56:48|24:72,1,90,2|0,0:0|0:0,0:0:0:0:
2,242,331490,1,8,0:0:0:0:
92,116,331724,2,0,L|116:160,1,45
168,212,331959,6,0,P|220:232|352:200,1,180,2|8,0:0|0:0,0:0:0:0:
248,120,332662,2,0,P|239:76|248:32,1,90,0|2,0:0|0:0,0:0:0:0:
304,176,333130,2,0,P|240:200|180:160,1,135
396,60,333834,6,0,B|392:116|392:116|432:180|384:244,1,180,6|8,0:0|0:0,0:0:0:0:
296,316,334537,1,0,0:0:0:0:
296,316,334654,1,0,0:0:0:0:
296,316,334771,2,0,P|220:312|180:288,1,90,2|0,0:0|0:0,0:0:0:0:
144,196,335240,1,8,0:0:0:0:
112,320,335474,1,0,0:0:0:0:
248,208,335709,5,8,3:0:0:0:
102,99,336060,1,8,3:0:0:0:
206,111,336412,1,8,3:0:0:0:
40,184,336763,1,4,3:0:0:0:
165,15,337115,1,4,3:0:0:0:
144,196,337349,1,0,0:0:0:0:
149,240,337466,1,0,0:0:0:0:
155,285,337584,6,0,P|208:332|328:308,1,180,6|8,0:0|0:0,0:0:0:0:
348,136,338287,1,0,0:0:0:0:
252,213,338521,2,0,L|162:202,1,90,2|0,0:0|0:0,0:0:0:0:
40,304,338990,1,8,0:0:0:0:
76,152,339224,6,0,P|68:64|-12:-4,1,180
152,60,339927,2,0,L|248:48,1,90,8|0,0:0|0:0,0:0:0:0:
241,48,340396,1,2,0:0:0:0:
193,186,340630,2,0,P|127:192|76:152,2,135,0|0|6,0:0|0:0|0:0,0:0:0:0:
152,60,341568,6,0,L|59:47,1,90,0|8,0:0|0:0,0:0:0:0:
104,166,342037,1,0,0:0:0:0:
144,184,342154,1,0,0:0:0:0:
193,186,342271,2,0,P|252:153|240:47,1,180,2|8,0:0|0:0,0:0:0:0:
104,166,342974,1,0,0:0:0:0:
85,206,343091,1,0,0:0:0:0:
84,254,343208,6,0,P|117:313|223:301,1,180,2|8,0:0|0:0,0:0:0:0:
104,166,343912,1,0,0:0:0:0:
284,232,344146,2,0,B|356:244|402:205|400:134|400:134|351:116|342:70|342:70|306:99|257:81,1,360,2|6,0:0|0:0,0:0:0:0:
168,172,345318,5,0,0:0:0:0:
168,172,345552,2,0,P|164:240|180:288,1,90,8|0,0:0|0:0,0:0:0:0:
84,132,346021,2,0,P|88:64|72:16,1,90,2|0,0:0|0:0,0:0:0:0:
20,204,346490,1,8,0:0:0:0:
30,247,346607,1,0,0:0:0:0:
52,286,346724,1,0,0:0:0:0:
85,316,346841,1,0,0:0:0:0:
125,336,346959,6,0,P|192:336|244:240,1,180,2|8,0:0|0:0,0:0:0:0:
84,132,347662,1,0,0:0:0:0:
52,286,347896,1,2,0:0:0:0:
171,152,348130,2,0,P|159:83|103:44,2,135,0|0|2,0:0|0:0|0:0,0:0:0:0:
288,104,349068,6,0,L|306:192,1,90,0|8,0:0|0:0,0:0:0:0:
424,144,349537,1,0,0:0:0:0:
376,304,349771,1,2,0:0:0:0:
264,248,350005,2,0,L|216:256,1,45
168,292,350240,1,8,0:0:0:0:
168,292,350357,2,0,P|96:276|52:200,1,135,0|2,0:0|0:0,0:0:0:0:
44,104,350943,5,0,0:0:0:0:
166,170,351177,2,0,P|216:167|254:146,1,90,8|0,0:0|0:0,0:0:0:0:
320,44,351646,1,8,3:0:0:0:
320,44,351763,2,0,P|340:100|336:160,2,90,8|8|4,3:0|3:0|3:0,0:0:0:0:
248,76,352349,1,8,0:0:0:0:
203,80,352466,1,8,0:0:0:0:
160,67,352584,6,0,P|80:116|72:212,1,180,6|8,0:0|0:0,0:0:0:0:
156,284,353287,1,0,0:0:0:0:
244,192,353521,2,0,P|324:176|384:200,2,135,2|0|0,0:0|0:0|0:0,0:0:0:0:
156,284,354459,5,2,0:0:0:0:
156,284,354576,2,0,L|136:192,1,90
88,136,354927,2,0,L|40:160,1,45,8|0,0:0|0:0,0:0:0:0:
44,72,355162,2,0,L|-5:50,1,45
150,80,355396,2,0,P|173:137|144:193,2,90,2|0|8,0:0|0:0|0:0,0:0:0:0:
88,136,355982,2,0,L|76:228,1,90
112,312,356334,6,0,P|184:352|252:348,3,135,2|0|0|0,0:0|0:0|0:0|0:0,0:0:0:0:
364,216,357740,1,8,0:0:0:0:
364,152,357857,2,0,P|340:104|296:84,1,90
256,116,358209,6,0,L|144:104,1,90,2|0,0:0|0:0,0:0:0:0:
112,72,358560,2,0,P|100:44|96:24,2,45,0|8|0,0:0|0:0|0:0,0:0:0:0:
112,136,358912,2,0,L|102:225,1,90,0|2,0:0|0:0,0:0:0:0:
60,344,359380,2,0,P|40:360|20:368,2,45,8|8|2,0:0|0:0|0:0,0:0:0:0:
180,304,359849,1,8,0:0:0:0:
223,315,359966,1,8,0:0:0:0:
267,308,360084,6,0,P|332:236|328:212,1,90,6|0,0:0|0:0,0:0:0:0:
336,208,360435,1,0,0:0:0:0:
318,167,360552,1,8,0:0:0:0:
281,142,360669,2,0,L|187:155,1,90
128,152,361021,2,0,P|80:112|72:48,2,90,2|0|8,0:0|0:0|0:0,0:0:0:0:
188,172,361607,1,0,0:0:0:0:
320,308,361959,5,2,0:0:0:0:
320,308,362076,2,0,L|312:212,1,90
356,172,362427,2,0,P|384:88|376:56,1,90,8|0,0:0|0:0,0:0:0:0:
276,24,362896,1,2,0:0:0:0:
276,24,363013,2,0,L|268:120,1,90
268,176,363365,2,0,L|288:224,3,45,8|0|0|0,0:0|0:0|0:0|0:0,0:0:0:0:
276,280,363834,5,2,0:0:0:0:
276,280,364185,2,0,P|232:320|152:312,3,135,0|0|0|8,0:0|0:0|0:0|0:0,0:0:0:0:
124,264,365357,2,0,P|64:248|24:272,1,90
78,319,365709,6,0,L|83:215,1,90,2|0,0:0|0:0,0:0:0:0:
35,112,366177,1,8,0:0:0:0:
35,112,366294,2,0,P|90:145|119:140,1,90
174,156,366646,1,6,0:0:0:0:
174,156,366763,2,0,L|199:201,1,45,8|0,3:0|0:0,0:0:0:0:
244,113,366998,2,0,L|222:73,1,45,8|0,3:0|0:0,0:0:0:0:
316,160,367232,1,8,3:0:0:0:
359,172,367349,1,4,3:0:0:0:
403,166,367466,1,4,3:0:0:0:
441,142,367583,1,6,0:0:0:0:
441,142,371099,5,2,0:0:0:0:
344,304,371334,1,6,0:0:0:0:
344,304,373209,5,8,0:3:0:0:
180,184,373560,1,8,0:3:0:0:
383,184,373912,1,8,0:3:0:0:
219,304,374263,1,4,0:3:0:0:
282,110,374615,1,4,0:3:0:0:
219,304,374849,2,0,L|228:349,1,45,8|8,0:0|0:0,0:0:0:0:
92,180,375084,1,6,0:0:0:0:
92,180,378834,5,6,0:0:0:0:
92,180,380709,5,6,0:0:0:0:
141,296,381060,1,8,0:3:0:0:
257,345,381412,1,8,0:3:0:0:
374,297,381763,1,4,0:3:0:0:
422,180,382115,1,4,0:3:0:0:
486,288,382349,2,0,L|494:348,1,45,8|8,0:0|0:0,0:0:0:0:
344,196,382584,6,0,P|300:196|248:212,1,94.499997116089,6|0,0:0|0:0,0:0:0:0:
228,340,383052,1,8,0:0:0:0:
96,168,383287,1,0,0:0:0:0:
20,276,383521,2,0,L|12:372,1,94.499997116089,2|0,0:0|0:0,0:0:0:0:
180,200,383990,2,0,L|172:104,1,94.499997116089,8|0,0:0|0:0,0:0:0:0:
110,256,384459,5,2,0:0:0:0:
82,80,384693,1,0,0:0:0:0:
250,144,384927,2,0,P|298:120|322:84,1,94.499997116089,8|0,0:0|0:0,0:0:0:0:
96,168,385396,2,0,P|48:192|24:228,1,94.499997116089,2|0,0:0|0:0,0:0:0:0:
228,320,385865,1,8,0:0:0:0:
180,200,386099,1,0,0:0:0:0:
356,228,386334,6,0,L|449:214,1,94.499997116089,2|0,0:0|0:0,0:0:0:0:
292,296,386802,2,0,L|257:383,1,94.499997116089,8|0,0:0|0:0,0:0:0:0:
265,206,387271,1,2,0:0:0:0:
160,284,387505,1,0,0:0:0:0:
380,316,387740,1,8,0:0:0:0:
332,140,387974,1,0,0:0:0:0:
160,284,388209,6,0,P|200:300|252:288,1,94.499997116089,2|0,0:0|0:0,0:0:0:0:
172,180,388677,2,0,L|68:192,1,94.499997116089,8|0,0:0|0:0,0:0:0:0:
238,129,389146,2,0,L|342:141,1,94.499997116089,2|0,0:0|0:0,0:0:0:0:
160,96,389615,2,0,P|156:40|160:0,1,94.499997116089,8|0,0:0|0:0,0:0:0:0:
250,213,390084,6,0,P|183:266|92:211,1,188.999994232178,2|8,0:0|0:0,0:0:0:0:
40,104,390787,1,0,0:0:0:0:
0,232,391021,2,0,L|16:328,1,94.499997116089,2|0,0:0|0:0,0:0:0:0:
172,180,391490,2,0,P|164:116|148:88,1,94.499997116089,8|0,0:0|0:0,0:0:0:0:
76,216,391959,5,2,0:0:0:0:
168,312,392193,2,0,P|228:300|252:276,2,94.499997116089,0|8|0,0:0|0:0|0:0,0:0:0:0:
172,180,392896,2,0,L|272:192,1,94.499997116089,2|0,0:0|0:0,0:0:0:0:
360,284,393365,2,0,P|384:232|424:184,1,94.499997116089,8|0,0:0|0:0,0:0:0:0:
328,96,393834,6,0,P|270:101|209:90,1,94.499997116089,2|0,0:0|0:0,0:0:0:0:
116,248,394302,1,8,0:0:0:0:
45,71,394537,1,0,0:0:0:0:
172,180,394771,2,0,P|218:184|265:179,1,94.499997116089,2|0,0:0|0:0,0:0:0:0:
44,208,395240,2,0,P|36:268|64:312,1,94.499997116089,8|0,0:0|0:0,0:0:0:0:
234,96,395709,5,2,0:0:0:0:
133,340,395943,1,0,0:0:0:0:
251,188,396177,2,0,L|234:96,1,94.499997116089,8|0,0:0|0:0,0:0:0:0:
116,248,396646,2,0,L|136:352,1,94.499997116089,2|0,0:0|0:0,0:0:0:0:
44,208,397115,1,8,0:0:0:0:
248,312,397349,1,0,0:0:0:0:
325,93,397584,6,0,P|296:28|176:24,1,188.999994232178,6|8,0:0|0:0,0:0:0:0:
120,128,398287,2,0,P|64:128|16:104,1,94.499997116089,0|2,0:0|0:0,0:0:0:0:
29,113,398755,1,0,0:0:0:0:
100,240,398990,2,0,L|92:336,1,94.499997116089,8|0,0:0|0:0,0:0:0:0:
192,184,399459,5,2,0:0:0:0:
280,280,399693,1,0,0:0:0:0:
372,188,399927,2,0,P|384:108|372:64,1,94.499997116089,8|0,0:0|0:0,0:0:0:0:
280,8,400396,2,0,P|268:88|280:132,1,94.499997116089,2|0,0:0|0:0,0:0:0:0:
440,16,400865,1,8,0:0:0:0:
420,148,401099,1,0,0:0:0:0:
280,8,401334,6,0,L|172:20,1,94.499997116089,2|0,0:0|0:0,0:0:0:0:
48,136,401802,2,0,L|156:124,1,94.499997116089,8|0,0:0|0:0,0:0:0:0:
268,168,402271,2,0,P|344:176|384:156,1,94.499997116089,2|0,0:0|0:0,0:0:0:0:
209,111,402740,2,0,P|189:155|197:211,1,94.499997116089,8|0,0:0|0:0,0:0:0:0:
266,52,403209,6,0,P|222:32|166:40,1,94.499997116089,2|0,0:0|0:0,0:0:0:0:
268,168,403677,1,8,0:0:0:0:
268,168,403912,1,0,0:0:0:0:
160,244,404146,2,0,L|144:344,1,94.499997116089,2|0,0:0|0:0,0:0:0:0:
72,172,404615,2,0,L|56:72,1,94.499997116089,8|0,0:0|0:0,0:0:0:0:
282,74,405084,6,0,L|267:167,1,94.499997116089,2|0,0:0|0:0,0:0:0:0:
120,236,405552,1,8,0:0:0:0:
168,112,405787,1,0,0:0:0:0:
296,152,406021,2,0,P|324:196|320:240,1,94.499997116089,2|0,0:0|0:0,0:0:0:0:
200,360,406490,2,0,P|172:316|176:272,1,94.499997116089,8|0,0:0|0:0,0:0:0:0:
338,286,406959,6,0,L|245:301,1,94.499997116089,2|0,0:0|0:0,0:0:0:0:
69,190,407427,1,8,0:0:0:0:
24,316,407662,1,0,0:0:0:0:
132,240,407896,2,0,L|225:225,1,94.499997116089,2|0,0:0|0:0,0:0:0:0:
288,108,408365,2,0,P|280:56|252:28,1,94.499997116089,8|0,0:0|0:0,0:0:0:0:
204,156,408834,5,2,0:0:0:0:
248,28,409068,1,0,0:0:0:0:
352,196,409302,2,0,P|404:188|432:160,1,94.499997116089,8|0,0:0|0:0,0:0:0:0:
300,140,409771,1,2,0:0:0:0:
344,12,410005,1,0,0:0:0:0:
432,159,410240,2,0,P|440:224|436:264,1,94.499997116089,8|0,0:0|0:0,0:0:0:0:
261,196,410709,6,0,P|313:184|353:196,1,94.499997116089,2|0,0:0|0:0,0:0:0:0:
234,371,411177,1,8,0:0:0:0:
306,259,411412,1,0,0:0:0:0:
432,360,411646,1,2,0:0:0:0:
380,240,411880,1,0,0:0:0:0:
228,288,412115,2,0,P|168:284|132:264,1,94.499997116089,8|0,0:0|0:0,0:0:0:0:
409,158,412584,6,0,P|460:208|464:264,1,94.499997116089,6|0,0:0|0:0,0:0:0:0:
364,312,413052,1,8,0:0:0:0:
408,156,413287,1,0,0:0:0:0:
280,188,413521,2,0,L|184:176,1,94.499997116089,2|0,0:0|0:0,0:0:0:0:
408,156,413990,2,0,B|411:193|411:193|403:249,1,94.499997116089,8|0,0:0|0:0,0:0:0:0:
312,348,414459,5,2,0:0:0:0:
312,348,414693,1,0,0:0:0:0:
180,240,414927,2,0,L|192:144,1,94.499997116089,8|0,0:0|0:0,0:0:0:0:
288,56,415396,2,0,L|299:149,1,94.499997116089,2|0,0:0|0:0,0:0:0:0:
128,304,415865,2,0,P|100:256|100:216,1,94.499997116089,8|0,0:0|0:0,0:0:0:0:
328,216,416334,5,2,0:0:0:0:
260,328,416568,1,0,0:0:0:0:
197,213,416802,2,0,L|184:116,1,94.499997116089,8|0,0:0|0:0,0:0:0:0:
248,4,417271,1,2,0:0:0:0:
96,128,417505,1,0,0:0:0:0:
328,216,417740,2,0,L|424:200,1,94.499997116089,8|0,0:0|0:0,0:0:0:0:
200,212,418209,6,0,B|148:200|148:200|96:172,1,94.499997116089,2|0,0:0|0:0,0:0:0:0:
177,31,418677,2,0,P|188:77|180:124,1,94.499997116089,8|0,0:0|0:0,0:0:0:0:
36,248,419146,1,2,0:0:0:0:
36,248,419380,1,0,0:0:0:0:
256,340,419615,2,0,P|320:336|352:320,1,94.499997116089,8|0,0:0|0:0,0:0:0:0:
150,143,420084,6,0,P|62:161|35:247,1,188.999994232178,2|8,0:0|0:0,0:0:0:0:
0,112,420787,1,0,0:0:0:0:
123,228,421021,2,0,P|179:230|214:212,1,94.499997116089,2|0,0:0|0:0,0:0:0:0:
39,195,421490,2,0,P|37:251|55:286,1,94.499997116089,8|0,0:0|0:0,0:0:0:0:
150,143,421959,5,2,0:0:0:0:
48,286,422193,1,0,0:0:0:0:
85,98,422427,2,0,P|58:48|25:27,1,94.499997116089,8|0,0:0|0:0,0:0:0:0:
39,195,422896,2,0,P|65:244|98:265,1,94.499997116089,2|0,0:0|0:0,0:0:0:0:
256,216,423365,1,8,0:0:0:0:
344,316,423599,1,0,0:0:0:0:
420,136,423834,6,0,L|396:32,1,94.499997116089,2|0,0:0|0:0,0:0:0:0:
256,216,424302,2,0,L|234:308,1,94.499997116089,8|0,0:0|0:0,0:0:0:0:
308,136,424771,2,0,L|284:32,1,94.499997116089,2|0,0:0|0:0,0:0:0:0:
144,216,425239,2,0,L|122:308,1,94.499997116089,8|0,0:0|0:0,0:0:0:0:
196,136,425709,5,8,3:0:0:0:
253,311,426060,1,8,3:0:0:0:
308,136,426412,1,8,3:0:0:0:
161,244,426646,1,4,3:0:0:0:
161,244,426763,2,0,L|152:296,1,47.2499985580445,4|0,3:0|0:0,0:0:0:0:
80,252,426998,1,4,3:0:0:0:
54,207,427115,1,8,0:0:0:0:
47,156,427232,1,8,0:0:0:0:
59,105,427349,1,8,0:0:0:0:
90,64,427466,1,8,0:0:0:0:
134,37,427584,6,0,L|236:40,1,99.0000030212403,6|0,0:0|0:0,0:0:0:0:
92,124,428052,2,0,L|194:127,1,99.0000030212403,8|0,0:0|0:0,0:0:0:0:
50,211,428521,2,0,L|152:214,1,99.0000030212403,2|0,0:0|0:0,0:0:0:0:
8,298,428990,1,8,0:0:0:0:
160,348,429224,1,0,0:0:0:0:
208,342,429341,1,0,0:0:0:0:
252,319,429459,6,0,P|276:240|280:184,1,99.0000030212403,2|0,0:0|0:0,0:0:0:0:
144,76,429927,1,8,0:0:0:0:
160,216,430162,1,0,0:0:0:0:
256,36,430396,1,2,0:0:0:0:
352,136,430630,2,0,L|404:144,1,49.5000015106202
208,208,430865,2,0,L|156:216,1,49.5000015106202,8|0,0:0|0:0,0:0:0:0:
352,280,431099,2,0,L|400:287,1,49.5000015106202
208,342,431334,6,0,P|148:342|106:310,1,99.0000030212403,2|0,0:0|0:0,0:0:0:0:
195,179,431802,2,0,P|198:227|175:270,1,99.0000030212403,8|0,0:0|0:0,0:0:0:0:
56,176,432271,2,0,P|52:127|75:84,1,99.0000030212403,2|0,0:0|0:0,0:0:0:0:
175,270,432740,1,8,0:0:0:0:
244,80,432974,2,0,L|260:132,1,49.5000015106202
312,212,433209,6,0,P|376:228|424:204,1,99.0000030212403,2|0,0:0|0:0,0:0:0:0:
456,44,433677,1,8,0:0:0:0:
404,220,433912,1,0,0:0:0:0:
344,28,434146,1,2,0:0:0:0:
386,206,434381,1,0,0:0:0:0:
239,70,434615,1,8,0:0:0:0:
364,203,434850,1,0,0:0:0:0:
152,260,435084,6,0,B|96:248|96:248|52:208,1,99.0000030212403,2|0,0:0|0:0,0:0:0:0:
216,204,435552,2,0,B|233:258|233:258|220:316,1,99.0000030212403,8|0,0:0|0:0,0:0:0:0:
135,176,436021,2,0,B|173:133|173:133|230:115,1,99.0000030212403,2|0,0:0|0:0,0:0:0:0:
224,299,436490,1,8,0:0:0:0:
52,216,436724,1,0,0:0:0:0:
41,168,436841,1,0,0:0:0:0:
57,122,436959,6,0,P|128:72|160:64,1,99.0000030212403,2|0,0:0|0:0,0:0:0:0:
328,128,437427,1,8,0:0:0:0:
192,177,437662,1,0,0:0:0:0:
216,35,437896,1,2,0:0:0:0:
276,197,438130,2,0,L|295:249,1,49.5000015106202
157,97,438365,2,0,L|101:87,1,49.5000015106202,8|0,0:0|0:0,0:0:0:0:
302,43,438599,2,0,L|337:0,1,49.5000015106202
356,196,438834,6,0,P|408:212|476:168,1,99.0000030212403,2|0,0:0|0:0,0:0:0:0:
267,113,439302,2,0,P|216:134|193:211,1,99.0000030212403,8|0,0:0|0:0,0:0:0:0:
404,136,439771,2,0,B|412:88|412:88|404:32,1,99.0000030212403,2|0,0:0|0:0,0:0:0:0:
448,198,440240,1,8,0:0:0:0:
336,88,440474,1,0,0:0:0:0:
232,264,440709,6,0,L|236:364,1,99.0000030212403,2|0,0:0|0:0,0:0:0:0:
152,152,441177,2,0,B|144:204|144:204|148:252,1,99.0000030212403,8|0,0:0|0:0,0:0:0:0:
303,179,441646,1,2,0:0:0:0:
315,345,441880,2,0,L|307:297,1,49.5000015106202
232,264,442115,1,8,0:0:0:0:
202,219,442232,1,8,0:0:0:0:
197,165,442349,1,8,0:0:0:0:
218,115,442466,1,8,0:0:0:0:
260,82,442584,6,0,L|360:72,1,99.0000030212403,6|0,0:0|0:0,0:0:0:0:
197,165,443052,2,0,L|296:154,1,99.0000030212403,8|0,0:0|0:0,0:0:0:0:
133,247,443521,2,0,L|232:236,1,99.0000030212403,2|0,0:0|0:0,0:0:0:0:
32,315,443990,2,0,P|42:254|41:184,1,99.0000030212403,8|0,0:0|0:0,0:0:0:0:
32,164,444341,1,0,0:0:0:0:
52,112,444459,6,0,P|104:92|168:108,1,99.0000030212403,2|0,0:0|0:0,0:0:0:0:
248,208,444927,2,0,B|308:220|308:220|348:212,1,99.0000030212403,8|0,0:0|0:0,0:0:0:0:
408,124,445396,1,2,0:0:0:0:
284,16,445630,2,0,L|274:67,1,49.5000015106202
248,208,445865,2,0,L|238:152,1,49.5000015106202,8|0,0:0|0:0,0:0:0:0:
144,20,446099,1,0,0:0:0:0:
122,70,446216,1,0,0:0:0:0:
113,123,446334,6,0,L|124:224,1,99.0000030212403,2|0,0:0|0:0,0:0:0:0:
122,70,446802,2,0,L|165:160,1,99.0000030212403,8|0,0:0|0:0,0:0:0:0:
111,16,447271,2,0,L|183:86,1,99.0000030212403,2|0,0:0|0:0,0:0:0:0:
304,192,447740,2,0,P|368:200|400:192,1,99.0000030212403,8|0,0:0|0:0,0:0:0:0:
464,144,448091,1,0,0:0:0:0:
464,144,448209,6,0,B|476:204|476:204|476:260,1,99.0000030212403,2|0,0:0|0:0,0:0:0:0:
300,288,448677,1,8,0:0:0:0:
472,352,448912,1,0,0:0:0:0:
288,264,449146,1,2,0:0:0:0:
446,356,449381,1,0,0:0:0:0:
280,238,449615,1,8,0:0:0:0:
419,356,449850,1,0,0:0:0:0:
276,212,450084,6,0,P|280:152|296:96,1,99.0000030212403,6|0,0:0|0:0,0:0:0:0:
460,84,450552,2,0,P|445:142|420:194,1,99.0000030212403,8|0,0:0|0:0,0:0:0:0:
244,142,451021,2,0,P|268:86|302:39,1,99.0000030212403,2|0,0:0|0:0,0:0:0:0:
479,158,451490,2,0,P|445:207|403:248,1,99.0000030212403,8|0,0:0|0:0,0:0:0:0:
364,244,451841,1,0,0:0:0:0:
312,228,451959,6,0,B|256:220|256:220|208:228,1,99.0000030212403,2|0,0:0|0:0,0:0:0:0:
80,312,452427,2,0,P|96:248|96:204,1,99.0000030212403,8|0,0:0|0:0,0:0:0:0:
44,88,452896,1,2,0:0:0:0:
0,220,453130,1,0,0:0:0:0:
180,272,453365,1,8,0:0:0:0:
136,140,453599,1,0,0:0:0:0:
317,300,453834,6,0,P|389:300|437:276,1,99.0000030212403,6|0,2:0|0:0,0:0:0:0:
272,167,454302,1,8,0:0:0:0:
180,272,454537,1,0,0:0:0:0:
410,195,454771,2,0,P|397:124|365:80,1,99.0000030212403,6|0,2:0|0:0,0:0:0:0:
286,262,455240,1,8,0:0:0:0:
406,334,455475,1,0,0:0:0:0:
272,167,455709,5,8,0:0:0:0:
272,167,455826,1,8,0:0:0:0:
272,167,455943,1,8,0:0:0:0:
272,167,456060,1,8,0:0:0:0:
272,167,456177,1,8,0:0:0:0:
272,167,456294,1,8,0:0:0:0:
272,167,456412,1,8,0:0:0:0:
272,167,456529,1,8,0:0:0:0:
272,167,456646,1,8,0:0:0:0:
272,167,456763,1,8,0:0:0:0:
272,167,456880,1,8,0:0:0:0:
272,167,456998,1,8,0:0:0:0:
272,167,457115,1,8,0:0:0:0:
272,167,457232,1,8,0:0:0:0:
272,167,457349,1,8,0:0:0:0:
272,167,457466,1,8,0:0:0:0:
272,167,457584,6,0,L|288:280,1,112.5
412,180,458052,2,0,B|408:120|408:120|392:64,1,112.5,8|0,0:0|0:0,0:0:0:0:
352,32,458404,1,0,0:0:0:0:
300,12,458521,1,2,0:0:0:0:
164,148,458755,2,0,L|156:216,1,56.25
208,288,458990,1,8,0:0:0:0:
208,288,459107,2,0,L|216:356,1,56.25
320,224,459341,6,0,P|328:172|324:108,1,112.5
56,137,459927,2,0,P|108:155|164:148,1,112.5,8|0,0:0|0:0,0:0:0:0:
208,112,460279,1,0,0:0:0:0:
236,64,460396,2,0,L|240:8,1,56.25,2|0,0:0|0:0,0:0:0:0:
276,180,460630,2,0,L|271:235,1,56.25
335,72,460865,2,0,L|339:16,1,56.25,8|0,0:0|0:0,0:0:0:0:
375,188,461099,1,0,0:0:0:0:
380,243,461216,1,0,0:0:0:0:
368,298,461334,6,0,P|272:332|232:312,1,112.5,6|0,2:0|0:0,0:0:0:0:
140,180,461802,1,8,0:0:0:0:
140,180,462037,1,0,0:0:0:0:
151,234,462154,1,0,0:0:0:0:
145,290,462271,2,0,P|104:316|36:312,1,112.5,2|0,0:0|0:0,0:0:0:0:
8,268,462623,1,0,0:0:0:0:
8,212,462740,2,0,L|16:152,1,56.25,8|0,0:0|0:0,0:0:0:0:
128,12,463091,6,0,L|144:152,1,112.5
8,348,463677,1,8,0:0:0:0:
184,264,463912,1,0,0:0:0:0:
236,244,464029,1,0,0:0:0:0:
292,249,464146,2,0,P|347:259|407:243,1,112.5,2|0,0:0|0:0,0:0:0:0:
440,204,464498,1,0,0:0:0:0:
456,152,464615,2,0,L|448:88,1,56.25,8|0,0:0|0:0,0:0:0:0:
368,256,464849,2,0,L|427:281,1,56.25
264,116,465084,6,0,P|208:105|148:121,1,112.5,6|0,2:0|0:0,0:0:0:0:
76,320,465552,1,8,0:0:0:0:
36,164,465787,1,0,0:0:0:0:
71,206,465904,1,0,0:0:0:0:
123,227,466021,2,0,L|240:216,1,112.5,2|0,0:0|0:0,0:0:0:0:
288,192,466373,1,0,0:0:0:0:
288,192,466490,2,0,L|364:196,1,56.25,8|0,0:0|0:0,0:0:0:0:
184,116,466841,5,0,0:0:0:0:
252,336,467076,1,0,0:0:0:0:
252,336,467427,2,0,B|276:272|276:272|280:176,1,112.5,8|0,0:0|0:0,0:0:0:0:
260,172,467779,1,0,0:0:0:0:
228,124,467896,2,0,L|201:72,1,56.25,2|0,0:0|0:0,0:0:0:0:
376,231,468130,2,0,L|428:257,1,56.25
193,231,468365,2,0,L|135:240,1,56.25,8|0,0:0|0:0,0:0:0:0:
341,124,468599,2,0,L|382:82,1,56.25
285,298,468834,6,0,P|224:340|164:336,1,112.5,6|0,2:0|0:0,0:0:0:0:
312,180,469302,2,0,P|368:204|400:260,1,112.5,8|0,0:0|0:0,0:0:0:0:
428,292,469654,1,0,0:0:0:0:
428,292,469771,2,0,L|440:220,1,56.25,2|0,0:0|0:0,0:0:0:0:
416,68,470005,2,0,L|425:123,1,56.25
352,292,470240,2,0,L|364:220,1,56.25,8|0,0:0|0:0,0:0:0:0:
340,68,470474,2,0,L|349:123,1,56.25
260,288,470709,6,0,B|188:296|188:296|148:280,1,112.5,8|0,3:0|0:0,0:0:0:0:
236,208,471060,2,0,L|356:220,1,112.5,8|0,3:0|0:0,0:0:0:0:
272,128,471412,2,0,P|208:126|152:180,1,112.5,8|0,3:0|0:0,0:0:0:0:
351,163,471763,2,0,P|353:99|299:43,1,112.5,4|0,3:0|0:0,0:0:0:0:
264,12,472115,1,8,0:0:0:0:
264,12,472232,1,8,0:0:0:0:
264,12,472349,1,8,0:0:0:0:
264,12,472466,1,8,0:0:0:0:
264,12,472584,6,0,L|252:144,1,112.5,6|0,0:0|0:0,0:0:0:0:
144,272,473052,2,0,P|68:276|36:256,1,112.5,8|0,0:0|0:0,0:0:0:0:
101,196,473404,1,0,0:0:0:0:
101,196,473521,2,0,L|86:313,1,112.5,2|0,0:0|0:0,0:0:0:0:
176,364,473873,1,0,0:0:0:0:
176,364,473990,2,0,L|172:296,1,56.25,8|0,0:0|0:0,0:0:0:0:
32,108,474341,5,0,0:0:0:0:
304,156,474576,1,0,0:0:0:0:
304,160,474927,2,0,P|328:208|336:272,1,112.5,8|0,0:0|0:0,0:0:0:0:
300,312,475279,1,0,0:0:0:0:
244,324,475396,2,0,L|188:316,1,56.25,2|0,0:0|0:0,0:0:0:0:
336,265,475630,2,0,L|392:257,1,56.25
156,212,475865,2,0,L|100:204,1,56.25,8|0,0:0|0:0,0:0:0:0:
304,160,476099,2,0,L|360:152,1,56.25
108,128,476334,6,0,L|-4:88,1,112.5,6|0,2:0|0:0,0:0:0:0:
152,208,476802,2,0,P|197:159|196:104,1,112.5,8|0,0:0|0:0,0:0:0:0:
180,62,477154,1,0,0:0:0:0:
132,32,477271,1,2,0:0:0:0:
276,56,477505,2,0,L|336:48,1,56.25
380,80,477740,1,8,0:0:0:0:
408,128,477857,2,0,L|396:248,2,112.5
180,62,478677,6,0,L|192:182,1,112.5,8|0,0:0|0:0,0:0:0:0:
176,228,479029,1,0,0:0:0:0:
128,256,479146,2,0,P|99:255|72:246,1,56.25,2|0,0:0|0:0,0:0:0:0:
191,173,479380,2,0,P|219:173|246:182,1,56.25
329,290,479615,2,0,P|301:289|275:281,1,56.25,8|0,0:0|0:0,0:0:0:0:
392,207,479849,2,0,P|420:207|447:216,1,56.25
296,360,480084,6,0,L|180:372,1,112.5,6|0,2:0|0:0,0:0:0:0:
401,261,480552,1,8,0:0:0:0:
401,261,480787,2,0,P|399:232|391:206,1,56.25
340,147,481021,2,0,P|340:71|368:11,1,112.5,2|0,0:0|0:0,0:0:0:0:
436,24,481373,1,0,0:0:0:0:
436,24,481490,2,0,P|434:52|426:78,1,56.25,8|0,0:0|0:0,0:0:0:0:
220,204,481841,5,0,0:0:0:0:
464,296,482076,1,0,0:0:0:0:
464,296,482427,2,0,P|408:352|336:352,1,112.5,8|0,0:0|0:0,0:0:0:0:
324,340,482779,1,0,0:0:0:0:
279,307,482896,1,2,0:0:0:0:
262,254,483013,1,0,0:0:0:0:
281,202,483130,1,0,0:0:0:0:
273,147,483247,1,0,0:0:0:0:
242,101,483365,2,0,L|168:84,1,56.25,8|0,0:0|0:0,0:0:0:0:
48,140,483599,2,0,L|102:152,1,56.25
336,136,483834,6,0,P|376:80|380:24,1,112.5,6|0,2:0|0:0,0:0:0:0:
448,252,484302,2,0,B|460:320|460:320|460:384,1,112.5,8|0,0:0|0:0,0:0:0:0:
380,340,484654,1,0,0:0:0:0:
380,340,484771,2,0,L|371:276,1,56.25,2|0,0:0|0:0,0:0:0:0:
344,80,485005,2,0,L|336:135,1,56.25
292,340,485240,2,0,L|284:284,1,56.25,8|0,0:0|0:0,0:0:0:0:
256,80,485474,2,0,L|248:135,1,56.25
172,248,485709,6,0,P|120:268|57:268,1,112.5,8|0,3:0|0:0,0:0:0:0:
160,172,486060,2,0,B|212:152|212:152|274:151,1,112.5,8|0,3:0|0:0,0:0:0:0:
145,97,486412,2,0,L|30:117,1,112.5,8|0,3:0|0:0,0:0:0:0:
168,8,486763,2,0,L|282:28,1,112.5,4|0,3:0|0:0,0:0:0:0:
320,96,487115,1,8,0:0:0:0:
344,152,487232,1,8,0:0:0:0:
368,209,487349,1,8,0:0:0:0:
392,266,487466,1,8,0:0:0:0:
416,323,487584,6,0,P|352:300|284:296,1,112.5,6|0,0:0|0:0,0:0:0:0:
96,380,488052,1,8,0:0:0:0:
48,172,488287,2,0,L|38:227,1,56.25
128,184,488521,2,8,L|108:73,1,112.5,2|0,0:0|0:0,0:0:0:0:
164,88,488873,1,0,0:0:0:0:
216,108,488990,2,0,B|248:120|248:120|280:124,1,56.25,8|0,0:0|0:0,0:0:0:0:
468,32,489341,5,0,0:0:0:0:
360,284,489576,1,0,0:0:0:0:
269,122,489927,2,0,P|339:148|408:134,1,112.5,8|0,0:0|0:0,0:0:0:0:
418,107,490279,1,0,0:0:0:0:
438,55,490396,2,0,L|428:-1,1,56.25,2|0,3:0|3:0,3:0:0:0:
422,215,490630,2,0,L|450:263,1,56.25,0|0,3:0|3:0,3:0:0:0:
232,48,490865,1,8,0:0:0:0:
425,143,491099,2,0,P|397:148|372:162,1,56.25
336,236,491334,5,2,0:0:0:0:
232,48,491568,1,0,0:0:0:0:
144,296,491802,2,0,P|76:312|32:296,1,112.5,8|0,0:0|0:0,0:0:0:0:
4,252,492154,1,0,0:0:0:0:
8,192,492271,1,2,0:0:0:0:
232,48,492505,2,0,L|224:124,1,56.25
89,227,492740,2,0,L|97:151,1,56.25,8|0,0:0|0:0,0:0:0:0:
231,384,493091,5,0,0:0:0:0:
148,32,493326,1,0,0:0:0:0:
148,32,493677,2,0,P|165:104|220:132,1,112.5,8|0,0:0|0:0,0:0:0:0:
248,136,494029,1,0,0:0:0:0:
298,111,494146,1,2,0:0:0:0:
380,4,494380,2,0,L|392:80,1,56.25
240,224,494615,2,0,L|168:196,1,56.25,8|0,0:0|0:0,0:0:0:0:
400,132,494849,2,0,L|411:208,1,56.25
220,336,495084,6,0,B|156:348|156:348|108:340,1,112.5,2|0,0:0|0:0,0:0:0:0:
240,224,495552,2,0,P|296:248|328:296,1,112.5,8|0,0:0|0:0,0:0:0:0:
352,364,495904,1,0,0:0:0:0:
352,364,496021,1,2,0:0:0:0:
400,128,496255,2,0,L|408:248,1,112.5,0|8,0:0|0:0,0:0:0:0:
407,240,496607,1,0,0:0:0:0:
288,24,496841,5,0,0:0:0:0:
124,272,497076,1,0,0:0:0:0:
124,272,497427,2,0,B|188:284|188:284|236:276,1,112.5,8|0,0:0|0:0,0:0:0:0:
268,232,497779,1,0,0:0:0:0:
276,176,497896,2,0,L|276:120,1,56.25,2|0,0:0|0:0,0:0:0:0:
332,284,498130,2,0,L|332:340,1,56.25
388,176,498365,2,0,L|388:120,1,56.25,8|0,0:0|0:0,0:0:0:0:
444,284,498599,2,0,L|444:340,1,56.25
439,57,498834,6,0,P|387:37|335:57,1,112.5,2|0,0:0|0:0,0:0:0:0:
300,100,499185,1,0,0:0:0:0:
257,136,499302,1,8,0:0:0:0:
203,151,499419,1,0,0:0:0:0:
148,144,499536,1,0,0:0:0:0:
100,115,499653,1,0,0:0:0:0:
68,69,499771,2,0,L|60:188,1,112.5,2|0,0:0|0:0,0:0:0:0:
245,25,500240,1,8,0:0:0:0:
297,6,500357,1,0,0:0:0:0:
350,21,500474,1,0,0:0:0:0:
385,64,500591,1,0,0:0:0:0:
390,119,500709,6,0,L|413:180,2,56.25,8|0|0,3:0|0:0|0:0,0:0:0:0:
330,172,501060,2,0,L|324:236,2,56.25,8|0|0,3:0|0:0|0:0,0:0:0:0:
253,194,501412,2,0,L|221:250,2,56.25,8|0|0,3:0|0:0|0:0,0:0:0:0:
174,181,501763,2,0,L|121:218,2,56.25,4|0|0,3:0|0:0|0:0,0:0:0:0:
108,137,502115,1,8,0:0:0:0:
108,137,502232,1,8,0:0:0:0:
108,137,502349,1,8,0:0:0:0:
108,137,502466,1,8,0:0:0:0:
108,137,502584,6,0,L|44:148,1,56.25,6|0,0:0|0:0,0:0:0:0:
204,28,502818,2,0,L|267:39,1,56.25
330,172,503052,2,0,L|361:228,3,56.25,8|0|0|0,0:0|0:0|0:0|0:0,0:0:0:0:
136,80,503521,2,0,L|86:38,1,56.25,2|0,0:0|0:0,0:0:0:0:
281,83,503755,2,0,L|312:139,1,56.25
251,272,503989,2,0,L|228:332,3,56.25,8|0|0|0,0:0|0:0|0:0|0:0,0:0:0:0:
197,64,504459,6,0,L|196:0,1,56.25,2|0,0:0|0:0,0:0:0:0:
288,177,504693,2,0,L|265:237,1,56.25
124,276,504927,2,0,L|63:297,3,56.25,8|0|0|0,0:0|0:0|0:0|0:0,0:0:0:0:
258,99,505397,2,0,L|307:56,1,56.25,2|0,0:0|0:0,0:0:0:0:
230,241,505631,2,0,L|169:262,1,56.25
49,179,505865,2,0,L|-6:146,3,56.25,8|0|0|0,0:0|0:0|0:0|0:0,0:0:0:0:
258,99,506334,6,0,L|265:167,1,56.25,2|0,0:0|0:0,0:0:0:0:
252,208,506568,1,0,0:0:0:0:
219,253,506685,1,0,0:0:0:0:
171,281,506802,1,8,0:0:0:0:
115,288,506919,1,0,0:0:0:0:
61,273,507037,2,0,L|24:208,1,56.25
149,111,507271,2,0,L|156:179,1,56.25,2|0,0:0|0:0,0:0:0:0:
178,216,507505,1,0,0:0:0:0:
219,253,507622,1,0,0:0:0:0:
272,271,507739,1,8,0:0:0:0:
328,267,507856,1,0,0:0:0:0:
377,241,507974,2,0,L|400:169,1,56.25
285,57,508209,6,0,L|292:125,1,56.25,2|0,0:0|0:0,0:0:0:0:
277,215,508443,2,0,L|269:283,3,56.25,0|0|8|0,0:0|0:0|0:0|0:0,0:0:0:0:
124,384,508912,2,0,L|116:315,1,56.25
132,226,509146,2,0,L|139:157,3,56.25,2|0|0|0,0:0|0:0|0:0|0:0,0:0:0:0:
204,87,509615,1,8,0:0:0:0:
239,129,509732,1,0,0:0:0:0:
293,142,509849,1,0,0:0:0:0:
343,119,509966,1,0,0:0:0:0:
369,70,510084,6,0,B|368:38|368:38|363:4,1,56.25,2|0,0:0|0:0,0:0:0:0:
369,256,510318,2,0,B|398:270|398:270|430:283,1,56.25
208,163,510552,2,0,B|180:180|180:180|153:202,1,56.25,8|0,0:0|0:0,0:0:0:0:
422,163,510787,2,0,B|449:145|449:145|476:123,1,56.25
261,69,511021,2,0,B|231:54|231:54|199:41,1,56.25,2|0,0:0|0:0,0:0:0:0:
261,255,511255,2,0,B|262:287|262:287|267:321,1,56.25
369,70,511490,2,0,L|363:4,1,56.25,8|0,0:0|0:0,0:0:0:0:
369,256,511724,2,0,L|375:322,1,56.25
155,69,511959,6,0,B|125:54|125:54|93:41,1,56.25,2|0,0:0|0:0,0:0:0:0:
315,162,512193,2,0,B|342:144|342:144|369:122,1,56.25
154,255,512427,2,0,B|155:287|155:287|160:321,1,56.25,8|0,0:0|0:0,0:0:0:0:
261,69,512662,2,0,B|259:36|259:36|254:2,1,56.25
99,162,512896,2,0,B|71:179|71:179|44:201,1,56.25,2|0,0:0|0:0,0:0:0:0:
260,255,513130,2,0,B|289:269|289:269|321:282,1,56.25
155,69,513365,2,0,L|93:41,1,56.25,8|0,0:0|0:0,0:0:0:0:
315,162,513599,2,0,L|376:189,1,56.25
152,256,513834,5,2,0:0:0:0:
167,309,513951,1,0,0:0:0:0:
207,347,514068,1,0,0:0:0:0:
261,361,514185,1,0,0:0:0:0:
315,346,514302,1,8,0:0:0:0:
354,306,514419,2,0,L|365:251,2,56.25
202,159,514771,1,2,0:0:0:0:
148,146,514888,1,0,0:0:0:0:
95,161,515005,1,0,0:0:0:0:
56,201,515122,1,0,0:0:0:0:
42,255,515239,1,8,0:0:0:0:
57,309,515356,2,0,L|100:346,2,56.25
261,250,515709,5,8,3:0:0:0:
299,210,515826,1,0,0:0:0:0:
312,157,515943,1,0,0:0:0:0:
297,103,516060,1,8,3:0:0:0:
257,64,516177,1,0,0:0:0:0:
203,50,516294,2,0,L|149:68,2,56.25,0|8|0,0:0|3:0|0:0,0:0:0:0:
120,280,516646,2,0,L|116:348,1,56.25,0|4,0:0|3:0,0:0:0:0:
205,215,516880,2,0,L|202:159,1,56.25,0|4,0:0|3:0,0:0:0:0:
275,311,517115,1,8,0:0:0:0:
329,323,517232,1,8,0:0:0:0:
384,311,517349,1,8,0:0:0:0:
428,277,517466,1,8,0:0:0:0:
455,228,517584,6,0,B|431:155|319:135|259:175|291:191|155:287|155:235|71:79|127:71|147:11|247:7|299:35|323:59|363:143|243:255|215:285|215:285|119:219|29:277|34:376,1,1012.50003862381,6|0,1:0|0:0,0:0:0:0:
139,363,521334,6,0,B|154:281|80:210|-10:227|-10:227|-7:143|27:73|156:76|198:129|212:170|221:243|221:243|243:172|263:134|315:90|442:110|463:184|452:267,1,1012.50003862381
268,260,525084,6,0,B|328:238|391:256|343:291|382:328|409:353|446:360|497:353|525:304|525:304|549:263|549:199|505:155|425:141|397:167|368:192|372:226|322:279|379:276|345:367|283:395|223:370|155:312|162:262|183:209|234:193|256:187|256:187|270:182,1,945.000036048891
452,264,528834,6,0,B|420:364|308:364|267:259|267:259|236:364|120:364|92:264,2,503.999984619141
256,192,532701,12,0,541959,0:0:0:0:
