osu file format v13

[General]
AudioFilename: Carly Rae Jepsen - Call Me Maybe.mp3
AudioLeadIn: 0
PreviewTime: 28190
Countdown: 0
SampleSet: Normal
StackLeniency: 0.3
Mode: 0
LetterboxInBreaks: 0
WidescreenStoryboard: 0

[Editor]
Bookmarks: 33190
DistanceSpacing: 0.7
BeatDivisor: 4
GridSize: 8
TimelineZoom: 1

[Metadata]
Title:Call Me Maybe
TitleUnicode:Call Me Maybe
Artist:Carly Rae Jepsen
ArtistUnicode:Carly Rae Jepsen
Creator:ShadowSoul
Version:Relaxing
Source:
Tags:Tony
BeatmapID:257126
BeatmapSetID:56767

[Difficulty]
HPDrainRate:2.5
CircleSize:3
OverallDifficulty:2.5
ApproachRate:3.5
SliderMultiplier:1.4
SliderTickRate:2

[Events]
//Background and Video events
0,0,"Carly.jpg",0,0
//Break Periods
2,60390,63310
2,136390,150810
//Storyboard Layer 0 (Background)
//Storyboard Layer 1 (Fail)
//Storyboard Layer 2 (Pass)
//Storyboard Layer 3 (Foreground)
//Storyboard Sound Samples
//Background Colour Transformations
3,100,163,162,255

[TimingPoints]
190,500,4,2,1,50,1,0
20190,-100,4,2,1,50,0,0
28190,-100,4,1,1,50,0,1
28315,-100,4,1,1,50,0,0
44190,-100,4,1,1,50,0,1
60190,-100,4,2,1,50,0,0
72190,-100,4,2,1,50,0,0
80190,-100,4,2,1,50,0,0
88190,-100,4,1,1,50,0,1
88315,-100,4,1,1,50,0,0
104190,-100,4,1,1,50,0,1
120127,-100,4,1,1,50,0,0
120190,-100,4,1,1,50,0,1
120252,-100,4,1,1,50,0,0
136190,-100,4,1,1,50,0,0
144190,-200,4,2,1,30,0,0
152190,-100,4,1,1,50,0,1
168127,-100,4,1,1,50,0,0
168190,-100,4,1,1,50,0,1
168252,-100,4,1,1,50,0,0
184190,-100,4,2,1,50,0,0

[Colours]
Combo1 : 252,103,170
Combo2 : 39,213,243
Combo3 : 123,253,133
Combo4 : 255,255,81

[HitObjects]
256,64,4190,5,0,0:0:0:0:
344,128,4690,2,0,P|368:192|344:256,1,140,2|0,0:0|0:0,0:0:0:0:
256,328,5690,1,0,0:0:0:0:
176,248,6190,2,0,P|120:304|56:312,1,140,0|2,0:0|0:0,0:0:0:0:
72,200,7190,1,0,0:0:0:0:
144,112,7690,2,0,P|216:96|256:40,1,140
360,88,8690,5,2,0:0:0:0:
400,192,9190,1,0,0:0:0:0:
360,296,9690,1,0,0:0:0:0:
360,296,9940,2,0,L|224:328,1,140
168,312,10690,1,2,0:0:0:0:
80,240,11190,2,0,P|96:160|80:96,2,140,0|0|2,0:0|0:0|0:0,0:0:0:0:
184,192,12690,6,0,L|280:80,1,140
280,136,13440,2,0,P|344:184|408:192,1,140
424,240,14190,1,2,0:0:0:0:
352,312,14690,1,0,0:0:0:0:
240,312,15190,1,0,0:0:0:0:
136,280,15690,2,0,P|152:208|144:136,1,140,0|2,0:0|0:0,0:0:0:0:
256,112,16690,5,0,0:0:0:0:
360,72,17190,1,0,0:0:0:0:
408,176,17690,1,0,0:0:0:0:
304,216,18190,1,2,0:0:0:0:
216,288,18690,2,0,P|160:336|96:336,3,140,0|0|0|2,0:0|0:0|0:0|0:0,0:0:0:0:
120,224,20690,6,0,L|48:96,2,140,0|2|0,0:0|0:0|0:0,0:0:0:0:
224,168,22190,2,0,L|256:24,1,140,2|0,0:0|0:0,0:0:0:0:
368,56,23190,2,0,L|336:192,1,140,2|0,0:0|0:0,0:0:0:0:
368,304,24190,2,0,L|512:336,2,140,2|0|2,0:0|0:0|0:0,0:0:0:0:
256,280,25690,1,0,0:0:0:0:
256,192,26190,12,4,28190,0:0:0:0:
104,128,29190,6,0,P|128:192|104:256,1,140,0|8,0:0|0:0,0:0:0:0:
208,296,30190,2,0,L|176:360,2,70,0|0|8,0:0|0:0|0:0,0:0:0:0:
312,248,31190,2,0,P|384:232|448:248,1,140,0|8,0:0|0:0,0:0:0:0:
448,136,32190,2,0,L|472:64,2,70,0|0|8,0:0|0:0|0:0,0:0:0:0:
344,104,33190,6,0,L|216:40,1,140,0|8,0:0|0:0,0:0:0:0:
208,152,34190,2,0,L|56:128,1,140,0|8,0:0|0:0,0:0:0:0:
48,240,35190,1,0,0:0:0:0:
144,304,35690,1,8,0:0:0:0:
256,304,36190,1,0,0:0:0:0:
408,144,37190,5,0,0:0:0:0:
304,176,37690,1,0,0:0:0:0:
344,288,38190,2,0,L|504:336,2,140,8|0|8,0:0|0:0|0:0,0:0:0:0:
232,264,39690,2,0,P|168:288|96:264,2,140,8|0|8,0:0|0:0|0:0,0:0:0:0:
168,176,41190,5,0,0:0:0:0:
144,64,41690,1,8,0:0:0:0:
256,32,42190,1,0,0:0:0:0:
280,144,42690,1,8,0:0:0:0:
224,240,43190,2,0,L|328:336,1,140
326,334,44190,1,0,0:0:0:0:
448,120,45190,6,0,P|432:192|448:256,1,140,0|8,0:0|0:0,0:0:0:0:
344,296,46190,2,0,L|376:360,2,70,0|0|8,0:0|0:0|0:0,0:0:0:0:
256,224,47190,2,0,L|256:80,1,140,0|8,0:0|0:0,0:0:0:0:
144,64,48190,2,0,L|88:112,2,70,0|0|8,0:0|0:0|0:0,0:0:0:0:
256,40,49190,6,0,P|320:64|384:40,1,140,0|8,0:0|0:0,0:0:0:0:
456,128,50190,1,0,0:0:0:0:
456,128,50440,1,0,0:0:0:0:
456,128,50690,1,8,0:0:0:0:
432,240,51190,2,0,L|320:328,1,140,0|8,0:0|0:0,0:0:0:0:
256,232,52190,1,0,0:0:0:0:
80,96,53190,5,0,0:0:0:0:
144,192,53690,1,8,0:0:0:0:
80,288,54190,1,0,0:0:0:0:
256,152,55190,5,0,0:0:0:0:
352,96,55690,2,0,P|368:168|336:224,1,140,8|0,0:0|0:0,0:0:0:0:
256,304,56690,1,8,0:0:0:0:
160,248,57190,2,0,P|168:176|128:112,1,140,0|8,0:0|0:0,0:0:0:0:
56,200,58190,2,0,L|24:264,2,70,0|0|8,0:0|0:0|0:0,0:0:0:0:
120,104,59190,2,0,P|200:88|240:48,1,140
344,88,60190,1,0,0:0:0:0:
192,64,64690,6,0,P|256:88|320:64,1,140,8|0,0:0|0:0,0:0:0:0:
408,136,65690,2,0,L|408:280,1,140,8|0,0:0|0:0,0:0:0:0:
296,296,66690,1,8,0:0:0:0:
184,296,67190,1,0,0:0:0:0:
240,200,67690,2,0,P|264:128|240:64,1,140,8|0,0:0|0:0,0:0:0:0:
152,136,68690,5,8,0:0:0:0:
88,224,69190,2,0,L|48:288,2,70,0|0|8,0:0|0:0|0:0,0:0:0:0:
192,272,70190,2,0,P|256:248|320:272,1,140,0|8,0:0|0:0,0:0:0:0:
424,240,71190,2,0,L|488:328,2,105,0|8|0,0:0|0:0|0:0,0:0:0:0:
448,192,72190,1,0,0:0:0:0:
400,72,72690,6,0,L|288:160,1,140,8|0,0:0|0:0,0:0:0:0:
248,56,73690,2,0,P|184:80|120:56,1,140,8|0,0:0|0:0,0:0:0:0:
48,136,74690,1,8,0:0:0:0:
112,232,75190,2,0,L|64:288,2,70,0|0|0,0:0|0:0|0:0,0:0:0:0:
224,216,76190,2,0,L|360:248,1,140,0|8,0:0|0:0,0:0:0:0:
448,176,77190,1,0,0:0:0:0:
368,104,77690,1,0,0:0:0:0:
264,56,78190,1,0,0:0:0:0:
152,64,78690,5,8,0:0:0:0:
208,160,79190,1,0,0:0:0:0:
192,272,79690,2,0,P|128:232|104:160,1,140,8|0,0:0|0:0,0:0:0:0:
152,64,80690,5,8,0:0:0:0:
288,80,81190,2,0,P|352:104|424:88,1,140,0|8,0:0|0:0,0:0:0:0:
456,200,82190,2,0,L|384:336,1,140,0|8,0:0|0:0,0:0:0:0:
280,296,83190,1,0,0:0:0:0:
280,296,83440,1,0,0:0:0:0:
280,296,83690,1,8,0:0:0:0:
192,224,84190,2,0,P|152:288|88:312,2,140,0|8|0,0:0|0:0|0:0,0:0:0:0:
256,136,85690,1,8,0:0:0:0:
256,192,86190,12,4,88190,0:0:0:0:
408,256,89190,6,0,P|384:192|408:128,1,140,0|8,0:0|0:0,0:0:0:0:
304,88,90190,2,0,L|336:24,2,70,0|0|8,0:0|0:0|0:0,0:0:0:0:
248,96,90940,1,0,0:0:0:0:
208,136,91190,2,0,P|136:152|72:136,1,140,0|8,0:0|0:0,0:0:0:0:
64,248,92190,2,0,L|40:320,2,70,0|0|8,0:0|0:0|0:0,0:0:0:0:
120,248,92940,1,0,0:0:0:0:
168,280,93190,6,0,L|296:344,1,140,0|8,0:0|0:0,0:0:0:0:
304,232,94190,2,0,L|456:256,1,140,0|8,0:0|0:0,0:0:0:0:
456,144,95190,2,0,L|480:72,2,70,0|0|0,0:0|0:0|0:0,0:0:0:0:
352,96,96190,1,0,0:0:0:0:
104,240,97190,5,0,0:0:0:0:
184,320,97690,2,0,L|328:320,2,140,8|0|8,0:0|0:0|0:0,0:0:0:0:
208,208,99190,1,0,0:0:0:0:
232,160,99440,1,0,0:0:0:0:
272,120,99690,2,0,P|336:96|408:120,2,140,8|0|8,0:0|0:0|0:0,0:0:0:0:
344,208,101190,5,0,0:0:0:0:
368,320,101690,1,8,0:0:0:0:
256,352,102190,1,0,0:0:0:0:
232,240,102690,1,8,0:0:0:0:
280,136,103190,2,0,P|328:88|344:8,2,140,0|0|0,0:0|0:0|0:0,0:0:0:0:
64,264,105190,6,0,P|80:192|64:128,1,140,0|8,0:0|0:0,0:0:0:0:
168,88,106190,2,0,L|136:24,2,70,0|0|8,0:0|0:0|0:0,0:0:0:0:
216,120,106940,1,0,0:0:0:0:
256,160,107190,2,0,L|256:304,1,140,0|8,0:0|0:0,0:0:0:0:
368,320,108190,2,0,L|424:272,2,70,0|0|8,0:0|0:0|0:0,0:0:0:0:
312,328,108940,1,0,0:0:0:0:
256,344,109190,6,0,P|192:320|128:344,1,140,0|8,0:0|0:0,0:0:0:0:
56,256,110190,1,0,0:0:0:0:
56,256,110440,1,0,0:0:0:0:
56,256,110690,1,8,0:0:0:0:
80,144,111190,2,0,L|192:56,1,140,0|8,0:0|0:0,0:0:0:0:
256,152,112190,1,0,0:0:0:0:
432,288,113190,5,0,0:0:0:0:
368,192,113690,1,8,0:0:0:0:
432,96,114190,1,0,0:0:0:0:
256,232,115190,5,0,0:0:0:0:
160,288,115690,2,0,P|144:216|176:160,1,140,8|0,0:0|0:0,0:0:0:0:
256,80,116690,1,8,0:0:0:0:
337,160,117190,2,0,P|368:221|352:287,1,140,8|0,0:0|0:0,0:0:0:0:
256,272,118190,2,0,L|256:360,2,70,0|0|8,0:0|0:0|0:0,0:0:0:0:
256,192,118940,12,4,120190,0:0:0:0:
184,64,121190,6,0,L|328:64,1,140,0|8,0:0|0:0,0:0:0:0:
384,160,122190,1,0,0:0:0:0:
368,272,122690,2,0,P|312:320|240:312,1,140,8|0,0:0|0:0,0:0:0:0:
176,232,123690,2,0,P|144:160|80:128,1,140,8|0,0:0|0:0,0:0:0:0:
184,64,124690,5,8,0:0:0:0:
184,64,124940,1,0,0:0:0:0:
184,64,125190,1,0,0:0:0:0:
296,56,125690,2,0,P|320:128|296:192,1,140,8|0,0:0|0:0,0:0:0:0:
256,288,126690,1,8,0:0:0:0:
152,240,127190,2,0,L|56:128,2,140,0|8|0,0:0|0:0|0:0,0:0:0:0:
256,288,128690,6,0,P|320:264|392:288,1,140,8|0,0:0|0:0,0:0:0:0:
440,184,129690,1,8,0:0:0:0:
392,80,130190,2,0,L|256:128,1,140,0|8,0:0|0:0,0:0:0:0:
160,80,131190,2,0,P|176:144|160:216,1,140,0|8,0:0|0:0,0:0:0:0:
376,288,132690,6,0,L|432:232,2,70,8|0|0,0:0|0:0|0:0,0:0:0:0:
296,208,133690,1,8,0:0:0:0:
104,96,134690,6,0,L|104:240,1,140,8|0,0:0|0:0,0:0:0:0:
200,288,135690,1,8,0:0:0:0:
312,288,136190,1,4,0:0:0:0:
80,120,152190,5,0,0:0:0:0:
80,120,152690,6,0,P|96:192|80:256,1,140,8|0,0:0|0:0,0:0:0:0:
184,304,153690,1,8,0:0:0:0:
296,280,154190,1,0,0:0:0:0:
304,224,154440,1,0,0:0:0:0:
328,176,154690,1,8,0:0:0:0:
392,80,155190,2,0,P|432:144|432:208,2,140,0|8|0,0:0|0:0|0:0,0:0:0:0:
344,48,156440,1,0,0:0:0:0:
288,40,156690,1,8,0:0:0:0:
184,80,157190,6,8,P|144:152|80:168,1,140
144,272,158190,1,0,0:0:0:0:
256,304,158690,1,8,0:0:0:0:
352,248,159190,1,0,0:0:0:0:
416,160,159690,2,0,L|440:80,2,70,8|0|0,0:0|0:0|0:0,0:0:0:0:
320,104,160690,1,8,0:0:0:0:
224,48,161190,6,0,P|208:120|160:168,1,140,0|8,0:0|0:0,0:0:0:0:
56,208,162190,1,0,0:0:0:0:
96,248,162440,1,0,0:0:0:0:
128,296,162690,2,0,L|272:336,1,140,8|0,0:0|0:0,0:0:0:0:
360,280,163690,2,0,P|400:200|448:176,2,140,8|0|8,0:0|0:0|0:0,0:0:0:0:
272,208,165190,6,0,L|216:144,2,70,0|0|8,0:0|0:0|0:0,0:0:0:0:
336,120,166190,2,0,P|304:40|248:16,1,140,0|8,0:0|0:0,0:0:0:0:
168,80,167190,2,0,L|112:136,1,70
88,176,167690,2,0,L|112:248,1,70
72,288,168190,1,0,0:0:0:0:
328,320,169190,6,0,L|184:320,1,140,0|8,0:0|0:0,0:0:0:0:
128,224,170190,1,0,0:0:0:0:
144,112,170690,2,0,P|200:64|272:72,1,140,8|0,0:0|0:0,0:0:0:0:
336,152,171690,2,0,P|368:224|432:256,1,140,8|0,0:0|0:0,0:0:0:0:
328,320,172690,5,8,0:0:0:0:
328,320,172940,1,0,0:0:0:0:
328,320,173190,1,0,0:0:0:0:
216,328,173690,2,0,P|192:256|216:192,1,140,8|0,0:0|0:0,0:0:0:0:
256,96,174690,1,8,0:0:0:0:
312,104,174940,1,0,0:0:0:0:
360,136,175190,2,0,L|456:248,2,140,0|8|0,0:0|0:0|0:0,0:0:0:0:
256,96,176690,6,0,P|192:120|120:96,1,140,8|0,0:0|0:0,0:0:0:0:
72,200,177690,1,8,0:0:0:0:
120,304,178190,2,0,L|256:256,1,140,0|8,0:0|0:0,0:0:0:0:
352,304,179190,2,0,P|336:240|352:168,1,140,0|8,0:0|0:0,0:0:0:0:
136,96,180690,6,0,L|80:152,2,70,8|0|0,0:0|0:0|0:0,0:0:0:0:
216,176,181690,1,8,0:0:0:0:
408,288,182690,6,0,L|408:144,1,140,8|0,0:0|0:0,0:0:0:0:
312,96,183690,1,8,0:0:0:0:
200,96,184190,1,4,0:0:0:0:
