osu file format v9

[General]
AudioFilename: Carly Rae Jepsen - Call Me Maybe (Nightcore Mix).mp3
AudioLeadIn: 0
PreviewTime: 24597
Countdown: 0
SampleSet: Normal
StackLeniency: 0.4
Mode: 0
LetterboxInBreaks: 1

[Editor]
DistanceSpacing: 1
BeatDivisor: 4
GridSize: 4

[Metadata]
Title:Call Me Maybe (Nightcore Mix)
Artist:Carly Rae Jepsen
Creator:-Bakari-
Version:Hard
Source:
Tags:CTB trance remix dance Black_Cherry_Ita BCI spboxer3

[Difficulty]
HPDrainRate:7
CircleSize:4
OverallDifficulty:7
ApproachRate:8
SliderMultiplier:1.8
SliderTickRate:2

[Events]
//Background and Video events
0,0,"heyyoujustmeetme.jpg"
//Break Periods
//Storyboard Layer 0 (Background)
//Storyboard Layer 1 (Fail)
//Storyboard Layer 2 (Pass)
//Storyboard Layer 3 (Foreground)
//Storyboard Sound Samples
//Background Colour Transformations
3,100,163,162,255

[TimingPoints]
250,434.782608695652,4,2,1,45,1,0
24597,-100,4,1,0,55,0,0
24815,-100,4,1,1,55,0,0
38510,-100,4,1,0,55,0,0
38728,-100,4,1,1,55,0,0
45467,-100,4,1,0,55,0,0
45684,-100,4,1,1,55,0,0
52423,-100,4,1,1,45,0,0
55902,-100,4,2,1,55,0,0
75032,-100,4,2,1,58,0,0
75467,-100,4,2,1,61,0,0
75902,-100,4,2,1,64,0,0
76336,-100,4,2,1,67,0,0
76771,-100,4,1,0,60,0,1
77206,-100,4,1,1,55,0,1
90684,-100,4,1,1,55,0,0
91119,-100,4,1,1,55,0,1
104163,-100,4,1,1,55,0,0
104597,-100,4,1,1,55,0,1
118510,-100,4,1,0,55,0,0

[Colours]
Combo1 : 65,83,245
Combo2 : 217,183,113
Combo3 : 113,193,117
SliderBorder : 200,200,200

[HitObjects]
68,328,3728,1,4
68,328,3945,2,0,B|116:320|164:352,1,90,0|8
212,280,4380,1,0
300,280,4597,1,0
357,345,4815,2,0,B|396:320|444:328,1,90,0|8
472,252,5249,1,0
392,232,5467,6,0,B|404:188|460:168,1,90,4|0
440,92,5902,2,0,B|504:16,2,90,8|0|0
368,36,6554,1,0
284,64,6771,1,8
256,144,6989,1,0
256,240,7206,5,4
228,320,7423,1,0
144,348,7641,1,8
60,332,7858,1,0
40,244,8076,2,0,B|52:196|104:184,1,90,0|0
192,172,8510,1,8
260,224,8728,1,0
340,264,8945,6,0,B|392:256|408:208,1,90,4|0
324,176,9380,2,0,B|344:132|396:124,1,90,8|0
408,212,9815,2,0,B|456:212|492:152|476:104,2,135
324,176,10684,6,0,B|256:116,1,90,4|0
164,152,11119,2,0,B|200:188|184:240,2,90,8|0|0
108,212,11771,1,0
80,288,11989,1,8
140,344,12206,1,0
208,296,12423,5,4
280,352,12641,1,0
280,352,12858,2,0,B|362:302,1,90,8|0
320,216,13293,2,0,B|232:216,1,90,0|0
240,128,13728,2,0,B|322:78,1,90,8|0
408,76,14163,5,4
444,160,14380,1,0
476,244,14597,2,0,B|508:340,1,90,8|0
432,384,15032,2,0,B|404:296,1,90
324,336,15467,1,8
256,276,15684,1,0
188,336,15902,5,4
100,348,16119,1,0
24,296,16336,2,0,B|16:248|44:200,1,90,8|0
96,136,16771,2,0,B|168:128|200:44,2,135
108,224,17641,6,0,B|156:248|212:224,1,90,4|0
264,172,18076,2,0,B|332:240,1,90,8|0
256,288,18510,2,0,B|192:352,1,90,0|0
100,332,18945,1,8
64,304,19054,1,0
56,260,19163,1,0
148,248,19380,6,0,B|176:208|172:148,1,90,4|0
248,196,19815,2,0,B|264:156|240:108,1,90,8|0
332,108,20249,2,0,B|328:55|284:28,2,90,0|0|8
376,124,20793,1,0
416,144,20902,1,0
467,215,21119,6,0,B|463:259|495:303,2,90,4|0|8
416,144,21771,1,0
416,144,21989,2,0,B|380:176|380:228,1,90,0|0
312,284,22423,1,8
272,308,22532,1,0
224,300,22641,1,0
256,192,22858,12,4,24597
216,176,25032,5,8
188,100,25249,1,0
256,52,25467,1,0
324,100,25684,1,0
296,176,25902,1,8
384,168,26119,6,0,B|424:248,1,90,0|4
344,280,26554,1,0
344,280,26771,1,8
256,260,26989,1,0
168,280,27206,1,0
168,280,27423,1,0
96,225,27641,6,0,B|72:184|84:132,2,90,8|0|4
28,284,28293,1,0
96,224,28510,1,8
168,168,28728,1,0
168,32,28945,1,0
252,140,29163,1,0
116,100,29380,1,8
244,56,29597,1,0
252,140,29815,5,4
244,56,30032,1,0
232,224,30249,2,0,B|184:240|140:256,1,90,8|0
284,340,30684,2,0,B|388:304,1,90,0|0
420,236,31119,1,8
372,160,31336,1,0
328,80,31554,6,0,B|420:56,2,90,4|0|8
184,304,32423,2,0,B|92:328,2,90,0|0|8
256,192,33076,1,0
256,100,33293,5,4
180,148,33510,1,0
256,192,33728,1,8
332,148,33945,1,0
404,96,34163,2,0,B|456:80|472:36,1,90
508,120,34597,2,0,B|424:176|432:272,1,180,8|4
480,352,35249,5,0
388,364,35467,1,8
320,292,35684,1,0
256,216,35902,1,0
192,292,36119,1,0
124,364,36336,1,8
88,272,36554,2,0,B|80:320|37:342,1,90,0|4
0,264,36989,5,0
68,192,37206,2,0,B|120:180|152:216,1,90,8|0
256,216,37641,1,0
208,140,37858,1,0
204,96,37967,1,0
228,56,38076,2,0,B|272:40|328:56,1,90,8|0
324,96,38402,1,0
344,136,38510,6,0,B|392:156|448:132,1,90,4|0
420,48,38945,2,0,B|512:12,2,90,8|0|0
432,136,39597,1,0
416,220,39815,2,0,B|388:260|392:304,1,90,8|0
300,320,40249,5,4
212,320,40467,1,0
119,304,40684,2,0,B|124:260|96:220,1,90,8|0
28,280,41119,2,0,B|23:324|51:364,2,90,0|0|8
16,192,41771,1,0
52,112,41989,6,0,B|57:68|29:28,1,90,4|0
120,24,42423,1,8
192,84,42641,1,0
288,176,42858,1,0
268,44,43076,1,0
204,164,43293,1,8
324,104,43510,1,0
380,176,43728,6,0,B|384:232|332:256,1,90,4|0
304,332,44163,1,8
304,332,44380,1,0
216,324,44597,2,0,B|116:304,1,90,0|0
148,220,45032,2,0,B|48:200,1,90,8|0
68,108,45467,6,0,B|108:144|168:136|196:108|208:56,1,180,4|8
280,112,46119,1,0
360,152,46336,2,0,B|448:120,1,90,0|0
448,168,46663,2,0,B|432:212|452:260,1,90
416,284,46989,2,0,B|368:288|328:320,1,90
252,276,47423,5,0
252,276,47641,1,8
172,316,47858,1,0
172,316,48076,2,0,B|76:308,1,90,0|0
84,220,48510,6,0,B|176:228|176:228|200:188|256:180,1,180,8|4
252,276,49163,1,0
316,224,49380,2,0,B|340:180|312:132,1,90,8|0
248,181,49815,1,0
180,120,50032,1,0
220,40,50249,1,8
308,52,50467,1,0
316,140,50684,5,4
336,272,50902,1,0
404,156,51119,1,8
420,288,51336,1,0
492,172,51554,2,0,B|496:120|456:80,2,90,0|0|8
404,156,52206,1,0
404,188,52315,1,0
420,216,52423,1,4
256,192,54163,12,0,55902
256,348,56119,5,0
340,320,56336,2,0,B|336:268|376:232,1,90,8|0
388,148,56771,2,0,B|372:44,1,90,0|0
284,48,57206,1,8
268,136,57423,1,0
200,76,57641,5,4
200,76,57858,1,0
124,124,58076,2,0,B|88:228,1,90,8|0
184,228,58510,2,0,B|213:142,1,90,0|0
296,176,58945,2,0,B|267:262,1,90,8|0
296,344,59380,5,4
384,356,59597,1,0
460,312,59815,1,8
472,224,60032,1,0
428,148,60249,1,0
352,100,60467,1,0
264,76,60684,2,0,B|212:80|176:36,1,90,8|0
96,72,61119,5,4
160,136,61336,2,0,B|196:164|248:164,1,90,0|8
284,244,61771,1,0
360,292,61989,2,0,B|432:292|484:240,2,135
316,368,62858,1,0
236,328,63076,5,0
160,272,63293,2,0,B|60:264,1,90,8|0
32,184,63728,2,0,B|121:191,1,90,0|0
92,104,64163,2,0,B|-8:96,2,90,8|0|4
180,104,64815,5,0
244,44,65032,2,0,B|288:24|344:44,1,90,8|0
416,72,65467,2,0,B|460:96|480:152,1,90,0|0
488,176,65793,1,0
496,216,65902,1,8
480,304,66119,2,0,B|456:344|408:352,1,90,0|4
400,264,66554,5,0
324,312,66771,2,0,B|232:304,1,90,8|0
168,368,67206,2,0,B|76:360,1,90,0|0
36,340,67532,1,0
16,300,67641,1,8
88,248,67858,1,0
32,180,68076,6,0,B|20:140|36:84|68:40|104:32,1,180,4|8
192,16,68728,1,0
252,84,68945,2,0,B|232:156|288:212,2,135
328,36,69815,6,0,B|368:16|420:24,1,90,4|0
428,112,70249,2,0,B|380:104|340:124,1,90,8|0
280,188,70684,1,0
196,148,70902,1,0
156,128,71010,1,0
116,108,71119,2,0,B|28:64,1,90,8|0
36,160,71554,6,0,B|120:204,1,90,4|0
196,244,71989,2,0,B|168:284|116:292,1,90,8|0
164,372,72423,2,0,B|252:364,1,90,0|0
276,324,72749,1,0
284,280,72858,2,0,B|300:236|272:188,1,90,8|0
268,104,73293,6,0,B|276:56|328:32,1,90,4|0
352,120,73728,2,0,B|349:165|297:185,1,90,8|0
412,192,74163,1,0
460,268,74380,1,0
444,312,74489,1,0
408,340,74597,1,8
324,308,74815,1,0
328,220,75032,5,4
312,188,75467,1,8
296,156,75902,1,0
278,127,76336,1,8
108,156,76771,5,4
88,328,77206,6,0,B|128:288|104:232,1,90,8|0
40,128,77641,1,0
164,184,77858,1,0
32,220,78076,1,8
124,108,78293,2,0,B|136:60|180:32,1,90,0|4
335,59,78728,6,0,B|332:104|288:132,2,90,0|8|0
424,76,79380,1,0
452,160,79597,1,0
384,216,79815,1,8
304,252,80032,1,0
288,340,80250,6,0,B|240:344|208:376,2,90,4|0|8
372,308,80902,1,0
304,252,81119,1,0
304,160,81336,1,0
260,80,81554,2,0,B|236:40|184:36,1,90,8|0
184,128,81989,6,0,B|132:128|108:84,1,90,4|0
36,36,82423,1,8
28,124,82641,1,0
72,204,82858,1,0
148,256,83076,1,0
240,260,83293,1,8
328,244,83510,1,0
404,196,83728,6,0,B|444:172|440:120,1,90,4|0
356,128,84163,1,8
280,176,84380,1,0
328,244,84597,1,0
332,336,84815,1,0
332,336,85032,1,8
244,332,85250,6,0,B|200:312|144:328,2,90,0|4|0
228,244,85902,2,0,B|184:232|140:244,1,90,8|0
52,220,86336,2,0,B|8:188|8:136,1,90,0|0
100,136,86771,1,8
124,48,86989,2,0,B|172:64|188:112,2,90,0|4|0
36,60,87641,5,8
100,136,87858,1,0
172,192,88076,2,0,B|216:216|264:212,1,90,0|0
200,284,88510,2,0,B|248:300|296:284,2,90,8|0|4
112,260,89163,6,0,B|64:248|16:260,2,90,0|8|0
172,192,89815,2,0,B|204:152|180:96,1,90,0|0
196,64,90141,1,0
228,36,90250,1,8
272,24,90358,1,0
316,36,90467,1,0
348,64,90576,1,0
360,108,90684,2,0,B|329:145|279:134,1,90,4|0
272,224,91119,6,0,B|279:134,1,90,8|0
348,192,91554,2,0,B|340:281,1,90,0|0
424,248,91989,2,0,B|416:348,2,90,8|0|4
472,176,92641,5,0
396,128,92858,1,8
364,44,93076,1,0
276,56,93293,2,0,B|288:108|256:144,1,90,0|0
216,156,93619,1,0
184,192,93728,1,8
136,268,93945,1,0
112,356,94163,6,0,B|72:332|24:352,1,90,4|0
52,264,94597,2,0,B|60:208|108:188,1,90,8|0
24,140,95032,2,0,B|48:104|96:84,1,90,0|0
184,80,95467,2,0,B|236:76|260:40,2,90,8|0|4
232,156,96119,5,0
320,148,96336,1,8
404,184,96554,1,0
448,260,96771,1,0
432,348,96989,1,0
348,320,97206,2,0,B|352:272|308:240,2,90,8|0|4
256,316,97858,5,0
180,364,98076,2,0,B|92:372,1,90,8|0
40,296,98510,2,0,B|129:287,1,90,0|0
120,244,98836,2,0,B|209:235,1,90
240,204,99163,2,0,B|272:164|260:104,1,90,0|4
176,140,99597,5,0
84,132,99815,1,8
136,56,100032,1,0
232,68,100250,2,0,B|284:72|308:24,1,90,0|0
376,84,100684,2,0,B|360:176|428:252,1,180,8|4
364,316,101336,5,0
276,292,101554,1,8
208,236,101771,2,0,B|188:192|196:144,2,90,0|0|0
188,324,102423,1,8
108,284,102641,6,0,B|80:248|28:240,2,90,0|4|0
188,324,103293,1,8
208,236,103510,1,0
264,164,103728,1,0
352,144,103945,1,0
380,60,104163,5,8
400,68,104271,1,0
416,84,104380,1,0
428,104,104489,1,0
432,128,104597,1,4
500,184,104815,1,0
444,256,105032,6,0,B|384:328|288:336,1,180,8|0
232,264,105684,1,0
156,316,105902,2,0,B|60:340,2,90,8|0|4
232,264,106554,5,0
280,188,106771,1,8
216,124,106989,1,0
156,196,107206,2,0,B|112:188|52:224|36:272|52:320,1,180,0|8
144,296,107858,1,0
232,264,108076,6,0,B|276:288|320:268,1,90,4|0
280,188,108510,1,8
252,100,108728,1,0
332,60,108945,2,0,B|400:52|464:120|456:176,1,180
484,252,109597,1,0
424,320,109815,5,4
336,304,110032,1,0
248,292,110250,1,8
160,280,110467,1,0
208,204,110684,2,0,B|256:188|268:140,1,90,0|0
316,220,111119,2,0,B|352:184|352:136,1,90,8|0
436,116,111554,6,0,B|444:168|424:212,1,90,4|0
492,268,111989,1,8
424,324,112206,1,0
336,304,112423,2,0,B|276:312|240:256,1,90,0|0
192,340,112858,2,0,B|96:344,1,90,8|0
12,356,113293,6,0,B|8:308|48:268,1,90,4|0
112,220,113728,1,8
200,212,113945,1,0
288,196,114163,2,0,B|356:136|320:28,1,180
412,24,114815,1,0
504,24,115032,5,4
456,100,115250,1,0
432,188,115467,2,0,B|412:232|432:280,1,90,8|0
368,344,115902,2,0,B|264:332,1,90,0|0
193,305,116336,1,8
113,261,116554,1,0
92,173,116771,5,4
167,122,116989,2,0,B|207:98|219:49,2,90,0|8|0
174,211,117641,2,0,B|188:260|236:274,1,90
338,173,118076,2,0,B|324:124|276:110,1,90,8|0
256,192,118510,5,4
