osu file format v9

[General]
AudioFilename: Carly Rae Jepsen - Call Me Maybe (Nightcore Mix).mp3
AudioLeadIn: 0
PreviewTime: 24597
Countdown: 0
SampleSet: Normal
StackLeniency: 0.4
Mode: 0
LetterboxInBreaks: 1

[Editor]
Bookmarks: 83728
DistanceSpacing: 1.1
BeatDivisor: 4
GridSize: 4

[Metadata]
Title:Call Me Maybe (Nightcore Mix)
Artist:Carly Rae Jepsen
Creator:-Bakari-
Version:Easy
Source:
Tags:CTB trance remix dance Black_Cherry_Ita BCI spboxer3

[Difficulty]
HPDrainRate:1
CircleSize:3
OverallDifficulty:1
ApproachRate:2
SliderMultiplier:0.8
SliderTickRate:2

[Events]
//Background and Video events
0,0,"heyyoujustmeetme.jpg"
//Break Periods
2,52623,54342
//Storyboard Layer 0 (Background)
//Storyboard Layer 1 (Fail)
//Storyboard Layer 2 (Pass)
//Storyboard Layer 3 (Foreground)
//Storyboard Sound Samples
//Background Colour Transformations
3,100,163,162,255

[TimingPoints]
250,434.782608695652,4,2,1,45,1,0
24597,-100,4,1,0,55,0,0
24815,-100,4,1,1,55,0,0
38510,-100,4,1,0,55,0,0
38728,-100,4,1,1,55,0,0
45467,-100,4,1,0,55,0,0
45684,-100,4,1,1,55,0,0
52423,-100,4,1,1,45,0,0
55902,-100,4,2,1,55,0,0
75032,-100,4,2,1,58,0,0
75467,-100,4,2,1,61,0,0
75902,-100,4,2,1,64,0,0
76336,-100,4,2,1,67,0,0
76771,-100,4,1,1,60,0,1
76880,-100,4,1,1,55,0,1
90684,-100,4,1,1,55,0,0
91119,-100,4,1,1,55,0,1
104163,-100,4,1,1,55,0,0
104597,-100,4,1,1,55,0,1
118510,-100,4,1,0,55,0,0

[Colours]
Combo1 : 65,83,245
Combo2 : 217,183,113
Combo3 : 113,193,117
SliderBorder : 200,200,200

[HitObjects]
32,232,3728,2,0,B|100:239|136:297|128:348,2,160,4|0|4
28,144,5902,1,8
104,100,6336,2,0,B|136:76|180:68,1,80,0|8
256,28,7206,5,4
336,64,7641,1,8
388,132,8076,2,0,B|476:140,2,80,0|8|4
352,212,9380,2,0,B|312:216|256:280|260:332,1,160,8|8
172,320,10684,5,4
84,328,11119,2,0,B|80:280|108:236|164:224|192:232,1,160,8|8
240,160,12423,1,4
168,108,12858,2,0,B|76:88,2,80,8|0|8
248,68,14163,5,4
312,128,14597,2,0,B|332:172|332:172|300:192|284:240|300:280,1,160,8|8
384,244,15902,1,4
468,220,16336,2,0,B|480:250|464:298|432:318|432:318|452:362,1,160,8|8
364,364,17641,5,4
280,340,18076,2,0,B|200:320|112:336,1,160,8|8
32,344,19380,1,4
60,260,19815,2,0,B|117:203|146:126,1,160,8|8
224,88,21119,6,0,B|300:68,1,80,4|8
301,155,21989,2,0,B|223:175,1,80,0|8
276,248,22858,2,0,B|285:289|304:328|364:360|424:340|444:292|460:264,1,240,4|8
368,240,24597,5,4
444,196,25032,1,8
436,108,25467,2,0,B|368:56|280:68,1,160,0|4
256,152,26771,1,8
224,236,27206,2,0,B|141:247|73:195,1,160,0|4
12,132,28510,5,8
68,64,28945,2,0,B|136:12|224:24,1,160,0|4
248,108,30249,1,8
332,136,30684,1,0
416,108,31119,1,8
400,196,31554,6,0,B|376:276|400:360,2,160,4|0|4
484,164,33728,1,8
416,108,34163,1,0
332,136,34597,1,8
252,104,35032,6,0,B|172:128,1,80,4|8
88,116,35902,2,0,B|72:200|0:248,1,160,0|4
28,328,37206,1,8
100,280,37641,2,0,B|180:248,1,80,0|8
252,292,38510,6,0,B|332:256,1,80,4|8
412,268,39380,2,0,B|436:308|472:316,1,80,0|8
488,228,40249,1,4
416,176,40684,1,8
328,172,41119,6,0,B|248:160|172:200,1,160,0|4
84,208,42423,1,8
124,284,42858,2,0,B|156:316|156:368,2,80,0|8|4
204,248,44163,2,0,B|372:296,1,160,8|8
412,220,45467,5,4
344,164,45902,2,0,B|328:124|348:76,1,80,8|0
260,64,46771,2,0,B|176:36,2,80,8|4|8
256,152,48076,1,0
168,156,48510,6,0,B|172:200|200:236|244:248|281:236,1,160,8|8
344,172,49815,2,0,B|372:200|384:244|364:296|328:312,1,160,0|4
244,324,51119,1,8
160,296,51554,2,0,B|72:328,2,80,0|8|4
256,200,55902,5,4
304,128,56336,2,0,B|348:124|384:92,2,80,8|0|8
216,116,57641,2,0,B|132:96|56:136,1,160,4|0
96,216,58945,1,8
44,288,59380,5,4
100,356,59815,2,0,B|184:376|260:336,1,160,8|8
344,332,61119,1,4
432,324,61554,2,0,B|512:356,2,80,8|0|8
468,244,62858,5,4
380,252,63293,2,0,B|384:200|420:172|420:172|380:24,1,240,8|4
304,68,65032,2,0,B|328:156,1,80,8|0
268,212,65902,1,8
184,232,66336,5,4
208,148,66771,2,0,B|160:140|128:156|96:192|100:236,2,160,8|8|8
264,80,68945,2,0,B|348:48,1,80,0|8
401,113,69815,5,4
401,200,70249,2,0,B|326:228,1,80,8|0
284,308,71119,1,8
236,236,71554,2,0,B|191:267|199:329|199:329|50:338,1,240,4|8
80,252,73293,6,0,B|32:164,1,80,4|8
120,136,74163,1,0
156,56,74597,1,8
244,68,75032,6,0,B|324:68,1,80,4|8
324,156,75902,2,0,B|244:156,1,80,0|8
244,244,76771,6,0,B|324:244,1,80,4|8
324,332,77641,2,0,B|388:328|408:288|416:248|408:216,1,160,0|4
464,152,78945,1,8
492,68,79380,6,0,B|448:60|412:68|376:108|376:160,1,160,0|4
292,164,80684,2,0,B|180:140,1,80,8|0
168,224,81554,1,8
124,148,81989,2,0,B|104:56,2,80,4|8|0
84,224,83293,2,0,B|80:276|116:308|160:320|196:308,1,160,8|8
168,224,84597,6,0,B|212:216|248:240,2,80,0|8|4
128,144,85902,1,8
144,56,86336,2,0,B|224:48,1,80,0|8
220,136,87206,2,0,B|304:144,1,80,4|8
360,208,88076,6,0,B|336:232|352:288|392:320|440:320,1,160,0|4
436,232,89380,1,8
468,152,89815,2,0,B|441:120|440:71,1,80,0|8
372,24,90684,1,4
292,64,91119,6,0,B|216:88|128:72,1,160,8|8
144,156,92423,2,0,B|188:168|228:160,1,80,4|8
304,196,93293,2,0,B|352:192|388:220|412:260|400:304,1,160,0|4
316,284,94597,5,8
268,360,95032,2,0,B|236:340|225:294,1,80,0|8
204,208,95902,2,0,B|160:216|144:256|144:256|56:232,1,160,4|0
60,148,97206,1,8
128,92,97641,6,0,B|100:56|48:60,2,80,4|8|0
204,44,98945,1,8
236,128,99380,2,0,B|284:104|292:64|292:64|368:64,2,160,4|0|4
172,188,101554,5,8
236,256,101989,2,0,B|284:280|292:320|292:320|368:320,1,160,0|4
448,284,103293,2,0,B|468:328|448:364,2,80,8|0|8
468,196,104597,5,4
432,116,105032,2,0,B|348:104|292:36,1,160,8|8
208,48,106336,1,4
124,72,106771,2,0,B|84:68|48:40,2,80,8|0|8
140,160,108076,5,4
88,232,108510,2,0,B|64:264|12:272,2,80,8|0|8
176,244,109815,1,4
232,312,110249,2,0,B|316:304|400:340,1,160,8|8
472,308,111554,5,4
408,248,111989,2,0,B|376:172,1,80,8|0
344,92,112858,2,0,B|352:44|388:16,2,80,8|4|8
288,160,114163,2,0,B|128:192,1,160,0|4
256,192,115467,12,4,118510
