osu file format v12

[General]
AudioFilename: Call me maybe.mp3
AudioLeadIn: 0
PreviewTime: 28190
Countdown: 0
SampleSet: Soft
StackLeniency: 0.5
Mode: 0
LetterboxInBreaks: 0

[Editor]
DistanceSpacing: 1
BeatDivisor: 8
GridSize: 4

[Metadata]
Title:Call Me Maybe
TitleUnicode:Call Me Maybe
Artist:Carly Rae Jepsen
ArtistUnicode:Carly Rae Jepsen
Creator:-Baby Strawberry-
Version:Insane
Source:
Tags:Curiosity
BeatmapID:178489
BeatmapSetID:54954

[Difficulty]
HPDrainRate:7
CircleSize:4
OverallDifficulty:6
ApproachRate:8
SliderMultiplier:2
SliderTickRate:2

[Events]
//Background and Video events
0,0,"b3d9721881479489c4a9c0b39296925d.jpg",0,0
//Break Periods
2,64390,71440
2,136389,143940
//Storyboard Layer 0 (Background)
//Storyboard Layer 1 (Fail)
//Storyboard Layer 2 (Pass)
//Storyboard Layer 3 (Foreground)
//Storyboard Sound Samples
//Background Colour Transformations
3,100,163,162,255

[TimingPoints]
190,500,4,2,1,20,1,0
4190,-100,4,2,1,30,0,0
20190,-100,4,2,1,40,0,0
28190,-100,4,1,1,40,0,1
28315,-100,4,1,1,40,0,0
44190,-100,4,1,1,40,0,1
60190,-100,4,2,1,30,0,0
72190,-100,4,2,1,40,0,0
79190,-133.333333333333,4,2,1,40,0,0
80190,-100,4,2,1,40,0,0
88190,-100,4,1,1,40,0,1
88315,-100,4,1,1,40,0,0
104190,-100,4,1,1,40,0,1
120127,-100,4,1,1,40,0,0
120190,-100,4,1,1,40,0,1
120252,-100,4,1,1,40,0,0
136190,-100,4,1,1,30,0,0
144190,-200,4,2,1,40,0,0
152190,-100,4,1,1,40,0,1
168127,-100,4,1,1,40,0,0
168190,-100,4,1,1,40,0,1
168252,-100,4,1,1,40,0,0
184190,-100,4,2,1,5,0,0

[Colours]
Combo1 : 252,103,170
Combo2 : 39,213,243
Combo3 : 123,253,133
Combo4 : 255,255,81
SliderBorder : 255,255,255

[HitObjects]
256,192,4190,5,2,0:0:0:0:
304,104,4440,1,0,0:0:0:0:
256,92,4565,1,0,0:0:0:0:
208,104,4690,1,0,0:0:0:0:
256,192,4940,1,0,0:0:0:0:
348,232,5190,2,0,B|348:296|308:320,1,100,0|0,0:0|0:0,0:0:0:0:
208,320,5690,2,0,B|168:296|168:232,1,100,0|0,0:0|0:0,0:0:0:0:
256,192,6190,5,2,0:0:0:0:
352,148,6440,2,0,B|360:92|328:52,1,100,0|0,0:0|0:0,0:0:0:0:
256,12,6940,1,0,0:0:0:0:
256,100,7190,1,0,0:0:0:0:
182,53,7440,2,0,B|152:92|160:148,1,100,0|0,0:0|0:0,0:0:0:0:
256,192,7940,1,0,0:0:0:0:
256,292,8190,5,2,0:0:0:0:
344,240,8440,1,0,0:0:0:0:
372,200,8565,1,0,0:0:0:0:
416,176,8690,1,0,0:0:0:0:
440,272,8940,1,0,0:0:0:0:
416,176,9190,2,0,B|404:120|376:84,1,100,0|0,0:0|0:0,0:0:0:0:
280,116,9690,2,0,B|272:92|256:72|256:72|240:92|232:116,1,100,0|0,0:0|0:0,0:0:0:0:
136,84,10190,5,2,0:0:0:0:
136,84,10440,2,0,B|108:120|96:176,1,100,0|0,0:0|0:0,0:0:0:0:
72,272,10940,1,0,0:0:0:0:
96,176,11190,1,0,0:0:0:0:
160,256,11440,1,0,0:0:0:0:
172,296,11565,1,0,0:0:0:0:
212,328,11690,2,0,B|232:356|280:356|300:328,1,100,0|0,0:0|0:0,0:0:0:0:
256,240,12190,5,2,0:0:0:0:
256,140,12440,1,0,0:0:0:0:
340,76,12690,2,0,B|366:33|417:17,1,100,0|0,0:0|0:0,0:0:0:0:
428,117,13190,2,0,B|451:160|440:216,1,100,0|0,0:0|0:0,0:0:0:0:
347,177,13690,2,0,B|296:175|257:139,1,100,0|0,0:0|0:0,0:0:0:0:
256,40,14190,5,2,0:0:0:0:
256,140,14440,2,0,B|217:177|167:179,1,100,0|0,0:0|0:0,0:0:0:0:
72,213,14940,2,0,B|60:160|84:117,1,100,0|0,0:0|0:0,0:0:0:0:
93,17,15440,2,0,B|145:33|172:76,1,100,0|0,0:0|0:0,0:0:0:0:
256,140,15940,1,0,0:0:0:0:
208,228,16190,6,0,B|256:248|304:228,1,100,2|0,0:0|0:0,0:0:0:0:
404,216,16690,1,0,0:0:0:0:
352,304,16940,1,0,0:0:0:0:
256,332,17190,1,0,0:0:0:0:
160,304,17440,1,0,0:0:0:0:
96,231,17690,2,0,B|112:177|75:138,1,100,0|0,0:0|0:0,0:0:0:0:
3,206,18190,5,2,0:0:0:0:
75,138,18440,2,0,B|120:113|171:122,1,100,0|0,0:0|0:0,0:0:0:0:
208,28,18940,2,0,B|240:28|256:40|256:40|272:28|308:28,1,100,0|0,0:0|0:0,0:0:0:0:
436,138,19440,2,0,B|391:113|340:122,1,100,0|0,0:0|0:0,0:0:0:0:
256,176,19940,1,2,0:0:0:0:
256,224,20065,1,0,0:0:0:0:
256,272,20190,5,0,0:0:0:0:
256,272,20440,1,0,0:0:0:0:
172,324,20690,2,0,B|160:272|112:248,1,100,2|0,0:0|0:0,0:0:0:0:
48,172,21190,2,8,B|104:160|132:120,1,100,0|0,0:0|0:0,0:0:0:0:
84,108,21565,2,0,B|112:68|168:56,1,100,2|0,0:0|0:0,0:0:0:0:
256,176,22190,5,0,0:0:0:0:
256,272,22440,1,0,0:0:0:0:
340,324,22690,2,0,B|352:272|400:248,1,100,2|0,0:0|0:0,0:0:0:0:
464,172,23190,2,0,B|408:160|380:120,1,100,0|0,0:0|0:0,0:0:0:0:
428,108,23565,2,0,B|400:68|344:56,1,100,2|0,0:0|0:0,0:0:0:0:
256,176,24190,5,0,0:0:0:0:
300,264,24440,1,0,0:0:0:0:
256,356,24690,2,0,B|200:324|200:276,1,100,2|0,0:0|0:0,0:0:0:0:
168,188,25190,2,0,B|180:144|220:132|220:132|232:112,1,100,0|0,0:0|0:0,0:0:0:0:
281,114,25565,2,0,B|292:132|292:132|332:144|344:188,1,100,2|0,0:0|0:0,0:0:0:0:
256,304,26190,5,2,0:0:0:0:
180,240,26440,1,0,0:0:0:0:
256,176,26690,1,2,0:0:0:0:
332,240,26940,1,0,0:0:0:0:
356,144,27190,1,2,0:0:0:0:
348,92,27315,1,0,0:0:0:0:
308,56,27440,1,0,0:0:0:0:
256,44,27565,1,0,0:0:0:0:
208,56,27690,1,2,0:0:0:0:
164,92,27815,1,0,0:0:0:0:
156,144,27940,1,0,0:0:0:0:
256,176,28190,5,2,0:0:0:0:
400,312,28690,1,8,0:0:0:0:
208,260,29190,1,8,0:0:0:0:
208,260,29315,1,0,0:0:0:0:
308,260,29565,1,0,0:0:0:0:
308,260,29690,1,8,0:0:0:0:
112,312,29940,1,8,0:0:0:0:
112,312,30065,1,8,0:0:0:0:
304,340,30315,5,0,0:0:0:0:
304,340,30440,2,0,B|280:340|256:328|256:328|232:340|208:340,1,100,8|8,0:0|0:0,0:0:0:0:
256,248,30940,1,0,0:0:0:0:
208,160,31190,1,8,0:0:0:0:
208,160,31315,1,0,0:0:0:0:
308,160,31565,1,0,0:0:0:0:
308,160,31690,1,8,0:0:0:0:
188,60,31940,1,8,0:0:0:0:
188,60,32065,6,0,B|236:60|256:80|256:80|276:60|328:60,1,150,8|8,0:0|0:0,0:0:0:0:
328,60,32690,1,8,0:0:0:0:
96,108,32940,1,0,0:0:0:0:
52,200,33190,1,0,0:0:0:0:
156,152,33440,1,8,0:0:0:0:
131,283,33690,1,0,0:0:0:0:
228,164,33940,1,8,0:0:0:0:
228,164,34065,1,8,0:0:0:0:
256,360,34315,5,8,0:0:0:0:
256,360,34440,1,8,0:0:0:0:
256,260,34690,1,8,0:0:0:0:
284,164,34940,1,0,0:0:0:0:
381,283,35190,1,0,0:0:0:0:
356,152,35440,1,8,0:0:0:0:
460,200,35690,1,0,0:0:0:0:
416,108,35940,1,8,0:0:0:0:
256,48,36190,5,4,0:0:0:0:
208,240,36690,1,8,0:0:0:0:
256,224,36815,1,0,0:0:0:0:
304,240,36940,1,0,0:0:0:0:
372,164,37190,2,0,B|336:128|280:128,1,100,0|0,0:0|0:0,0:0:0:0:
228,128,37565,2,0,B|172:128|136:164,1,100,0|0,0:0|0:0,0:0:0:0:
137,162,37940,1,8,0:0:0:0:
308,296,38315,5,8,0:0:0:0:
308,296,38440,1,8,0:0:0:0:
208,296,38690,1,8,0:0:0:0:
256,208,38940,1,0,0:0:0:0:
304,120,39190,2,0,B|256:100|208:120,1,100,0|0,0:0|0:0,0:0:0:0:
116,80,39690,6,2,B|184:36|256:12|328:36|396:80,1,300,10|10,0:0|0:0,0:0:0:0:
424,176,40690,1,8,0:0:0:0:
364,256,40940,1,0,0:0:0:0:
272,292,41190,1,0,0:0:0:0:
224,312,41315,1,8,0:0:0:0:
188,200,41565,1,0,0:0:0:0:
140,212,41690,1,8,0:0:0:0:
116,104,41940,1,8,0:0:0:0:
68,104,42065,1,8,0:0:0:0:
208,44,42315,5,8,0:0:0:0:
208,44,42440,1,8,0:0:0:0:
304,44,42690,1,8,0:0:0:0:
256,132,42940,1,0,0:0:0:0:
396,104,43190,1,0,0:0:0:0:
444,104,43315,1,8,0:0:0:0:
324,200,43565,1,0,0:0:0:0:
372,212,43690,1,8,0:0:0:0:
240,292,43940,1,8,0:0:0:0:
276,328,44065,1,8,0:0:0:0:
316,360,44190,5,4,0:0:0:0:
112,312,44690,1,8,0:0:0:0:
304,260,45190,1,8,0:0:0:0:
304,260,45315,1,0,0:0:0:0:
204,260,45565,1,0,0:0:0:0:
204,260,45690,1,8,0:0:0:0:
400,312,45940,1,8,0:0:0:0:
400,312,46065,1,8,0:0:0:0:
208,340,46315,5,8,0:0:0:0:
208,340,46440,2,0,B|232:340|256:328|256:328|280:340|304:340,1,100,8|8,0:0|0:0,0:0:0:0:
256,248,46940,1,0,0:0:0:0:
304,160,47190,1,8,0:0:0:0:
304,160,47315,1,0,0:0:0:0:
204,160,47565,1,0,0:0:0:0:
204,160,47690,1,8,0:0:0:0:
324,60,47940,1,8,0:0:0:0:
324,60,48065,6,0,B|276:60|256:80|256:80|236:60|184:60,1,150,8|8,0:0|0:0,0:0:0:0:
184,60,48690,1,8,0:0:0:0:
416,108,48940,1,0,0:0:0:0:
460,200,49190,1,0,0:0:0:0:
356,152,49440,1,8,0:0:0:0:
381,283,49690,1,0,0:0:0:0:
284,164,49940,1,8,0:0:0:0:
284,164,50065,1,8,0:0:0:0:
256,360,50315,5,8,0:0:0:0:
256,360,50440,1,8,0:0:0:0:
256,260,50690,1,8,0:0:0:0:
228,164,50940,1,0,0:0:0:0:
131,283,51190,1,0,0:0:0:0:
156,152,51440,1,8,0:0:0:0:
52,200,51690,1,0,0:0:0:0:
96,108,51940,1,8,0:0:0:0:
256,48,52190,5,4,0:0:0:0:
304,240,52690,1,8,0:0:0:0:
256,224,52815,1,0,0:0:0:0:
208,240,52940,1,0,0:0:0:0:
140,164,53190,2,0,B|176:128|232:128,1,100,0|0,0:0|0:0,0:0:0:0:
284,128,53565,2,0,B|340:128|376:164,1,100,0|0,0:0|0:0,0:0:0:0:
375,162,53940,1,8,0:0:0:0:
204,296,54315,5,8,0:0:0:0:
204,296,54440,1,8,0:0:0:0:
304,296,54690,1,8,0:0:0:0:
256,208,54940,1,0,0:0:0:0:
208,120,55190,2,0,B|256:100|304:120,1,100,0|0,0:0|0:0,0:0:0:0:
396,80,55690,6,2,B|328:36|256:12|184:36|116:80,1,300,10|10,0:0|0:0,0:0:0:0:
88,176,56690,1,8,0:0:0:0:
148,256,56940,1,0,0:0:0:0:
240,292,57190,1,0,0:0:0:0:
264,336,57315,1,8,0:0:0:0:
324,200,57565,1,0,0:0:0:0:
360,236,57690,1,8,0:0:0:0:
396,104,57940,1,8,0:0:0:0:
440,128,58065,1,8,0:0:0:0:
304,44,58315,5,8,0:0:0:0:
304,44,58440,1,8,0:0:0:0:
208,44,58690,1,8,0:0:0:0:
256,132,58940,1,0,0:0:0:0:
208,224,59190,5,8,0:0:0:0:
256,236,59315,1,0,0:0:0:0:
304,224,59440,1,0,0:0:0:0:
324,272,59565,1,0,0:0:0:0:
304,316,59690,1,8,0:0:0:0:
256,336,59815,1,0,0:0:0:0:
208,316,59940,1,0,0:0:0:0:
188,272,60065,1,0,0:0:0:0:
208,224,60190,1,0,0:0:0:0:
256,192,60315,12,0,64190,0:0:0:0:
256,192,72190,5,2,0:0:0:0:
256,292,72440,1,0,0:0:0:0:
348,336,72690,2,0,B|348:276|324:240,1,100,0|0,0:0|0:0,0:0:0:0:
188,240,73190,2,0,B|164:276|164:336,1,100,0|0,0:0|0:0,0:0:0:0:
256,292,73690,2,0,B|256:192,1,100,0|0,0:0|0:0,0:0:0:0:
256,92,74190,5,2,0:0:0:0:
160,64,74440,1,0,0:0:0:0:
88,132,74690,2,0,B|124:172|184:164,1,100,0|0,0:0|0:0,0:0:0:0:
256,228,75190,1,0,0:0:0:0:
333,164,75440,2,0,B|388:172|424:132,1,100,0|0,0:0|0:0,0:0:0:0:
352,64,75940,1,0,0:0:0:0:
256,92,76190,5,2,0:0:0:0:
172,148,76440,2,0,B|200:192|255:196,1,100,0|0,0:0|0:0,0:0:0:0:
208,284,76940,2,0,B|256:312|303:284,1,100,0|0,0:0|0:0,0:0:0:0:
256,196,77440,2,0,B|312:192|340:148,1,100,0|0,0:0|0:0,0:0:0:0:
392,236,77940,1,0,0:0:0:0:
352,320,78190,5,2,0:0:0:0:
256,340,78440,2,0,B|256:292,2,50,0|0|0,0:0|0:0|0:0,0:0:0:0:
160,320,78940,1,0,0:0:0:0:
96,244,79190,2,0,B|104:168|152:136,1,112.500004291535,0|2,0:0|0:0,0:0:0:0:
256,160,79940,1,2,0:0:0:0:
256,112,80065,1,0,0:0:0:0:
256,64,80190,5,0,0:0:0:0:
256,64,80440,1,0,0:0:0:0:
340,124,80690,2,0,B|404:200,1,100,2|0,0:0|0:0,0:0:0:0:
332,268,81190,2,0,B|298:286|288:320|306:353,1,100,0|0,0:0|0:0,0:0:0:0:
353,319,81565,2,0,B|255:293,1,100,2|0,0:0|0:0,0:0:0:0:
256,64,82190,5,0,0:0:0:0:
268,164,82440,1,0,0:0:0:0:
172,124,82690,2,0,B|108:200,1,100,2|0,0:0|0:0,0:0:0:0:
176,276,83190,2,0,B|213:274|239:299|240:337,1,100,0|0,0:0|0:0,0:0:0:0:
183,332,83565,2,0,B|254:261,1,100,2|0,0:0|0:0,0:0:0:0:
364,160,84190,6,0,B|356:108|304:84,1,100,0|0,0:0|0:0,0:0:0:0:
204,84,84690,2,0,B|152:108|148:160,1,100,2|0,0:0|0:0,0:0:0:0:
208,244,85190,2,0,B|256:212|304:244,1,100,0|0,0:0|0:0,0:0:0:0:
256,284,85565,2,0,B|256:184,1,100,2|0,0:0|0:0,0:0:0:0:
256,192,86190,12,2,88190,0:0:0:0:
256,192,88690,21,8,0:0:0:0:
120,92,89190,1,8,0:0:0:0:
136,140,89315,1,0,0:0:0:0:
392,92,89565,1,0,0:0:0:0:
376,140,89690,1,8,0:0:0:0:
256,44,89940,1,8,0:0:0:0:
256,92,90065,6,0,B|256:192,1,100,8|8,0:0|0:0,0:0:0:0:
256,240,90440,1,8,0:0:0:0:
256,340,90690,1,8,0:0:0:0:
168,292,90940,1,0,0:0:0:0:
396,340,91190,1,8,0:0:0:0:
380,292,91315,1,0,0:0:0:0:
116,340,91565,1,0,0:0:0:0:
132,292,91690,1,8,0:0:0:0:
256,340,91940,1,8,0:0:0:0:
256,292,92065,1,8,0:0:0:0:
256,244,92190,5,0,0:0:0:0:
204,120,92440,2,0,B|256:104|308:120,1,100,8|8,0:0|0:0,0:0:0:0:
256,244,92940,1,0,0:0:0:0:
109,167,93190,2,0,B|112:220|156:252,1,100,0|8,0:0|0:0,0:0:0:0:
356,252,93690,2,0,B|400:220|404:167,1,100,0|10,0:0|0:0,0:0:0:0:
168,88,94190,5,0,0:0:0:0:
344,88,94440,1,8,0:0:0:0:
256,144,94690,1,8,0:0:0:0:
256,244,94940,1,0,0:0:0:0:
348,200,95190,1,0,0:0:0:0:
360,248,95315,1,0,0:0:0:0:
344,296,95440,1,0,0:0:0:0:
308,332,95565,1,0,0:0:0:0:
256,344,95690,1,8,0:0:0:0:
204,332,95815,1,0,0:0:0:0:
168,296,95940,1,0,0:0:0:0:
152,248,96065,1,0,0:0:0:0:
164,200,96190,5,2,0:0:0:0:
256,44,96690,1,8,0:0:0:0:
256,192,97065,1,8,0:0:0:0:
256,244,97190,1,0,0:0:0:0:
364,144,97440,1,0,0:0:0:0:
340,188,97565,1,8,0:0:0:0:
148,144,97815,1,8,0:0:0:0:
172,188,97940,1,8,0:0:0:0:
304,320,98315,5,8,0:0:0:0:
304,320,98440,2,0,B|256:332|256:332|208:320,1,100,8|8,0:0|0:0,0:0:0:0:
207,319,98940,1,0,0:0:0:0:
208,220,99190,2,0,B|258:232|258:232|306:220,1,100,0|0,0:0|0:0,0:0:0:0:
377,153,99690,6,2,B|352:124|316:108|316:108|280:124|256:152|256:152|232:124|196:108|196:108|160:124|136:152,1,300,10|10,0:0|0:0,0:0:0:0:
208,220,100690,1,8,0:0:0:0:
256,308,100940,1,0,0:0:0:0:
308,220,101190,2,0,B|356:236,1,50,0|8,0:0|0:0,0:0:0:0:
372,136,101565,2,0,B|420:144,1,50,0|8,0:0|0:0,0:0:0:0:
408,44,101940,2,0,B|456:44,1,50,10|8,0:0|0:0,0:0:0:0:
204,64,102315,5,8,0:0:0:0:
204,64,102440,1,8,0:0:0:0:
256,148,102690,1,8,0:0:0:0:
308,64,102940,1,0,0:0:0:0:
104,44,103190,2,0,B|54:44,1,50,8|0,0:0|0:0,0:0:0:0:
140,136,103565,2,0,B|91:144,1,50,0|8,0:0|0:0,0:0:0:0:
204,220,103940,2,0,B|156:236,1,50,8|8,0:0|0:0,0:0:0:0:
112,256,104190,5,4,0:0:0:0:
256,192,104690,1,8,0:0:0:0:
392,92,105190,1,8,0:0:0:0:
376,140,105315,1,0,0:0:0:0:
120,92,105565,1,0,0:0:0:0:
136,140,105690,1,8,0:0:0:0:
256,44,105940,1,8,0:0:0:0:
256,92,106065,6,0,B|256:192,1,100,8|8,0:0|0:0,0:0:0:0:
256,240,106440,1,8,0:0:0:0:
256,340,106690,1,8,0:0:0:0:
344,292,106940,1,0,0:0:0:0:
116,340,107190,1,8,0:0:0:0:
132,292,107315,1,0,0:0:0:0:
396,340,107565,1,0,0:0:0:0:
380,292,107690,1,8,0:0:0:0:
256,340,107940,1,8,0:0:0:0:
256,292,108065,1,8,0:0:0:0:
256,244,108190,5,0,0:0:0:0:
308,120,108440,2,0,B|256:104|204:120,1,100,8|8,0:0|0:0,0:0:0:0:
256,244,108940,1,0,0:0:0:0:
404,167,109190,2,0,B|400:220|356:252,1,100,0|8,0:0|0:0,0:0:0:0:
156,252,109690,2,0,B|112:220|108:167,1,100,0|10,0:0|0:0,0:0:0:0:
344,88,110190,5,0,0:0:0:0:
168,88,110440,1,8,0:0:0:0:
256,144,110690,1,8,0:0:0:0:
256,244,110940,1,0,0:0:0:0:
164,200,111190,1,0,0:0:0:0:
152,248,111315,1,0,0:0:0:0:
168,296,111440,1,0,0:0:0:0:
204,332,111565,1,0,0:0:0:0:
256,344,111690,1,8,0:0:0:0:
308,332,111815,1,0,0:0:0:0:
344,296,111940,1,0,0:0:0:0:
360,248,112065,1,0,0:0:0:0:
348,200,112190,5,4,0:0:0:0:
256,44,112690,1,10,0:0:0:0:
256,192,113065,1,8,0:0:0:0:
256,244,113190,1,0,0:0:0:0:
148,144,113440,1,0,0:0:0:0:
172,188,113565,1,8,0:0:0:0:
364,144,113815,1,8,0:0:0:0:
340,188,113940,1,8,0:0:0:0:
208,320,114315,5,8,0:0:0:0:
208,320,114440,2,0,B|256:332|256:332|304:320,1,100,8|8,0:0|0:0,0:0:0:0:
305,319,114940,1,0,0:0:0:0:
304,220,115190,2,0,B|255:232|255:232|207:220,1,100,0|0,0:0|0:0,0:0:0:0:
136,153,115690,6,2,B|160:124|196:108|196:108|232:124|256:152|256:152|280:124|316:108|316:108|352:124|376:152,1,300,10|10,0:0|0:0,0:0:0:0:
304,220,116690,1,8,0:0:0:0:
256,308,116940,1,0,0:0:0:0:
204,220,117190,2,0,B|156:236,1,50,8|0,0:0|0:0,0:0:0:0:
140,136,117565,2,0,B|92:144,1,50,0|8,0:0|0:0,0:0:0:0:
104,44,117940,2,0,B|56:44,1,50,10|8,0:0|0:0,0:0:0:0:
308,64,118315,5,8,0:0:0:0:
308,64,118440,1,8,0:0:0:0:
256,148,118690,1,8,0:0:0:0:
204,64,118940,1,0,0:0:0:0:
416,212,119190,1,8,0:0:0:0:
368,224,119315,1,0,0:0:0:0:
320,244,119440,1,0,0:0:0:0:
288,280,119565,1,0,0:0:0:0:
256,320,119690,1,8,0:0:0:0:
224,280,119815,1,0,0:0:0:0:
192,244,119940,1,0,0:0:0:0:
144,224,120065,1,0,0:0:0:0:
96,212,120190,5,4,0:0:0:0:
154,128,120440,1,0,0:0:0:0:
208,44,120690,2,0,B|236:44|256:48|256:48|276:44|308:44,1,100,8|0,0:0|0:0,0:0:0:0:
352,128,121190,2,0,B|288:132|256:144|256:144|224:132|152:128,1,200,0|8,0:0|0:0,0:0:0:0:
192,228,121940,2,0,B|188:276,1,50,10|8,0:0|0:0,0:0:0:0:
320,228,122315,2,0,B|324:276,1,50,0|8,0:0|0:0,0:0:0:0:
256,352,122690,2,0,B|256:296,3,50,0|0|8|0,0:0|0:0|0:0|0:0,0:0:0:0:
256,252,123190,6,0,B|249:241|249:241|262:228|262:228|248:216|248:216|264:204|264:204|248:192|248:192|264:180|264:180|248:168|248:168|264:156|264:156|248:144|248:144|264:132|264:132|256:124,1,200,2|8,0:0|0:0,0:0:0:0:
208,36,123940,1,0,0:0:0:0:
256,20,124065,1,8,0:0:0:0:
304,36,124190,1,0,0:0:0:0:
360,120,124440,1,0,0:0:0:0:
376,168,124565,1,8,0:0:0:0:
152,120,124815,1,0,0:0:0:0:
136,168,124940,1,8,0:0:0:0:
256,124,125190,6,0,B|264:132|264:132|248:144|248:144|264:156|264:156|248:168|248:168|264:180|264:180|248:192|248:192|264:204|264:204|248:216|248:216|262:228|262:228|249:241|249:241|256:252,1,200,2|8,0:0|0:0,0:0:0:0:
168,296,125940,1,0,0:0:0:0:
136,336,126065,1,8,0:0:0:0:
344,296,126315,1,0,0:0:0:0:
376,336,126440,1,8,0:0:0:0:
256,352,126690,2,0,B|256:302,3,50,0|0|8|0,0:0|0:0|0:0|0:0,0:0:0:0:
256,252,127190,6,0,B|249:241|249:241|262:228|262:228|248:216|248:216|264:204|264:204|248:192|248:192|264:180|264:180|248:168|248:168|264:156|264:156|248:144|248:144|264:132|264:132|256:124,2,200,2|10|4,0:0|0:0|0:0,0:0:0:0:
358,247,128440,5,0,0:0:0:0:
304,340,128690,2,0,B|276:340|256:336|256:336|236:340|204:340,1,100,8|0,0:0|0:0,0:0:0:0:
160,248,129190,2,0,B|224:248|256:236|256:236|288:248|360:248,1,200,0|8,0:0|0:0,0:0:0:0:
320,156,129940,2,0,B|324:108,1,50,10|8,0:0|0:0,0:0:0:0:
192,156,130315,2,0,B|188:108,1,50,0|8,0:0|0:0,0:0:0:0:
256,32,130690,2,0,B|256:88,3,50,0|0|8|0,0:0|0:0|0:0|0:0,0:0:0:0:
256,132,131190,6,0,B|263:143|263:143|250:156|250:156|264:168|264:168|248:180|248:180|264:192|264:192|248:204|248:204|264:216|264:216|248:228|248:228|264:240|264:240|248:252|248:252|256:260,1,200,2|8,0:0|0:0,0:0:0:0:
304,348,131940,1,0,0:0:0:0:
256,364,132065,1,8,0:0:0:0:
208,348,132190,1,0,0:0:0:0:
152,264,132440,1,0,0:0:0:0:
136,216,132565,1,8,0:0:0:0:
360,264,132815,1,0,0:0:0:0:
376,216,132940,1,8,0:0:0:0:
256,260,133190,6,0,B|248:252|248:252|264:240|264:240|248:228|248:228|264:216|264:216|248:204|248:204|264:192|264:192|248:180|248:180|264:168|264:168|250:156|250:156|263:143|263:143|256:132,1,200,2|8,0:0|0:0,0:0:0:0:
344,88,133940,1,0,0:0:0:0:
376,48,134065,1,8,0:0:0:0:
168,88,134315,1,0,0:0:0:0:
136,48,134440,1,8,0:0:0:0:
256,32,134690,2,0,B|256:82,3,50,0|0|8|0,0:0|0:0|0:0|0:0,0:0:0:0:
256,132,135190,6,0,B|263:143|263:143|250:156|250:156|264:168|264:168|248:180|248:180|264:192|264:192|248:204|248:204|264:216|264:216|248:228|248:228|264:240|264:240|248:252|248:252|256:260,2,200,2|10|4,0:0|0:0|0:0,0:0:0:0:
256,192,144690,5,2,0:0:0:0:
340,140,145190,2,0,B|312:92|256:84|200:92|172:140,1,200,0|2,0:0|0:0,0:0:0:0:
256,192,146690,1,0,0:0:0:0:
256,292,147190,1,0,0:0:0:0:
164,256,147690,2,0,B|139:235|126:192|138:145|163:117,1,150,2|0,0:0|0:0,0:0:0:0:
162,119,148690,5,0,0:0:0:0:
256,92,149190,1,0,0:0:0:0:
349,119,149690,2,0,B|373:145|385:192|372:235|348:256,1,150,2|0,0:0|0:0,0:0:0:0:
348,256,150690,1,0,0:0:0:0:
256,192,152190,5,4,0:0:0:0:
396,148,152440,1,8,0:0:0:0:
352,164,152565,1,0,0:0:0:0:
356,56,152815,1,8,0:0:0:0:
328,96,152940,1,0,0:0:0:0:
256,12,153190,1,8,0:0:0:0:
256,64,153315,1,0,0:0:0:0:
256,112,153440,1,0,0:0:0:0:
256,212,153690,1,0,0:0:0:0:
116,148,153940,1,8,0:0:0:0:
160,164,154065,1,0,0:0:0:0:
156,56,154315,5,8,0:0:0:0:
184,96,154440,1,0,0:0:0:0:
256,12,154690,1,8,0:0:0:0:
256,64,154815,1,0,0:0:0:0:
256,112,154940,1,0,0:0:0:0:
256,212,155190,2,0,B|256:260,1,50,8|0,0:0|0:0,0:0:0:0:
328,332,155565,2,0,B|256:376|184:332,1,150,0|2,0:0|0:0,0:0:0:0:
156,292,156065,1,8,0:0:0:0:
140,244,156190,5,0,0:0:0:0:
356,292,156440,1,8,0:0:0:0:
372,244,156565,1,0,0:0:0:0:
256,268,156815,1,8,0:0:0:0:
256,220,156940,1,0,0:0:0:0:
332,168,157190,1,0,0:0:0:0:
208,72,157440,1,8,0:0:0:0:
304,72,157690,1,0,0:0:0:0:
180,168,157940,1,8,0:0:0:0:
140,136,158065,1,8,0:0:0:0:
332,168,158315,5,8,0:0:0:0:
372,136,158440,1,8,0:0:0:0:
256,140,158690,1,8,0:0:0:0:
256,240,158940,1,0,0:0:0:0:
160,264,159190,2,0,B|175:259|180:279|180:279|192:321|192:321|197:340|212:336,1,100,0|0,0:0|0:0,0:0:0:0:
352,264,159690,2,0,B|336:259|331:279|331:279|319:321|319:321|314:340|301:337,1,100,8|0,0:0|0:0,0:0:0:0:
256,240,160190,5,4,0:0:0:0:
256,140,160440,1,0,0:0:0:0:
208,52,160690,2,0,B|256:32|304:52,1,100,8|0,0:0|0:0,0:0:0:0:
360,136,161190,1,8,0:0:0:0:
380,184,161315,1,0,0:0:0:0:
400,232,161440,1,0,0:0:0:0:
152,136,161690,1,8,0:0:0:0:
132,184,161815,1,0,0:0:0:0:
112,232,161940,1,0,0:0:0:0:
256,180,162190,5,0,0:0:0:0:
256,232,162315,1,0,0:0:0:0:
256,280,162440,1,8,0:0:0:0:
400,232,162690,1,8,0:0:0:0:
112,232,162940,1,0,0:0:0:0:
256,180,163190,2,0,B|256:76,1,100,0|0,0:0|0:0,0:0:0:0:
352,84,163690,6,0,B|320:156|256:172|192:156|160:84,1,250,10|8,0:0|0:0,0:0:0:0:
160,84,164440,1,8,0:0:0:0:
256,40,164690,1,8,0:0:0:0:
352,84,164940,1,0,0:0:0:0:
376,180,165190,1,0,0:0:0:0:
208,252,165440,1,8,0:0:0:0:
308,252,165690,1,0,0:0:0:0:
136,180,165940,1,8,0:0:0:0:
108,224,166065,1,8,0:0:0:0:
376,180,166315,5,8,0:0:0:0:
404,224,166440,1,8,0:0:0:0:
256,176,166690,1,8,0:0:0:0:
256,276,166940,1,0,0:0:0:0:
144,224,167190,1,8,0:0:0:0:
148,176,167315,1,0,0:0:0:0:
176,128,167440,1,0,0:0:0:0:
220,100,167565,1,0,0:0:0:0:
252,60,167690,1,8,0:0:0:0:
292,100,167815,1,0,0:0:0:0:
336,128,167940,1,0,0:0:0:0:
364,176,168065,1,0,0:0:0:0:
368,224,168190,5,4,0:0:0:0:
256,248,168440,1,0,0:0:0:0:
208,336,168690,2,0,B|244:332|256:320|256:320|268:332|304:336,1,100,8|0,0:0|0:0,0:0:0:0:
256,248,169190,1,0,0:0:0:0:
301,160,169440,2,0,B|268:164|256:176|256:176|244:164|208:160,1,100,0|8,0:0|0:0,0:0:0:0:
156,248,169940,1,0,0:0:0:0:
136,204,170065,1,8,0:0:0:0:
356,248,170315,5,0,0:0:0:0:
376,204,170440,1,8,0:0:0:0:
296,112,170690,1,0,0:0:0:0:
280,64,170815,1,0,0:0:0:0:
232,64,170940,1,8,0:0:0:0:
216,112,171065,1,0,0:0:0:0:
256,144,171190,2,0,B|262:154|262:154|249:167|249:167|263:179|263:179|247:191|247:191|263:203|263:203|247:215|247:215|263:227|263:227|247:239|247:239|263:251|263:251|247:263|247:263|255:271,1,200,2|8,0:0|0:0,0:0:0:0:
212,360,171940,1,8,0:0:0:0:
256,340,172065,1,0,0:0:0:0:
300,360,172190,5,0,0:0:0:0:
380,300,172440,1,8,0:0:0:0:
305,236,172690,2,0,B|256:216|208:236,1,100,0|8,0:0|0:0,0:0:0:0:
192,136,173190,2,0,B|200:128|200:128|212:144|212:144|224:128|224:128|236:144|236:144|248:128|248:128|260:144|260:144|272:128|272:128|284:144|284:144|296:130|296:130|309:143|309:143|319:137,1,200,2|8,0:0|0:0,0:0:0:0:
388,212,173940,1,0,0:0:0:0:
392,164,174065,1,8,0:0:0:0:
124,212,174315,5,0,0:0:0:0:
120,164,174440,1,8,0:0:0:0:
192,96,174690,2,0,B|240:108,1,50,0|0,0:0|0:0,0:0:0:0:
320,96,174940,2,0,B|272:108,1,50,8|0,0:0|0:0,0:0:0:0:
256,156,175190,2,0,B|262:166|262:166|249:179|249:179|263:191|263:191|247:203|247:203|263:215|263:215|247:227|247:227|263:239|263:239|247:251|247:251|263:263|263:263|247:275|247:275|255:283,2,200,2|10|4,0:0|0:0|0:0,0:0:0:0:
256,56,176440,5,0,0:0:0:0:
180,120,176690,2,0,B|180:176|144:212,1,100,8|0,0:0|0:0,0:0:0:0:
332,120,177190,2,0,B|332:176|368:212,1,100,0|0,0:0|0:0,0:0:0:0:
256,200,177690,1,8,0:0:0:0:
144,212,177940,1,8,0:0:0:0:
136,260,178065,1,0,0:0:0:0:
368,212,178315,5,8,0:0:0:0:
376,260,178440,1,0,0:0:0:0:
308,332,178690,1,0,0:0:0:0:
208,332,178940,1,8,0:0:0:0:
256,244,179190,2,0,B|248:236|248:236|264:224|264:224|248:212|248:212|264:200|264:200|248:188|248:188|264:176|264:176|248:164|248:164|264:152|264:152|250:140|250:140|263:127|263:127|257:117,1,200,2|8,0:0|0:0,0:0:0:0:
256,116,179940,1,8,0:0:0:0:
256,116,180065,1,0,0:0:0:0:
256,116,180190,5,0,0:0:0:0:
352,152,180440,1,0,0:0:0:0:
352,252,180690,2,0,B|308:232|256:224|256:224|204:232|160:252,1,200,8|0,0:0|0:0,0:0:0:0:
160,152,181440,1,0,0:0:0:0:
144,104,181565,1,0,0:0:0:0:
128,56,181690,1,8,0:0:0:0:
352,152,181940,1,0,0:0:0:0:
368,104,182065,1,0,0:0:0:0:
384,56,182190,5,0,0:0:0:0:
256,88,182440,1,8,0:0:0:0:
256,188,182690,1,8,0:0:0:0:
256,88,182940,1,0,0:0:0:0:
352,272,183190,2,0,B|256:224|112:348|256:452|400:348|256:224|160:272,1,400,0|0,0:0|0:0,0:0:0:0:
256,192,184315,12,0,191190,0:0:0:0:
