osu file format v12

[General]
AudioFilename: Call me maybe.mp3
AudioLeadIn: 0
PreviewTime: 28190
Countdown: 0
SampleSet: Soft
StackLeniency: 0.5
Mode: 0
LetterboxInBreaks: 0

[Editor]
Bookmarks: 109190
DistanceSpacing: 1
BeatDivisor: 4
GridSize: 4

[Metadata]
Title:Call Me Maybe
TitleUnicode:Call Me Maybe
Artist:Carly Rae Jepsen
ArtistUnicode:Carly Rae Jepsen
Creator:-Baby Strawberry-
Version:Hard
Source:
Tags:Curiosity
BeatmapID:178488
BeatmapSetID:54954

[Difficulty]
HPDrainRate:6
CircleSize:4
OverallDifficulty:5
ApproachRate:7
SliderMultiplier:1.6
SliderTickRate:2

[Events]
//Background and Video events
0,0,"b3d9721881479489c4a9c0b39296925d.jpg",0,0
//Break Periods
2,64390,71290
2,136390,143790
//Storyboard Layer 0 (Background)
//Storyboard Layer 1 (Fail)
//Storyboard Layer 2 (Pass)
//Storyboard Layer 3 (Foreground)
//Storyboard Sound Samples
//Background Colour Transformations
3,100,163,162,255

[TimingPoints]
190,500,4,2,1,20,1,0
4190,-100,4,2,1,30,0,0
20190,-100,4,2,1,40,0,0
28190,-100,4,1,1,40,0,1
28315,-100,4,1,1,40,0,0
44190,-100,4,1,1,40,0,1
60190,-100,4,2,1,30,0,0
72190,-100,4,2,1,30,0,0
80190,-100,4,2,1,50,0,0
88190,-100,4,1,1,40,0,1
88315,-100,4,1,1,40,0,0
104190,-100,4,1,1,40,0,1
120127,-100,4,1,1,40,0,0
120190,-100,4,1,1,40,0,1
120252,-100,4,1,1,40,0,0
136190,-100,4,1,1,30,0,0
144190,-200,4,2,1,30,0,0
152190,-100,4,1,1,40,0,1
168127,-100,4,1,1,40,0,0
168190,-100,4,1,1,40,0,1
168252,-100,4,1,1,40,0,0
184190,-100,4,2,1,5,0,0

[Colours]
Combo1 : 252,103,170
Combo2 : 39,213,243
Combo3 : 123,253,133
Combo4 : 255,255,81
SliderBorder : 255,255,255

[HitObjects]
140,124,4190,1,2,0:0:0:0:
176,52,4440,1,0,0:0:0:0:
256,32,4690,1,0,0:0:0:0:
336,52,4940,1,0,0:0:0:0:
372,124,5190,1,0,0:0:0:0:
296,124,5440,2,0,B|256:104|216:124,2,80,0|0|0,0:0|0:0|0:0,0:0:0:0:
256,192,6190,5,2,0:0:0:0:
293,261,6440,2,0,B|256:280|216:260,2,80
364,224,7190,1,0,0:0:0:0:
368,304,7439,1,0,0:0:0:0:
296,340,7689,1,0,0:0:0:0:
216,340,7939,1,0,0:0:0:0:
144,304,8189,5,2,0:0:0:0:
68,276,8440,2,0,B|88:236|128:224|128:224|88:220|64:180,1,160
140,148,9190,1,0,0:0:0:0:
200,200,9440,2,0,B|228:164|216:120|216:120|292:132,1,160
368,144,10190,5,2,0:0:0:0:
440,176,10440,2,0,B|424:216|384:224|384:224|424:236|444:276,1,160
368,304,11190,2,0,B|404:364|468:352,2,120,0|2|0,0:0|0:0|0:0,0:0:0:0:
292,256,12190,5,2,0:0:0:0:
368,304,12440,1,0,0:0:0:0:
296,348,12690,1,0,0:0:0:0:
212,348,12940,1,0,0:0:0:0:
144,304,13190,1,0,0:0:0:0:
216,256,13440,2,0,B|256:276|296:256,2,80,0|0|0,0:0|0:0|0:0,0:0:0:0:
216,256,14190,1,2,0:0:0:0:
256,192,14440,5,0,0:0:0:0:
218,122,14690,2,0,B|256:104|296:124,2,80
148,160,15440,1,0,0:0:0:0:
144,80,15689,1,0,0:0:0:0:
216,44,15940,1,0,0:0:0:0:
296,44,16190,5,2,0:0:0:0:
368,80,16439,1,0,0:0:0:0:
444,108,16690,2,0,B|424:148|384:156|384:156|424:160|448:204,1,160,0|0,0:0|0:0,0:0:0:0:
372,236,17440,1,0,0:0:0:0:
312,184,17690,2,0,B|284:220|296:260|296:260|216:248,1,160,0|2,0:0|0:0,0:0:0:0:
140,236,18440,5,0,0:0:0:0:
65,204,18690,2,0,B|80:160|128:160|128:160,1,80,0|0,0:0|0:0,0:0:0:0:
204,136,19190,2,0,B|167:75|103:88,2,120,0|2|2,0:0|0:0|0:0,0:0:0:0:
256,152,20065,1,0,0:0:0:0:
308,136,20190,6,0,B|344:75|408:88,2,120,0|2|0,0:0|0:0|0:0,0:0:0:0:
382,159,21190,2,0,B|384:160|424:168|446:204,1,80,0|0,0:0|0:0,0:0:0:0:
446,204,21565,1,2,0:0:0:0:
376,240,21815,1,0,0:0:0:0:
256,328,22190,6,0,B|228:300|228:300|228:260,1,80,0|0,0:0|0:0,0:0:0:0:
284,200,22690,2,0,B|284:160|284:160|256:132,1,80,2|0,0:0|0:0,0:0:0:0:
129,159,23190,2,0,B|128:160|88:168|65:204,1,80,0|0,0:0|0:0,0:0:0:0:
65,204,23565,1,2,0:0:0:0:
136,240,23815,1,0,0:0:0:0:
256,328,24190,6,0,B|284:300|284:300|284:260,1,80,0|0,0:0|0:0,0:0:0:0:
228,200,24690,2,0,B|228:160|228:160|256:132,1,80,2|0,0:0|0:0,0:0:0:0:
296,60,25190,2,0,B|256:44|216:60,1,80,0|0,0:0|0:0,0:0:0:0:
217,59,25565,1,2,0:0:0:0:
256,132,25815,1,0,0:0:0:0:
348,208,26190,6,0,B|324:208|324:208|296:224|296:256,1,80,2|0,0:0|0:0,0:0:0:0:
216,252,26690,2,0,B|216:222|188:206|188:206|164:206,1,80,2|0,0:0|0:0,0:0:0:0:
148,284,27190,1,2,0:0:0:0:
212,328,27440,1,0,0:0:0:0:
364,284,27690,1,2,0:0:0:0:
300,328,27940,1,0,0:0:0:0:
256,224,28190,5,6,0:0:0:0:
216,68,28690,2,0,B|252:68|256:72|256:72|260:68|296:68,1,80,8|0,0:0|0:0,0:0:0:0:
292,148,29190,2,0,B|332:160,1,40,8|0,0:0|0:0,0:0:0:0:
220,148,29565,2,0,B|180:160,1,40,0|8,0:0|0:0,0:0:0:0:
180,240,29940,2,0,B|256:212|256:212|332:240,1,160,0|8,0:0|0:0,0:0:0:0:
296,312,30690,6,0,B|256:296|256:296|216:312,1,80,8|0,0:0|0:0,0:0:0:0:
180,240,31190,2,0,B|140:232,1,40,8|0,0:0|0:0,0:0:0:0:
180,144,31565,2,0,B|140:152,1,40,0|8,0:0|0:0,0:0:0:0:
68,116,31940,2,0,B|44:148|60:192|60:192|44:236|68:268,1,160,0|8,0:0|0:0,0:0:0:0:
140,308,32690,6,0,B|174:333|216:313,1,80,8|0,0:0|0:0,0:0:0:0:
180,240,33190,1,0,0:0:0:0:
260,244,33440,1,8,0:0:0:0:
224,172,33690,1,0,0:0:0:0:
304,176,33940,2,0,B|340:200|340:248,1,80,8|0,0:0|0:0,0:0:0:0:
260,244,34440,1,8,0:0:0:0:
180,240,34690,1,8,0:0:0:0:
224,172,34940,5,0,0:0:0:0:
260,244,35190,1,0,0:0:0:0:
304,176,35440,1,8,0:0:0:0:
343,107,35690,2,0,B|309:82|267:102,1,80,0|8,0:0|0:0,0:0:0:0:
188,96,36190,5,6,0:0:0:0:
296,316,36690,2,0,B|260:316|256:312|256:312|252:316|216:316,1,80,8|0,0:0|0:0,0:0:0:0:
220,236,37190,2,0,B|180:224,1,40,8|0,0:0|0:0,0:0:0:0:
292,236,37565,2,0,B|332:224,1,40,0|8,0:0|0:0,0:0:0:0:
332,144,37940,2,0,B|256:172|256:172|180:144,1,160,0|8,0:0|0:0,0:0:0:0:
216,72,38690,6,0,B|256:88|256:88|296:72,1,80,8|0,0:0|0:0,0:0:0:0:
332,144,39190,2,0,B|372:152,1,40,8|0,0:0|0:0,0:0:0:0:
332,240,39565,2,0,B|372:232,1,40,0|8,0:0|0:0,0:0:0:0:
444,268,39940,2,0,B|468:236|452:192|452:192|468:148|444:116,1,160,0|8,0:0|0:0,0:0:0:0:
372,76,40690,6,0,B|337:50|295:70,1,80,8|0,0:0|0:0,0:0:0:0:
332,144,41190,1,0,0:0:0:0:
252,140,41440,1,8,0:0:0:0:
288,212,41690,1,0,0:0:0:0:
208,208,41940,2,0,B|168:176|172:132,1,80,8|0,0:0|0:0,0:0:0:0:
252,140,42440,1,8,0:0:0:0:
332,144,42690,1,8,0:0:0:0:
288,212,42940,5,0,0:0:0:0:
252,140,43190,1,0,0:0:0:0:
208,208,43440,1,8,0:0:0:0:
168,276,43690,2,0,B|202:301|245:282,1,80,0|8,0:0|0:0,0:0:0:0:
324,288,44190,5,4,0:0:0:0:
324,288,44440,1,0,0:0:0:0:
376,224,44690,1,8,0:0:0:0:
376,224,44940,1,0,0:0:0:0:
452,200,45190,1,0,0:0:0:0:
396,148,45440,1,0,0:0:0:0:
360,128,45565,1,0,0:0:0:0:
320,120,45690,1,8,0:0:0:0:
256,164,45940,1,0,0:0:0:0:
256,164,46190,5,0,0:0:0:0:
192,120,46440,1,8,0:0:0:0:
152,128,46565,1,0,0:0:0:0:
116,148,46690,1,8,0:0:0:0:
60,200,46940,1,0,0:0:0:0:
136,228,47190,2,0,L|116:316,1,80,0|8,0:0|0:0,0:0:0:0:
212,260,47690,2,0,B|208:312,2,40,0|0|8,0:0|0:0|0:0,0:0:0:0:
300,260,48190,6,0,B|304:312,2,40,0|0|8,0:0|0:0|0:0,0:0:0:0:
376,228,48690,2,0,L|396:316,1,80,8|0,0:0|0:0,0:0:0:0:
296,172,49190,1,0,0:0:0:0:
216,172,49440,1,8,0:0:0:0:
256,104,49690,2,0,B|279:97|288:81,2,40,0|0|8,0:0|0:0|0:0,0:0:0:0:
256,104,50190,6,0,B|239:85|222:84,2,40,0|0|8,0:0|0:0|0:0,0:0:0:0:
256,104,50690,2,0,B|248:127|256:142,2,40,8|0|0,0:0|0:0|0:0,0:0:0:0:
324,144,51190,2,0,B|320:172|300:192|300:192|296:216,1,80,0|8,0:0|0:0,0:0:0:0:
216,217,51690,2,0,B|212:192|212:192|192:172|188:144,1,80,0|8,0:0|0:0,0:0:0:0:
256,104,52190,5,6,0:0:0:0:
96,112,52690,1,8,0:0:0:0:
96,112,52940,1,0,0:0:0:0:
60,184,53190,1,0,0:0:0:0:
116,236,53440,1,0,0:0:0:0:
152,256,53565,1,0,0:0:0:0:
192,264,53690,1,8,0:0:0:0:
256,220,53940,1,0,0:0:0:0:
256,220,54190,5,0,0:0:0:0:
320,264,54440,1,8,0:0:0:0:
360,256,54565,1,0,0:0:0:0:
396,236,54690,1,8,0:0:0:0:
452,184,54940,1,0,0:0:0:0:
376,156,55190,2,0,L|396:68,1,80,0|8,0:0|0:0,0:0:0:0:
300,124,55690,2,0,B|304:72,2,40,0|0|8,0:0|0:0|0:0,0:0:0:0:
212,124,56190,6,0,B|208:72,2,40,0|0|8,0:0|0:0|0:0,0:0:0:0:
136,156,56690,2,0,L|116:68,1,80,8|0,0:0|0:0,0:0:0:0:
216,212,57190,1,0,0:0:0:0:
296,212,57440,1,8,0:0:0:0:
256,280,57690,2,0,B|233:287|223:304,2,40,0|0|8,0:0|0:0|0:0,0:0:0:0:
256,280,58190,6,0,B|273:299|294:300,2,40,0|0|8,0:0|0:0|0:0,0:0:0:0:
256,280,58690,2,0,B|264:257|255:240,2,40,8|0|0,0:0|0:0|0:0,0:0:0:0:
324,240,59190,2,0,B|320:212|300:192|300:192|296:168,1,80,0|0,0:0|0:0,0:0:0:0:
216,167,59690,2,0,B|212:192|212:192|192:212|188:240,1,80,8|0,0:0|0:0,0:0:0:0:
256,192,60190,12,0,64190,0:0:0:0:
256,192,72190,5,2,0:0:0:0:
249,108,72440,1,0,0:0:0:0:
328,152,72690,2,0,B|352:192|328:232,1,80,0|0,0:0|0:0,0:0:0:0:
254,274,73190,2,0,B|208:275|185:234,1,80,0|0,0:0|0:0,0:0:0:0:
185,149,73690,2,0,B|208:108|254:109,1,80,0|0,0:0|0:0,0:0:0:0:
320,72,74190,6,0,B|344:32,2,40,2|0|0,0:0|0:0|0:0,0:0:0:0:
248,108,74690,2,0,B|208:108|185:149,1,80,0|0,0:0|0:0,0:0:0:0:
187,237,75189,2,0,B|208:275|254:274,1,80,0|0,0:0|0:0,0:0:0:0:
330,228,75689,2,0,B|352:192|328:152,1,80,0|0,0:0|0:0,0:0:0:0:
256,192,76190,6,0,B|208:120,1,80,2|0,0:0|0:0,0:0:0:0:
128,120,76690,1,0,0:0:0:0:
176,48,76940,1,0,0:0:0:0:
256,32,77190,1,0,0:0:0:0:
336,48,77440,1,0,0:0:0:0:
384,120,77690,1,0,0:0:0:0:
300,125,77940,2,0,B|256:192,1,80,0|2,0:0|0:0,0:0:0:0:
216,264,78440,6,0,B|256:288|296:264,2,80,0|2|0,0:0|0:0|0:0,0:0:0:0:
196,344,79190,2,0,B|256:368|316:344,2,120,0|2|0,0:0|0:0|0:0,0:0:0:0:
196,344,80065,1,0,0:0:0:0:
196,344,80190,1,0,0:0:0:0:
140,284,80440,5,0,0:0:0:0:
68,252,80690,2,0,B|88:212|132:208,1,80,2|0,0:0|0:0,0:0:0:0:
208,232,81190,2,0,B|216:208|208:180|208:180|216:152,1,80,0|0,0:0|0:0,0:0:0:0:
215,153,81565,1,2,0:0:0:0:
216,72,81815,1,0,0:0:0:0:
216,72,82190,6,0,B|248:72|256:80|256:80|264:72|293:72,1,80,0|0,0:0|0:0,0:0:0:0:
296,153,82690,2,0,B|304:180|304:180|296:208|304:232,1,80,2|0,0:0|0:0,0:0:0:0:
208,232,83190,2,0,B|216:208|208:180|208:180|215:153,1,80,0|0,0:0|0:0,0:0:0:0:
216,152,83565,1,2,0:0:0:0:
296,152,83815,1,0,0:0:0:0:
296,152,84190,5,0,0:0:0:0:
312,80,84440,1,0,0:0:0:0:
296,153,84690,2,0,B|304:180|304:180|296:208|304:232,1,80,2|0,0:0|0:0,0:0:0:0:
380,208,85189,2,0,B|424:212|444:252,1,80,0|0,0:0|0:0,0:0:0:0:
443,250,85565,1,2,0:0:0:0:
372,288,85815,1,0,0:0:0:0:
256,192,86190,12,6,88190,0:0:0:0:
256,192,88690,21,8,0:0:0:0:
148,312,89190,2,0,B|136:352,2,40,0|0|8,0:0|0:0|0:0,0:0:0:0:
72,284,89690,2,0,L|0:216,1,80,0|8,0:0|0:0,0:0:0:0:
136,232,90190,6,0,B|176:222,2,40,0|0|8,0:0|0:0|0:0,0:0:0:0:
80,176,90690,1,8,0:0:0:0:
132,116,90940,1,0,0:0:0:0:
144,36,91190,1,0,0:0:0:0:
180,52,91315,1,0,0:0:0:0:
204,84,91440,1,8,0:0:0:0:
256,144,91690,2,0,L|256:240,1,80,0|8,0:0|0:0,0:0:0:0:
308,84,92190,5,0,0:0:0:0:
332,52,92315,1,0,0:0:0:0:
368,36,92440,1,8,0:0:0:0:
380,116,92690,1,8,0:0:0:0:
432,176,92940,1,0,0:0:0:0:
376,232,93190,2,0,B|337:222,2,40,0|0|8,0:0|0:0|0:0,0:0:0:0:
440,284,93690,2,0,L|512:216,1,80,0|8,0:0|0:0,0:0:0:0:
364,312,94189,6,0,B|375:350,2,40,0|0|8,0:0|0:0|0:0,0:0:0:0:
292,272,94690,2,0,B|260:280|256:288|256:288|252:280|220:272,1,80,8|0,0:0|0:0,0:0:0:0:
184,204,95190,2,0,B|172:180|176:152|176:152|197:135,1,80,0|8,0:0|0:0,0:0:0:0:
328,204,95690,2,0,B|340:180|336:152|336:152|314:135,1,80,0|8,0:0|0:0,0:0:0:0:
256,80,96190,5,6,0:0:0:0:
256,240,96690,1,8,0:0:0:0:
364,312,97190,2,0,B|376:352,2,40,0|0|8,0:0|0:0|0:0,0:0:0:0:
440,284,97690,2,0,L|512:216,1,80,0|8,0:0|0:0,0:0:0:0:
376,232,98190,6,0,B|335:222,2,40,0|0|8,0:0|0:0|0:0,0:0:0:0:
432,176,98690,1,8,0:0:0:0:
412,140,98815,1,0,0:0:0:0:
380,116,98940,1,0,0:0:0:0:
368,36,99190,1,0,0:0:0:0:
308,84,99440,1,8,0:0:0:0:
256,144,99690,2,0,B|256:192,2,40,0|0|10,0:0|0:0|0:0,0:0:0:0:
204,84,100190,5,0,0:0:0:0:
144,36,100440,1,8,0:0:0:0:
132,116,100690,1,8,0:0:0:0:
100,140,100815,1,0,0:0:0:0:
80,176,100940,1,0,0:0:0:0:
136,232,101190,2,0,B|174:222,2,40,0|0|8,0:0|0:0|0:0,0:0:0:0:
72,284,101690,2,0,L|0:216,1,80,0|8,0:0|0:0,0:0:0:0:
148,312,102189,6,0,B|136:350,2,40,0|0|8,0:0|0:0|0:0,0:0:0:0:
220,272,102690,2,0,B|252:280|256:288|256:288|260:280|292:272,1,80,8|0,0:0|0:0,0:0:0:0:
336,204,103190,2,0,B|348:180|344:152|344:152|322:135,1,80,0|8,0:0|0:0,0:0:0:0:
176,204,103690,2,0,B|164:180|168:152|168:152|189:135,1,80,0|8,0:0|0:0,0:0:0:0:
256,80,104190,6,0,B|256:160,1,80,4|0,0:0|0:0,0:0:0:0:
256,240,104690,1,8,0:0:0:0:
256,320,104940,1,0,0:0:0:0:
324,280,105190,2,0,B|360:256,1,40,8|0,0:0|0:0,0:0:0:0:
188,280,105565,2,0,B|152:256,1,40,0|8,0:0|0:0,0:0:0:0:
188,184,105940,2,0,B|216:136|296:136|324:184,1,160,0|8,0:0|0:0,0:0:0:0:
256,240,106690,5,8,0:0:0:0:
188,184,106940,1,0,0:0:0:0:
172,96,107190,2,0,B|180:52,2,40,0|0|8,0:0|0:0|0:0,0:0:0:0:
256,80,107690,1,0,0:0:0:0:
256,80,107940,1,8,0:0:0:0:
340,96,108190,6,0,B|332:52,2,40,0|0|8,0:0|0:0|0:0,0:0:0:0:
288,156,108690,2,0,B|256:228,1,80,8|0,0:0|0:0,0:0:0:0:
224,156,109190,2,0,B|256:228,1,80,0|8,0:0|0:0,0:0:0:0:
292,300,109690,2,0,B|256:324|216:300,1,80,0|8,0:0|0:0,0:0:0:0:
172,236,110190,6,0,B|132:224,2,40,0|0|8,0:0|0:0|0:0,0:0:0:0:
340,236,110690,2,0,B|380:224,2,40,8|0|0,0:0|0:0|0:0,0:0:0:0:
180,312,111190,2,0,B|152:324|152:324|104:312,1,80,0|8,0:0|0:0,0:0:0:0:
332,312,111690,2,0,B|360:324|360:324|408:312,1,80,0|8,0:0|0:0,0:0:0:0:
256,304,112190,6,0,B|256:224,1,80,6|0,0:0|0:0,0:0:0:0:
256,144,112690,1,8,0:0:0:0:
256,64,112940,1,0,0:0:0:0:
324,104,113190,2,0,B|360:128,1,40,8|0,0:0|0:0,0:0:0:0:
188,104,113565,2,0,B|152:128,1,40,0|8,0:0|0:0,0:0:0:0:
188,200,113940,2,0,B|216:248|296:248|324:200,1,160,2|8,0:0|0:0,0:0:0:0:
256,144,114690,5,8,0:0:0:0:
188,200,114940,1,0,0:0:0:0:
172,288,115190,2,0,B|180:332,2,40,0|0|8,0:0|0:0|0:0,0:0:0:0:
256,304,115690,1,0,0:0:0:0:
256,304,115940,1,8,0:0:0:0:
340,288,116190,6,0,B|332:332,2,40,0|0|8,0:0|0:0|0:0,0:0:0:0:
288,228,116690,2,0,B|256:156,1,80,8|0,0:0|0:0,0:0:0:0:
224,228,117190,2,0,B|256:156,1,80,0|8,0:0|0:0,0:0:0:0:
292,84,117690,2,0,B|256:60|216:84,1,80,0|10,0:0|0:0,0:0:0:0:
172,148,118190,6,0,B|132:160,2,40,0|0|8,0:0|0:0|0:0,0:0:0:0:
340,148,118690,2,0,B|380:160,2,40,8|0|0,0:0|0:0|0:0,0:0:0:0:
220,84,119190,1,0,0:0:0:0:
292,84,119440,1,0,0:0:0:0:
256,152,119690,1,8,0:0:0:0:
256,192,119815,1,0,0:0:0:0:
256,232,119940,1,0,0:0:0:0:
256,272,120065,1,0,0:0:0:0:
256,312,120190,5,4,0:0:0:0:
324,272,120440,1,0,0:0:0:0:
316,192,120690,2,0,B|336:156|384:152,1,80,8|0,0:0|0:0,0:0:0:0:
392,232,121190,2,0,B|456:224|484:164|464:116,1,160,0|8,0:0|0:0,0:0:0:0:
404,60,121940,2,0,B|424:20,2,40,8|0|0,0:0|0:0|0:0,0:0:0:0:
340,112,122440,6,0,B|336:68|304:40,1,80,0|8,0:0|0:0,0:0:0:0:
256,104,122940,1,8,0:0:0:0:
204,44,123190,2,0,B|172:68|172:112|172:112|132:88|92:100,1,160,2|8,0:0|0:0,0:0:0:0:
120,176,123940,1,8,0:0:0:0:
156,188,124065,1,0,0:0:0:0:
196,192,124190,5,0,0:0:0:0:
172,272,124440,2,0,B|176:316|208:344,1,80,0|8,0:0|0:0,0:0:0:0:
256,280,124940,1,8,0:0:0:0:
308,340,125190,2,0,B|340:316|340:272|340:272|380:296|420:284,1,160,2|8,0:0|0:0,0:0:0:0:
392,208,125940,1,0,0:0:0:0:
356,196,126065,1,8,0:0:0:0:
316,192,126190,1,0,0:0:0:0:
256,136,126440,6,0,B|256:52,2,80,0|8|0,0:0|0:0|0:0,0:0:0:0:
196,192,127190,2,0,B|204:224|240:240|256:220|256:220|272:240|308:224|316:192,2,160,2|10|4,0:0|0:0|0:0,0:0:0:0:
256,136,128440,5,0,0:0:0:0:
196,192,128690,2,0,B|176:156|128:152,1,80,8|0,0:0|0:0,0:0:0:0:
120,232,129190,2,0,B|55:224|28:164|48:116,1,160,0|8,0:0|0:0,0:0:0:0:
108,60,129940,2,0,B|88:20,2,40,8|0|0,0:0|0:0|0:0,0:0:0:0:
172,112,130440,6,0,B|176:68|208:40,1,80,0|8,0:0|0:0,0:0:0:0:
256,104,130940,1,8,0:0:0:0:
308,44,131190,2,0,B|340:68|340:112|340:112|380:88|420:100,1,160,2|8,0:0|0:0,0:0:0:0:
392,176,131940,1,8,0:0:0:0:
356,188,132065,1,0,0:0:0:0:
316,192,132190,5,0,0:0:0:0:
340,272,132440,2,0,B|336:316|304:344,1,80,0|8,0:0|0:0,0:0:0:0:
256,280,132940,1,8,0:0:0:0:
204,340,133190,2,0,B|172:316|172:272|172:272|132:296|92:284,1,160,2|8,0:0|0:0,0:0:0:0:
120,208,133940,1,8,0:0:0:0:
156,196,134065,1,0,0:0:0:0:
196,192,134190,5,0,0:0:0:0:
256,136,134440,2,0,B|256:52,2,80,0|8|0,0:0|0:0|0:0,0:0:0:0:
316,192,135190,2,0,B|308:224|272:240|256:220|256:220|240:240|204:224|196:192,2,160,0|8|4,0:0|0:0|0:0,0:0:0:0:
276,192,144690,6,0,B|236:192,1,40,2|0,0:0|0:0,0:0:0:0:
168,136,145190,2,0,B|204:84|308:84|344:136,1,200,0|2,0:0|0:0,0:0:0:0:
344,136,146690,1,2,0:0:0:0:
256,172,147190,6,0,B|256:212,1,40
200,268,147690,2,0,B|232:300|280:300|312:268,1,120,2|2,0:0|0:0,0:0:0:0:
308,271,148690,1,2,0:0:0:0:
256,212,149190,6,0,B|256:172,1,40
220,104,149690,1,0,0:0:0:0:
220,104,149940,2,0,B|256:76|292:104,1,80,2|2,0:0|0:0,0:0:0:0:
292,104,150690,1,2,0:0:0:0:
256,192,152190,21,6,0:0:0:0:
336,192,152440,1,0,0:0:0:0:
412,232,152690,1,8,0:0:0:0:
420,192,152815,1,0,0:0:0:0:
412,152,152940,1,0,0:0:0:0:
420,72,153190,2,0,B|376:72|348:104,1,80,0|0,0:0|0:0,0:0:0:0:
220,44,153690,2,0,B|248:48|256:60|256:60|264:48|292:44,1,80,8|2,0:0|0:0,0:0:0:0:
164,104,154190,6,0,B|136:72|92:72,1,80,0|8,0:0|0:0,0:0:0:0:
100,152,154690,1,8,0:0:0:0:
92,192,154815,1,0,0:0:0:0:
100,232,154939,1,0,0:0:0:0:
92,312,155190,2,0,B|136:312|164:280,1,80,0|0,0:0|0:0,0:0:0:0:
292,340,155690,2,0,B|264:336|256:324|256:324|248:336|220:340,1,80,8|2,0:0|0:0,0:0:0:0:
348,280,156190,6,0,B|376:312|420:312,1,80,0|8,0:0|0:0,0:0:0:0:
412,232,156690,2,0,B|384:200|340:200,1,80,8|0,0:0|0:0,0:0:0:0:
182,235,157190,5,0,0:0:0:0:
290,113,157440,1,8,0:0:0:0:
274,275,157690,1,0,0:0:0:0:
191,135,157940,1,8,0:0:0:0:
341,200,158190,1,0,0:0:0:0:
256,192,158440,1,8,0:0:0:0:
256,192,158690,1,8,0:0:0:0:
153,182,158940,5,0,0:0:0:0:
332,259,159190,1,0,0:0:0:0:
233,92,159440,1,8,0:0:0:0:
215,284,159690,1,0,0:0:0:0:
343,139,159940,1,8,0:0:0:0:
256,192,160190,5,6,0:0:0:0:
100,152,160690,1,8,0:0:0:0:
92,192,160815,1,0,0:0:0:0:
100,232,160940,1,0,0:0:0:0:
168,192,161190,2,0,B|168:148|200:116,1,80,0|0,0:0|0:0,0:0:0:0:
220,88,161565,2,0,B|244:96|256:108|256:108|268:96|292:88,1,80,8|0,0:0|0:0,0:0:0:0:
315,119,161940,2,0,B|344:148|344:192,1,80,0|0,0:0|0:0,0:0:0:0:
256,192,162440,5,8,0:0:0:0:
256,272,162690,1,8,0:0:0:0:
256,352,162940,1,0,0:0:0:0:
188,312,163190,2,0,B|152:340|116:312,1,80,0|0,0:0|0:0,0:0:0:0:
152,240,163690,2,0,B|208:168|304:168|360:240,1,240,8|8,0:0|0:0,0:0:0:0:
397,311,164690,6,0,B|360:340|324:312,1,80,8|0,0:0|0:0,0:0:0:0:
256,272,165190,1,0,0:0:0:0:
256,192,165440,1,8,0:0:0:0:
216,120,165690,2,0,B|256:104|296:120,1,80,0|8,0:0|0:0,0:0:0:0:
312,40,166190,6,0,B|352:24,2,40,0|0|8,0:0|0:0|0:0,0:0:0:0:
200,40,166690,2,0,B|160:24,2,40,8|0|0,0:0|0:0|0:0,0:0:0:0:
296,120,167190,1,8,0:0:0:0:
216,120,167440,1,0,0:0:0:0:
256,192,167690,5,8,0:0:0:0:
248,232,167815,1,0,0:0:0:0:
256,272,167940,1,0,0:0:0:0:
264,312,168065,1,0,0:0:0:0:
256,352,168190,5,4,0:0:0:0:
184,312,168440,1,0,0:0:0:0:
168,232,168690,2,0,B|120:240|112:280,1,80,8|0,0:0|0:0,0:0:0:0:
184,312,169190,1,0,0:0:0:0:
256,352,169440,1,0,0:0:0:0:
328,312,169690,1,8,0:0:0:0:
400,280,169940,2,0,B|392:240|344:232,1,80,0|0,0:0|0:0,0:0:0:0:
256,264,170440,5,0,0:0:0:0:
256,264,170690,2,0,B|256:176,1,80,8|0,0:0|0:0,0:0:0:0:
192,136,171190,2,0,B|216:80|296:80|320:136,1,160,0|8,0:0|0:0,0:0:0:0:
376,192,171940,2,0,B|416:192,2,40,8|0|0,0:0|0:0|0:0,0:0:0:0:
300,216,172440,2,0,P|256:284,1,80,0|8,0:0|0:0,0:0:0:0:
320,328,172940,1,8,0:0:0:0:
320,328,173190,2,0,B|296:384|216:384|192:328,1,160,0|8,0:0|0:0,0:0:0:0:
256,280,173940,2,0,B|288:256,2,40,8|0|0,0:0|0:0|0:0,0:0:0:0:
184,248,174440,6,0,P|116:200,1,80,0|8,0:0|0:0,0:0:0:0:
56,156,174940,1,8,0:0:0:0:
128,120,175190,2,0,B|192:112|240:80,1,120,2|0,0:0|0:0,0:0:0:0:
280,80,175690,2,0,B|328:112|392:120,1,120,10|0,0:0|0:0,0:0:0:0:
391,119,176190,5,12,0:0:0:0:
344,184,176440,1,0,0:0:0:0:
308,196,176565,1,0,0:0:0:0:
284,228,176690,2,0,B|256:304,1,80,8|0,0:0|0:0,0:0:0:0:
296,368,177190,2,0,B|256:388|216:368,1,80,0|0,0:0|0:0,0:0:0:0:
256,304,177690,1,8,0:0:0:0:
228,228,177940,1,8,0:0:0:0:
204,196,178065,1,0,0:0:0:0:
168,184,178190,5,0,0:0:0:0:
92,160,178440,2,0,B|104:120|152:108,1,80,0|8,0:0|0:0,0:0:0:0:
228,124,178940,1,8,0:0:0:0:
208,48,179190,2,0,B|200:16|236:24|236:24|256:68|276:24|276:24|312:16|304:48,1,160,0|8,0:0|0:0,0:0:0:0:
284,124,179940,1,8,0:0:0:0:
363,108,180190,6,0,B|408:120|420:160,1,80,0|0,0:0|0:0,0:0:0:0:
344,184,180690,1,8,0:0:0:0:
284,228,180940,1,8,0:0:0:0:
352,272,181190,2,0,B|340:304|304:312|304:312|300:332,1,80,0|0,0:0|0:0,0:0:0:0:
160,272,181690,2,0,B|172:304|208:312|208:312|212:332,1,80,8|0,0:0|0:0,0:0:0:0:
228,228,182190,5,0,0:0:0:0:
204,196,182315,1,0,0:0:0:0:
168,184,182440,1,8,0:0:0:0:
256,144,182690,1,8,0:0:0:0:
256,104,182815,1,0,0:0:0:0:
256,64,182940,1,0,0:0:0:0:
184,112,183190,6,0,B|184:80|164:60|164:60|136:64,1,80,0|0,0:0|0:0,0:0:0:0:
328,112,183690,2,0,B|328:80|348:60|348:60|376:64,1,80,8|0,0:0|0:0,0:0:0:0:
256,192,184190,12,0,191190,0:0:0:0:
