osu file format v5

[General]
AudioFilename: Carlos Santana and Rob Thomas - Smooth.mp3
AudioLeadIn: 0
PreviewTime: -1
Countdown: 1
SampleSet: Normal
StackLeniency: 0.7
Mode: 0
LetterboxInBreaks: 1
EditorBookmarks: 19341,23094,23871,46128,198834

[Metadata]
Title:Smooth
Artist:Carlos Santana ft. Rob Thomas
Creator:foulcoon
Version:Hard
Source:
Tags:

[Difficulty]
HPDrainRate:7
CircleSize:5
OverallDifficulty:6
SliderMultiplier:1.5
SliderTickRate:1

[Events]
//Background and Video events
//Break Periods
2,24200,25150
//Storyboard Layer 0 (Background)
//Storyboard Layer 1 (Failing)
//Storyboard Layer 2 (Passing)
//Storyboard Layer 3 (Foreground)
//Storyboard Sound Samples
//Background Colour Transformations
3,100,163,162,255

[TimingPoints]
2120,517.741267430623,4,1,0,100,1

[HitObjects]
63,127,9627,1,0
107,213,9886,1,0
152,127,10144,1,0
194,214,10403,1,0
240,299,10662,1,0
300,223,10921,1,0
116,69,11439,5,0
211,51,11698,1,0
302,81,11957,1,0
369,150,12215,1,0
223,277,12733,5,0
174,193,12992,1,0
270,202,13251,1,0
225,116,13510,1,0
319,136,13769,1,0
409,100,14028,1,0
409,196,14286,1,0
314,174,14545,1,0
220,148,14804,1,0
78,279,15322,1,0
174,282,15581,5,0
111,208,15840,1,0
174,281,16099,1,0
242,212,16357,1,0
357,123,16746,5,0
357,123,16875,1,0
313,209,17134,1,0
254,131,17393,1,0
163,95,17652,1,0
140,189,17911,1,0
203,261,18169,1,0
272,192,18428,1,0
330,269,18687,2,0,B|377:301|444:262|468:178,1,187.5
368,75,19723,5,0
244,152,20111,1,0
128,239,20499,1,0
321,242,21017,1,0
463,46,21664,5,0
414,46,21794,2,0,B|391:21|344:69,1,75
204,66,22441,6,0,B|165:103|157:199|185:278,1,187.5
261,289,23347,2,0,B|301:323|379:325|431:264,1,187.5
160,128,26194,5,0
352,128,26453,1,0
352,256,26712,1,0
160,256,26971,1,0
256,192,27230,1,0
79,104,28007,5,0
171,75,28265,1,0
341,167,28783,1,0
239,332,29301,5,0
243,235,29560,1,0
150,206,29819,1,0
208,129,30078,1,0
294,171,30336,1,0
309,75,30595,1,0
212,67,30854,1,0
126,113,31113,1,0
171,198,31372,1,0
234,271,31631,6,0,B|187:244|248:193,1,75
136,185,32148,1,0
163,91,32407,1,0
87,269,32925,1,0
90,75,33443,5,0
158,143,33702,1,0
234,82,33961,1,0
328,103,34219,2,0,B|345:146|308:188,1,75
310,271,34737,1,0
215,293,34996,1,0
386,203,35514,2,0,B|330:227|291:192|263:128|180:170|162:195,1,225
77,175,36549,1,0
269,76,37973,6,0,B|288:127|360:121,1,75
229,140,38491,1,0
307,261,38879,1,0
375,133,39267,1,0
172,265,39915,2,0,B|116:108|391:310|128:18|339:29,1,300
396,39,41209,1,0
96,320,42503,5,0
256,320,42762,1,0
256,192,43021,1,0
416,192,43280,1,0
247,39,44057,6,0,B|223:95|168:106,1,75
131,128,44574,2,0,B|103:156|136:205,1,75
172,259,45092,2,0,B|204:323|256:324,1,75
287,281,45610,2,0,B|325:256|260:209|270:128,1,150
269,140,46386,1,0
119,125,46904,1,0
160,192,47163,1,0
228,222,47422,1,0
