osu file format v9

[General]
AudioFilename: Carlos Santana - Into The Night [Ft. Chad Kroeg.mp3
AudioLeadIn: 0
PreviewTime: -1
Countdown: 1
SampleSet: Normal
StackLeniency: 0.7
Mode: 0
LetterboxInBreaks: 1

[Editor]
Bookmarks: 15151,60151,144995,200073
DistanceSpacing: 1
BeatDivisor: 2
GridSize: 32

[Metadata]
Title:Into The Night
Artist:Carlos Santana Ft. Chad Kroeg
Creator:osuplayer111
Version:Hard
Source:
Tags:

[Difficulty]
HPDrainRate:8
CircleSize:5
OverallDifficulty:6
ApproachRate:6
SliderMultiplier:1.5
SliderTickRate:2

[Events]
//Background and Video events
0,0,"3401074-637341043.jpg"
//Break Periods
2,52148,58951
2,129257,143945
//Storyboard Layer 0 (Background)
//Storyboard Layer 1 (Fail)
//Storyboard Layer 2 (Pass)
//Storyboard Layer 3 (Foreground)
//Storyboard Sound Samples
//Background Colour Transformations
3,100,163,162,255

[TimingPoints]
620,468.75,4,1,0,100,1,0

[Colours]
Combo1 : 0,255,64
Combo2 : 255,0,0
Combo3 : 0,128,255
Combo4 : 255,255,0

[HitObjects]
112,96,15151,1,0
112,152,15385,1,0
112,272,15854,2,2,L|264:272,1,150
424,64,16791,1,0
424,64,16909,1,0
424,64,17026,1,0
424,64,17143,1,0
424,64,17260,1,0
424,184,17729,1,0
368,184,17963,1,0
312,184,18198,1,0
104,152,18901,6,2,L|104:232,1,75
144,328,19604,2,2,L|200:336|200:368,1,75
256,352,20073,1,0
376,352,20541,1,0
432,352,20776,1,0
432,296,21010,1,0
376,184,21479,1,0
376,240,21713,2,2,L|376:288|424:288,1,75
224,328,22651,5,0
200,272,22885,1,0
176,152,23354,2,2,L|256:184|272:256|296:248,1,150
384,264,24291,2,0,L|416:312|448:304,1,75
488,312,24760,1,0
480,200,25229,1,0
424,200,25463,1,0
368,200,25698,1,0
456,40,26401,5,0
368,48,26752,2,2,L|312:88|312:168,1,112.5
312,192,27338,1,0
312,248,27573,1,0
192,240,28041,1,0
248,240,28276,1,0
304,240,28510,1,2
296,120,28979,2,2,L|280:168|200:168|200:216,1,150
64,64,30151,5,0
64,120,30385,1,0
64,240,30854,1,0
120,256,31088,2,0,L|216:288,1,75
312,280,31791,2,0,L|368:336|288:368|280:384,1,150
184,352,32729,1,0
184,296,32963,1,0
184,240,33198,1,0
88,80,33901,6,2,L|88:160,1,75,0|0
88,272,34604,1,0
144,272,34838,1,0
200,272,35073,1,0
232,152,35541,1,0
288,152,35776,1,0
232,152,36010,1,0
328,224,36479,2,2,L|304:304|240:224,1,150
200,296,37416,5,0
256,296,37651,1,0
312,296,37885,1,2
256,240,38120,5,2
256,64,38588,1,2
256,120,38823,1,2
136,184,39291,1,2
368,184,39760,1,2
256,88,40229,1,2
256,288,40698,1,2
144,144,41401,6,2,L|104:208,1,75
256,288,42104,1,0
256,80,42573,1,0
136,184,43041,1,0
136,184,43276,1,0
136,184,43510,1,0
80,288,43979,2,2,L|16:240|80:176,1,150,0|0
184,216,44916,5,0
184,152,45151,1,0
184,152,45268,1,0
184,88,45502,1,0
184,88,45620,1,0
336,96,46088,2,2,L|344:144|296:152,1,75
376,288,46791,1,2
96,288,47260,1,2
96,72,47729,1,2
376,72,48198,1,2
448,232,48901,5,0
400,272,49135,2,2,L|248:288|192:360|112:320,1,300
96,224,50541,1,0
96,104,51010,1,0
248,192,51713,2,0,L|248:256|272:248,1,75
416,64,60151,6,0,L|416:168,1,75
416,256,60854,1,8
416,312,61088,1,8
416,368,61323,1,8
336,272,61791,2,0,L|336:360|256:312,1,150
184,264,62729,1,8
128,248,62963,2,8,L|40:232,1,75
168,152,63901,5,0
168,152,64018,1,0
168,152,64135,1,0
168,240,64604,1,0
224,240,64838,1,0
280,240,65073,1,0
376,176,65541,2,2,L|384:240|400:288|368:328,1,150
256,288,66479,2,2,L|144:320|168:376,1,150
136,200,67651,5,0
136,200,67768,1,0
136,200,67885,1,0
136,80,68354,1,0
192,80,68588,1,0
248,80,68823,1,0
248,200,69291,2,0,L|248:296|312:304,1,150
424,312,70229,2,2,L|288:336|280:296,1,150
184,176,71401,5,0
184,232,71635,1,0
304,232,72104,2,0,L|304:312|200:296,1,150
136,232,73041,2,8,L|136:320|208:280,1,150
304,296,73979,1,0
304,296,74096,1,0
304,296,74213,1,0
304,296,74330,1,0
304,296,74448,1,0
392,136,75151,5,0
392,192,75385,1,0
272,200,75854,2,8,L|272:280|328:200,1,150
432,224,76791,1,8
432,280,77026,1,8
432,336,77260,1,8
64,216,77729,2,8,L|48:336|48:336|104:344,1,150
416,200,78901,5,0
416,200,79018,1,0
416,200,79135,1,0
296,200,79604,2,0,L|344:272|376:208,1,150
384,96,80541,1,0
320,96,80776,1,0
256,96,81010,1,0
256,216,81479,2,2,L|336:272|296:336,1,150
200,256,82416,5,2
160,296,82651,1,2
160,296,82768,1,2
120,248,83002,1,2
120,248,83120,1,2
256,200,83588,1,2
256,136,83823,1,2
256,40,84291,1,2
56,192,84760,1,2
256,344,85229,1,2
464,192,85698,1,2
72,144,86401,6,2,L|72:224,1,75
72,336,87104,1,0
440,336,87573,1,0
440,208,88041,1,0
440,152,88276,1,0
440,96,88510,1,2
320,96,88979,1,2
200,96,89448,1,2
120,216,89916,5,0
176,216,90151,1,0
176,216,90268,1,0
176,272,90502,1,0
176,272,90620,1,0
272,200,91088,1,0
328,200,91323,1,0
336,80,91791,1,0
216,80,92260,1,0
216,200,92729,1,0
336,200,93198,1,0
288,56,93901,6,2,L|272:120|176:120|176:216,1,225
184,304,95073,1,0
168,192,95541,2,2,L|240:168|296:248,1,150
256,224,96713,1,2
312,224,96948,1,2
192,224,97416,2,8,L|136:280|216:320,1,150
256,256,98354,5,4
256,256,98471,1,4
256,256,98588,1,4
256,256,98705,1,4
256,256,98822,1,4
256,256,98940,1,4
256,256,99057,1,4
256,64,99760,5,0
256,152,100229,1,4
256,152,100346,1,4
256,152,100463,1,4
256,152,100580,1,4
256,152,100698,1,4
256,152,100815,1,4
256,152,100932,1,4
216,40,101401,5,0
272,40,101635,2,2,L|280:136|144:120|0:288,1,450
120,312,103510,1,0
272,224,104213,2,2,L|264:312,1,75
256,192,104916,12,0,106557
136,288,106791,5,0
136,288,107026,1,0
136,288,107260,1,0
256,192,107612,12,0,108666
56,40,108901,5,2
56,96,109135,1,2
256,320,110073,1,0
256,192,110541,1,0
256,40,111010,1,0
88,112,111713,2,2,L|72:240|192:304|256:208,1,375
256,192,113354,12,2,114995
464,112,115463,6,2,L|464:192|392:192,1,150
56,192,116401,1,0
256,312,116870,1,0
256,192,117338,1,0
256,192,117455,1,0
256,104,117807,1,0
256,104,117924,1,0
256,256,118510,1,0
136,264,118979,5,2
136,200,119213,1,2
136,200,119330,1,2
136,112,119682,1,2
192,112,119916,2,2,L|192:216,1,75
192,248,120385,1,2
248,248,120620,1,2
304,248,120854,2,2,L|304:336,1,75
424,320,121557,1,0
424,264,121791,1,0
424,264,121909,1,0
256,48,122495,5,2
256,192,122846,1,2
256,192,122963,1,2
256,248,123198,1,2
80,280,123901,2,2,L|120:328|136:304,1,75
248,320,124604,1,2
304,320,124838,1,2
360,320,125073,1,2
360,320,125190,1,2
448,56,125776,6,2,L|448:144|360:144,1,150
40,56,126713,2,2,L|40:144|112:144,1,150
224,144,127651,1,2
224,200,127885,1,2
224,320,128354,1,2
168,320,128588,1,2
224,320,128823,1,2
168,320,129057,1,2
104,144,144995,5,8
104,144,145346,1,8
104,144,145698,1,8
224,144,146166,2,8,L|224:200,1,37.5
104,144,146870,1,8
104,144,147221,1,8
104,144,147573,1,8
256,232,148276,5,8
256,288,148510,1,8
136,224,148979,2,8,L|128:296|168:296,1,75
192,296,149448,1,8
312,296,149916,1,0
312,296,150034,1,0
312,296,150151,1,0
312,296,150268,1,0
312,296,150385,1,0
216,224,150854,2,0,L|216:304|280:360,1,150
224,328,152026,6,8,L|304:328,1,75
328,40,152729,2,8,L|168:40,1,150
336,184,153666,1,8
336,184,153784,1,8
336,184,153901,1,8
272,184,154135,1,8
272,304,154604,1,8
216,304,154838,1,8
160,304,155073,1,8
104,128,155776,5,0
104,184,156010,1,0
224,192,156479,2,4,L|216:272|160:216,1,150
280,192,157416,1,0
320,232,157651,2,4,L|304:280|280:256,1,75
168,264,158354,1,0
168,200,158588,1,0
168,200,158705,1,0
168,200,158823,1,0
344,200,159526,6,4,L|336:272|280:256,1,112.5
208,248,160229,2,4,L|192:312|168:304,1,75
120,304,160698,1,0
96,184,161166,1,0
152,184,161401,2,4,L|144:240|184:240,1,75
280,248,162104,1,0
280,248,162221,1,0
280,248,162338,1,0
280,248,162455,1,0
280,248,162573,1,0
312,72,163276,6,0,L|312:152,1,75
256,336,164448,5,0
256,40,164916,1,0
256,192,165385,1,0
448,112,165854,1,0
448,176,166088,1,0
448,240,166323,1,0
224,32,167026,2,8,L|304:32,1,75
304,344,167729,2,8,L|216:344,1,75
192,120,168666,6,0,L|192:200,1,75
192,256,169135,1,0
312,256,169604,1,0
312,256,169838,1,0
248,256,170073,1,2
296,144,170541,5,2
328,192,170776,1,2
376,232,171010,2,2,L|472:240|472:248,1,75
392,344,171713,1,2
328,344,171948,1,2
288,232,172416,2,2,L|248:344|272:376,1,150
344,280,173354,2,2,L|424:272|416:360,1,150
424,136,174526,5,2
400,80,174760,2,2,L|464:24|472:104,1,150
472,208,175698,1,2
352,208,176166,1,2
352,208,176401,1,2
288,208,176635,1,2
168,208,177104,2,2,L|168:296|168:296|248:296,1,150
264,192,178041,5,8
264,128,178276,1,8
264,128,178393,1,8
200,128,178627,1,8
200,128,178745,1,8
304,72,179213,1,0
240,72,179448,1,0
40,96,179916,2,2,L|40:264,1,150
472,248,180854,2,2,L|472:72,1,150
224,192,182026,6,2,L|320:192,1,75
64,224,183198,2,2,L|160:304|248:240|232:160,1,300
320,16,184838,1,0
272,48,185073,2,0,L|392:192,1,150
400,216,185776,1,0
344,216,186010,1,0
288,216,186245,1,2
200,160,186713,6,2,L|288:168,1,75
256,336,187416,1,2
64,192,187885,1,2
256,152,188354,2,2,L|256:248|256:184,1,150
120,80,189526,6,2,L|96:184,1,75
72,272,190229,2,2,L|112:360,1,75
280,336,191166,1,0
280,280,191401,1,0
280,224,191635,1,0
400,208,192104,2,4,L|408:304|488:264,1,150
336,200,193041,5,0
272,200,193276,1,0
272,200,193393,1,0
272,336,193745,1,0
272,272,194213,1,0
272,272,194448,1,0
272,272,194565,1,0
256,40,194916,1,0
56,192,195385,1,0
456,192,195854,1,0
256,192,196323,1,0
392,312,197026,5,0
392,312,197260,1,0
64,312,198198,1,0
64,64,198666,1,0
440,64,199135,1,0
256,64,199838,2,4,L|328:112,1,75
