osu file format v5

[General]
AudioFilename: Capirinha.mp3
AudioLeadIn: 1996
PreviewTime: -1
Countdown: 0
SampleSet: Soft
StackLeniency: 0.4
Mode: 0
LetterboxInBreaks: 1
EditorBookmarks: 22644
EditorDistanceSpacing: 1

[Metadata]
Title:Capirinha (YouTube Cut)
Artist:Carinho
Creator:Zekira
Version:Enasni
Source:NicoVideo
Tags:capirinha lol youtube okami waka pokemon ash devil may cry nero

[Difficulty]
HPDrainRate:7
CircleSize:5
OverallDifficulty:7
SliderMultiplier:1.5
SliderTickRate:1

[Events]
//Background and Video events
0,0,"WakaCapirinha.flv_000000200.jpg"
1,0,"WakaAshNeroCapirinha.wmv"
//Break Periods
//Storyboard Layer 0 (Background)
//Storyboard Layer 1 (Failing)
//Storyboard Layer 2 (Passing)
//Storyboard Layer 3 (Foreground)
//Storyboard Sound Samples
//Background Colour Transformations
3,100,253,164,251

[TimingPoints]
194,350.877192982456,4,2,0,69,1,0
22649,350.877192982456,4,2,0,69,1,0
45107,350.877192982456,4,2,0,69,1,0

[Colours]
Combo1 : 243,89,34
Combo2 : 243,33,238
Combo3 : 75,91,233

[HitObjects]
256,192,194,1,0
256,120,369,1,0
328,120,544,1,2
328,120,720,1,2
328,120,895,1,2
328,120,1071,1,2
400,120,1246,1,2
400,120,1422,1,2
400,120,1597,1,2
400,120,1772,1,2
400,192,1948,5,0
400,264,2123,1,0
328,264,2299,1,0
288,264,2386,1,2
248,264,2474,1,0
172,263,2650,1,0
96,264,2825,1,2
96,336,3001,1,2
136,336,3088,1,2
176,336,3176,1,2
256,336,3351,5,0
304,280,3527,1,0
256,224,3702,1,2
208,168,3878,1,2
256,112,4053,1,2
312,64,4229,1,2
384,64,4404,5,2
424,64,4492,1,2
464,64,4579,1,2
464,136,4755,1,2
424,136,4843,1,2
384,136,4930,1,2
384,208,5106,5,0
344,208,5194,1,0
304,200,5281,1,0
272,176,5369,1,0
240,152,5457,1,2
176,104,5632,1,4
104,120,5808,5,0
104,120,5983,1,0
104,192,6158,1,2
104,192,6334,1,2
104,192,6509,1,2
104,192,6685,1,2
104,264,6860,1,2
104,264,7036,1,2
104,264,7211,1,2
104,264,7386,1,0
104,336,7562,5,0
176,336,7737,1,0
232,280,7913,1,0
256,248,8001,1,2
280,216,8088,1,2
336,160,8264,1,0
384,104,8439,1,2
432,48,8615,1,2
432,88,8702,1,2
432,128,8790,1,0
432,200,8965,5,0
432,272,9141,1,0
432,344,9316,1,2
352,344,9492,1,2
277,342,9667,1,2
201,343,9843,1,2
200,264,10018,1,2
160,264,10106,1,2
120,264,10194,1,2
120,192,10369,1,2
160,192,10457,1,2
200,192,10544,1,2
256,120,10720,5,2
256,120,10808,1,2
256,120,10895,1,2
256,120,10983,1,2
256,120,11071,1,2
256,192,11246,5,0
256,192,11334,1,2
256,192,11422,1,2
328,192,11597,1,0
328,192,11685,1,2
328,192,11772,1,2
400,192,11948,1,0
400,192,12036,1,0
400,192,12123,1,2
400,192,12211,1,2
400,192,12299,1,2
472,192,12474,1,10
472,112,12650,5,0
472,112,12737,1,2
472,112,12825,1,2
400,112,13001,1,0
400,112,13088,1,2
400,112,13176,1,2
328,112,13351,1,0
328,112,13439,1,0
328,112,13527,1,2
328,112,13615,1,2
328,112,13702,1,2
256,112,13878,1,10
384,192,14229,5,0
384,192,14404,1,0
128,192,14579,5,10
128,192,14755,1,10
256,320,14930,5,0
256,320,15106,1,0
256,64,15281,5,10
256,64,15457,1,10
256,192,15632,5,2
256,192,15808,1,2
256,192,15983,1,2
256,192,16158,1,2
256,192,16334,1,2
256,192,16509,1,2
256,192,16685,1,2
256,264,16860,5,0
256,304,16948,1,2
256,344,17036,1,2
328,344,17211,1,0
368,344,17299,1,2
408,344,17386,1,2
408,272,17562,1,0
408,232,17650,1,2
408,192,17737,1,2
408,152,17825,1,2
408,120,17913,1,2
480,120,18088,1,10
408,40,18264,5,0
368,40,18351,1,2
328,40,18439,1,2
256,40,18615,1,0
256,80,18702,1,2
256,120,18790,1,2
256,192,18965,1,0
216,192,19053,1,2
176,192,19141,1,2
136,192,19229,1,2
104,192,19316,1,2
104,264,19492,1,10
256,64,19843,5,0
256,64,20018,1,0
256,320,20194,5,10
256,320,20369,1,10
128,192,20544,5,0
128,192,20720,1,0
384,192,20895,5,10
384,192,21071,1,10
256,192,21246,12,6,22299
256,192,22649,5,0
256,264,22824,1,0
184,264,22999,1,2
184,264,23175,1,2
184,264,23350,1,2
184,264,23526,1,2
112,264,23701,1,2
112,264,23877,1,2
112,264,24052,1,2
112,264,24227,1,2
112,192,24403,5,0
112,120,24578,1,0
184,120,24754,1,0
224,120,24841,1,2
264,120,24929,1,0
340,121,25105,1,0
416,120,25280,1,2
416,48,25456,1,2
376,48,25543,1,2
336,48,25631,1,2
256,48,25806,5,0
208,104,25982,1,0
256,160,26157,1,2
304,216,26333,1,2
256,272,26508,1,2
200,320,26684,1,2
128,320,26859,5,2
88,320,26947,1,2
48,320,27034,1,2
48,248,27210,1,2
88,248,27298,1,2
128,248,27385,1,2
128,176,27561,5,0
168,176,27649,1,0
208,184,27736,1,0
240,208,27824,1,0
272,232,27912,1,2
336,280,28087,1,4
408,264,28263,5,0
408,264,28438,1,0
408,192,28613,1,2
408,192,28789,1,2
408,192,28964,1,2
408,192,29140,1,2
408,120,29315,1,2
408,120,29491,1,2
408,120,29666,1,2
408,120,29841,1,0
408,48,30017,5,0
336,48,30192,1,0
280,104,30368,1,0
256,136,30456,1,2
232,168,30543,1,2
176,224,30719,1,0
128,280,30894,1,2
80,336,31070,1,2
80,296,31157,1,2
80,256,31245,1,0
80,184,31420,5,0
80,112,31596,1,0
80,40,31771,1,2
160,40,31947,1,2
235,42,32122,1,2
311,41,32298,1,2
312,120,32473,1,2
352,120,32561,1,2
392,120,32649,1,2
392,192,32824,1,2
352,192,32912,1,2
312,192,32999,1,2
256,264,33175,5,2
256,264,33263,1,2
256,264,33350,1,2
256,264,33438,1,2
256,264,33526,1,2
256,192,33701,5,0
256,192,33789,1,2
256,192,33877,1,2
184,192,34052,1,0
184,192,34140,1,2
184,192,34227,1,2
112,192,34403,1,0
112,192,34491,1,0
112,192,34578,1,2
112,192,34666,1,2
112,192,34754,1,2
40,192,34929,1,10
40,272,35105,5,0
40,272,35192,1,2
40,272,35280,1,2
112,272,35456,1,0
112,272,35543,1,2
112,272,35631,1,2
184,272,35806,1,0
184,272,35894,1,0
184,272,35982,1,2
184,272,36070,1,2
184,272,36157,1,2
256,272,36333,1,10
128,192,36684,5,0
128,192,36859,1,0
384,192,37034,5,10
384,192,37210,1,10
256,64,37385,5,0
256,64,37561,1,0
256,320,37736,5,10
256,320,37912,1,10
256,192,38087,5,2
256,192,38263,1,2
256,192,38438,1,2
256,192,38613,1,2
256,192,38789,1,2
256,192,38964,1,2
256,192,39140,1,2
256,120,39315,5,0
256,80,39403,1,2
256,40,39491,1,2
184,40,39666,1,0
144,40,39754,1,2
104,40,39841,1,2
104,112,40017,1,0
104,152,40105,1,2
104,192,40192,1,2
104,232,40280,1,2
104,264,40368,1,2
32,264,40543,1,10
104,344,40719,5,0
144,344,40806,1,2
184,344,40894,1,2
256,344,41070,1,0
256,304,41157,1,2
256,264,41245,1,2
256,192,41420,1,0
296,192,41508,1,2
336,192,41596,1,2
376,192,41684,1,2
408,192,41771,1,2
408,120,41947,1,10
256,320,42298,5,0
256,320,42473,1,0
256,64,42649,5,10
256,64,42824,1,10
384,192,42999,5,0
384,192,43175,1,0
128,192,43350,5,10
128,192,43526,1,10
256,192,43701,12,6,44754
256,192,45107,5,0
256,120,45282,1,0
184,120,45457,1,2
184,120,45633,1,2
184,120,45808,1,2
184,120,45984,1,2
112,120,46159,1,2
112,120,46335,1,2
112,120,46510,1,2
112,120,46685,1,2
112,192,46861,5,0
112,264,47036,1,0
184,264,47212,1,0
224,264,47299,1,2
264,264,47387,1,0
340,263,47563,1,0
416,264,47738,1,2
416,336,47914,1,2
376,336,48001,1,2
336,336,48089,1,2
256,336,48264,5,0
208,280,48440,1,0
256,224,48615,1,2
304,168,48791,1,2
256,112,48966,1,2
200,64,49142,1,2
128,64,49317,5,2
88,64,49405,1,2
48,64,49492,1,2
48,136,49668,1,2
88,136,49756,1,2
128,136,49843,1,2
128,208,50019,5,0
168,208,50107,1,0
208,200,50194,1,0
240,176,50282,1,0
272,152,50370,1,2
336,104,50545,1,4
408,120,50721,5,0
408,120,50896,1,0
408,192,51071,1,2
408,192,51247,1,2
408,192,51422,1,2
408,192,51598,1,2
408,264,51773,1,2
408,264,51949,1,2
408,264,52124,1,2
408,264,52299,1,0
408,336,52475,5,0
336,336,52650,1,0
280,280,52826,1,0
256,248,52914,1,2
232,216,53001,1,2
176,160,53177,1,0
128,104,53352,1,2
80,48,53528,1,2
80,88,53615,1,2
80,128,53703,1,0
80,200,53878,5,0
80,272,54054,1,0
80,344,54229,1,2
160,344,54405,1,2
235,342,54580,1,2
311,343,54756,1,2
312,264,54931,1,2
352,264,55019,1,2
392,264,55107,1,2
392,192,55282,1,2
352,192,55370,1,2
312,192,55457,1,2
256,120,55633,5,2
256,120,55721,1,2
256,120,55808,1,2
256,120,55896,1,2
256,120,55984,1,2
256,192,56159,5,0
256,192,56247,1,2
256,192,56335,1,2
184,192,56510,1,0
184,192,56598,1,2
184,192,56685,1,2
112,192,56861,1,0
112,192,56949,1,0
112,192,57036,1,2
112,192,57124,1,2
112,192,57212,1,2
40,192,57387,1,10
40,112,57563,5,0
40,112,57650,1,2
40,112,57738,1,2
112,112,57914,1,0
112,112,58001,1,2
112,112,58089,1,2
184,112,58264,1,0
184,112,58352,1,0
184,112,58440,1,2
184,112,58528,1,2
184,112,58615,1,2
256,112,58791,1,10
128,192,59142,5,0
128,192,59317,1,0
384,192,59492,5,10
384,192,59668,1,10
256,320,59843,5,0
256,320,60019,1,0
256,64,60194,5,10
256,64,60370,1,10
256,192,60545,5,2
256,192,60721,1,2
256,192,60896,1,2
256,192,61071,1,2
256,192,61247,1,2
256,192,61422,1,2
256,192,61598,1,2
256,264,61773,5,0
256,304,61861,1,2
256,344,61949,1,2
184,344,62124,1,0
144,344,62212,1,2
104,344,62299,1,2
104,272,62475,1,0
104,232,62563,1,2
104,192,62650,1,2
104,152,62738,1,2
104,120,62826,1,2
32,120,63001,1,10
104,40,63177,5,0
144,40,63264,1,2
184,40,63352,1,2
256,40,63528,1,0
256,80,63615,1,2
256,120,63703,1,2
256,192,63878,1,0
296,192,63966,1,2
336,192,64054,1,2
376,192,64142,1,2
408,192,64229,1,2
408,264,64405,1,10
256,64,64756,5,0
256,64,64931,1,0
256,320,65107,5,10
256,320,65282,1,10
384,192,65457,5,0
384,192,65633,1,0
128,192,65808,5,10
128,192,65984,1,10
256,192,66159,12,6,67212
