osu file format v12

[General]
AudioFilename: Caravan Palace - Rock It For Me [NEW ALBUM AVAILABLE].mp3
AudioLeadIn: 0
PreviewTime: 63494
Countdown: 0
SampleSet: Normal
StackLeniency: 0.7
Mode: 0
LetterboxInBreaks: 0

[Editor]
Bookmarks: 60947,101404,167645
DistanceSpacing: 1.2
BeatDivisor: 6
GridSize: 4

[Metadata]
Title:Rock It For Me
TitleUnicode:Rock It For Me
Artist:Caravan Palace
ArtistUnicode:Caravan Palace
Creator:tiper
Version:Normal
Source:
Tags:senaya electroswing swing panic
BeatmapID:227992
BeatmapSetID:69041

[Difficulty]
HPDrainRate:4
CircleSize:3
OverallDifficulty:4
ApproachRate:5
SliderMultiplier:1.5
SliderTickRate:2

[Events]
//Background and Video events
Video,0,"123~1.avi"
0,0,"BG.jpg",0,0
//Break Periods
2,45506,46182
2,113365,121042
//Storyboard Layer 0 (Background)
//Storyboard Layer 1 (Fail)
//Storyboard Layer 2 (Pass)
//Storyboard Layer 3 (Foreground)
//Storyboard Sound Samples
//Background Colour Transformations
3,100,163,162,255

[TimingPoints]
9168,566.144555576524,4,1,1,35,1,0
63322,-100,4,1,1,35,0,0
63507,566.144555576524,4,1,1,35,1,0
72555,566.144555576524,4,2,1,35,1,0
80316,-100,4,1,1,35,0,0
81628,566.144555576524,4,1,1,35,1,0
104282,566.144555576524,4,1,1,35,1,0
113365,566.144555576524,4,1,1,35,1,0
122396,566.144555576524,4,1,1,35,1,0
140492,-100,4,2,1,35,0,0
149455,-100,4,1,1,35,0,0

[Colours]
Combo1 : 107,140,254
Combo2 : 255,51,40
Combo3 : 83,83,83

[HitObjects]
72,152,9168,2,0,L|116:212,1,75,0|8,0:0|0:0,0:0:0:0:
180,148,9734,2,0,L|252:172,1,75,0|8,0:0|0:0,0:0:0:0:
268,84,10300,2,0,L|344:68,2,75,0|8|0,0:0|0:0|0:0,0:0:0:0:
88,60,11432,5,0,0:0:0:0:
36,136,11715,1,8,0:0:0:0:
84,212,11998,2,0,P|116:236|132:275,1,75,0|8,0:0|0:0,0:0:0:0:
216,296,12564,2,0,L|292:312|292:312,2,75,0|8|0,0:0|0:0|0:0,0:0:0:0:
256,216,13414,2,0,L|180:200|180:200,1,75,8|0,0:0|0:0,0:0:0:0:
140,120,13980,5,8,0:0:0:0:
216,76,14263,2,0,B|213:75|289:91,2,75,0|8|0,0:0|0:0|0:0,0:0:0:0:
136,36,15112,1,8,0:0:0:0:
56,80,15395,1,0,0:0:0:0:
144,236,15961,5,0,0:0:0:0:
308,160,16527,1,0,0:0:0:0:
288,340,17094,1,0,0:0:0:0:
460,288,17660,1,0,0:0:0:0:
348,148,18226,6,0,L|378:216,2,75,0|8|0,0:0|0:0|0:0,0:0:0:0:
276,204,19075,2,0,L|212:164,1,75,8|0,0:0|0:0,0:0:0:0:
144,224,19641,2,0,L|208:264,1,75,8|0,0:0|0:0,0:0:0:0:
260,336,20207,1,8,0:0:0:0:
348,316,20490,5,0,0:0:0:0:
436,292,20773,1,8,0:0:0:0:
456,204,21057,2,0,P|468:164|460:128,1,75,0|8,0:0|0:0,0:0:0:0:
384,88,21623,2,0,P|372:128|380:164,1,75,0|8,0:0|0:0,0:0:0:0:
320,228,22189,2,0,L|252:272,1,75,0|8,0:0|0:0,0:0:0:0:
168,248,22755,5,0,0:0:0:0:
84,212,23038,2,0,L|16:256,2,75,8|0|8,0:0|0:0|0:0,0:0:0:0:
108,124,23887,2,0,L|176:80,1,75,0|8,0:0|0:0,0:0:0:0:
204,168,24453,2,0,L|280:168,1,75,0|8,0:0|0:0,0:0:0:0:
344,232,25020,5,0,0:0:0:0:
268,276,25303,2,0,P|228:296|212:324,1,75,8|0,0:0|0:0,0:0:0:0:
124,316,25869,2,0,L|52:304,1,50,0|4,0:0|0:0,0:0:0:0:
384,64,27284,5,0,0:0:0:0:
296,80,27567,1,8,0:0:0:0:
224,132,27850,2,0,L|172:188,1,75,0|8,0:0|0:0,0:0:0:0:
244,244,28416,2,0,L|192:300,2,75,0|8|0,0:0|0:0|0:0,0:0:0:0:
404,168,29549,5,0,0:0:0:0:
416,256,29832,1,8,0:0:0:0:
344,308,30115,1,0,0:0:0:0:
168,264,30681,1,0,0:0:0:0:
196,88,31247,1,0,1:0:0:0:
376,60,31813,5,0,0:0:0:0:
256,192,32379,1,0,0:0:0:0:
132,60,32946,1,0,0:0:0:0:
68,228,33512,1,0,0:0:0:0:
140,284,33795,1,8,0:0:0:0:
216,336,34078,5,0,0:0:0:0:
380,260,34644,1,0,0:0:0:0:
212,192,35210,1,0,0:0:0:0:
360,92,35776,1,0,0:0:0:0:
184,64,36342,5,0,0:0:0:0:
96,88,36626,2,0,P|72:120|72:160,1,75,8|0,0:0|0:0,0:0:0:0:
32,236,37192,2,0,P|64:260|104:260,1,75,8|0,0:0|0:0,0:0:0:0:
164,204,37758,1,8,0:0:0:0:
164,204,38041,2,0,L|216:268,2,75,0|8|0,0:0|0:0|0:0,0:0:0:0:
200,124,38890,5,8,0:0:0:0:
244,44,39173,1,0,0:0:0:0:
384,156,39739,1,0,0:0:0:0:
340,332,40305,1,0,1:0:0:0:
180,244,40872,5,0,0:0:0:0:
104,80,41438,1,0,0:0:0:0:
276,128,42004,1,0,0:0:0:0:
356,288,42570,1,0,0:0:0:0:
400,212,42853,1,8,0:0:0:0:
448,136,43136,5,0,0:0:0:0:
268,152,43702,1,0,0:0:0:0:
96,204,44268,1,0,0:0:0:0:
180,328,44740,2,0,P|248:308|276:240,1,150,0|6,0:0|0:0,0:0:0:0:
236,320,47382,5,8,0:0:0:0:
164,268,47665,1,0,0:0:0:0:
120,188,47948,2,0,P|108:152|112:116,1,75,8|0,0:0|0:0,0:0:0:0:
196,88,48515,2,0,P|208:124|204:160,1,75,8|0,0:0|0:0,0:0:0:0:
260,228,49081,2,0,L|316:280,2,75,8|0|8,0:0|0:0|0:0,0:0:0:0:
276,140,49930,5,0,0:0:0:0:
344,80,50213,1,8,0:0:0:0:
432,64,50496,1,0,0:0:0:0:
256,192,50779,12,0,52194,0:0:0:0:
136,308,52761,5,2,0:0:0:0:
204,248,53044,2,0,P|240:260|264:292,1,75,10|2,0:0|0:0,0:0:0:0:
352,296,53610,1,10,0:0:0:0:
432,252,53893,1,2,0:0:0:0:
444,164,54176,1,10,0:0:0:0:
444,164,54459,6,0,P|408:156|376:136,1,75,0|8,0:0|0:0,0:0:0:0:
316,68,55025,1,0,0:0:0:0:
228,92,55308,2,0,P|220:128|200:160,1,75,8|0,0:0|0:0,0:0:0:0:
112,168,55874,2,0,L|44:200,1,75,8|0,0:0|0:0,0:0:0:0:
60,288,56441,1,8,0:0:0:0:
60,288,56724,6,0,L|128:256,1,75,0|8,0:0|0:0,0:0:0:0:
188,324,57290,1,0,0:0:0:0:
276,312,57573,2,0,P|306:281|307:244,1,75,8|0,0:0|0:0,0:0:0:0:
232,204,58139,2,0,L|280:144,2,75,8|0|8,0:0|0:0|0:0,0:0:0:0:
148,176,58988,5,0,0:0:0:0:
64,148,59271,2,0,L|17:206,2,75,8|0|8,0:0|0:0|0:0,0:0:0:0:
128,88,60121,1,0,0:0:0:0:
216,72,60404,2,0,P|244:92|284:96,1,75,8|0,0:0|0:0,0:0:0:0:
352,40,60970,1,8,0:0:0:0:
352,40,61253,6,0,L|400:108,1,75,0|8,0:0|0:0,0:0:0:0:
344,176,61819,2,0,L|408:284,1,125,0|0,0:0|0:0,0:0:0:0:
80,320,63507,5,0,0:0:0:0:
120,240,63790,1,8,0:0:0:0:
160,160,64073,1,0,0:0:0:0:
160,160,64356,2,0,L|232:136,1,75,8|0,0:0|0:0,0:0:0:0:
320,148,64922,2,0,P|316:192|336:224,1,75,8|0,0:0|0:0,0:0:0:0:
308,304,65488,2,0,L|236:328,1,75,8|0,0:0|0:0,0:0:0:0:
200,244,66054,6,0,L|132:212,1,75,8|0,0:0|0:0,0:0:0:0:
120,124,66620,1,8,0:0:0:0:
152,40,66903,1,0,0:0:0:0:
152,40,67186,2,0,P|184:60|220:64,2,75,8|0|8,0:0|0:0|0:0,0:0:0:0:
120,124,68036,5,0,0:0:0:0:
260,240,68602,1,0,0:0:0:0:
400,128,69168,1,0,0:0:0:0:
260,240,69734,1,0,0:0:0:0:
92,308,70300,5,0,0:0:0:0:
128,224,70583,1,8,0:0:0:0:
180,296,70866,1,0,0:0:0:0:
180,296,71149,2,0,P|204:320|244:328,1,75,8|0,0:0|0:0,0:0:0:0:
308,264,71716,2,0,P|284:240|244:232,1,75,8|0,0:0|0:0,0:0:0:0:
136,88,72555,5,0,0:0:0:0:
68,148,72838,2,0,L|40:220,1,75,8|0,0:0|0:0,0:0:0:0:
132,228,73404,2,0,L|137:305,1,75,8|0,0:0|0:0,0:0:0:0:
224,276,73970,2,0,L|261:343,1,75,8|0,0:0|0:0,0:0:0:0:
388,216,74819,5,0,0:0:0:0:
316,164,75102,1,8,0:0:0:0:
252,100,75385,1,0,0:0:0:0:
164,120,75668,2,0,P|144:160|120:176,1,75,8|0,0:0|0:0,0:0:0:0:
100,264,76234,2,0,L|176:248,1,75,8|0,0:0|0:0,0:0:0:0:
236,312,76801,1,8,0:0:0:0:
236,312,77084,6,0,L|168:344,2,75,0|8|0,0:0|0:0|0:0,0:0:0:0:
324,312,77933,2,0,L|396:344,2,75,8|0|8,0:0|0:0|0:0,0:0:0:0:
348,224,78782,1,0,0:0:0:0:
372,136,79065,1,8,0:0:0:0:
304,76,79348,5,0,0:0:0:0:
216,88,79631,2,0,L|144:128,1,75,8|0,0:0|0:0,0:0:0:0:
204,196,80197,2,0,L|184:248,1,50,8|6,0:0|0:0,0:0:0:0:
432,264,81628,5,0,0:0:0:0:
344,240,81911,2,0,L|268:260,1,75,8|0,0:0|0:0,0:0:0:0:
196,308,82477,1,8,0:0:0:0:
120,260,82760,1,0,0:0:0:0:
48,208,83043,1,8,0:0:0:0:
36,120,83326,2,0,P|68:104|92:72,1,75,0|8,0:0|0:0,0:0:0:0:
176,48,83892,6,0,P|192:80|224:104,1,75,0|8,0:0|0:0,0:0:0:0:
312,108,84458,2,0,L|376:64,1,75,0|8,0:0|0:0,0:0:0:0:
460,92,85024,1,0,0:0:0:0:
352,236,85591,1,0,1:0:0:0:
172,260,86157,5,0,0:0:0:0:
116,88,86723,1,0,0:0:0:0:
272,176,87289,1,0,0:0:0:0:
324,348,87855,2,0,P|360:328|404:328,2,75,0|8|0,0:0|0:0|0:0,0:0:0:0:
204,216,88987,5,0,0:0:0:0:
364,136,89554,1,0,0:0:0:0:
184,116,90120,1,0,0:0:0:0:
344,36,90686,5,0,0:0:0:0:
344,36,90969,2,0,L|392:112,1,75,8|0,0:0|0:0,0:0:0:0:
440,172,91535,1,8,0:0:0:0:
388,244,91818,2,0,L|344:316,1,75,0|8,0:0|0:0,0:0:0:0:
260,296,92384,2,0,L|276:220,1,75,0|8,0:0|0:0,0:0:0:0:
196,180,92950,6,0,L|152:244,2,75,0|8|0,0:0|0:0|0:0,0:0:0:0:
376,160,94083,1,0,0:0:0:0:
236,48,94649,1,0,1:0:0:0:
96,164,95215,6,0,P|100:208|116:236,2,75,0|8|0,0:0|0:0|0:0,0:0:0:0:
136,84,96064,1,8,0:0:0:0:
220,112,96347,2,0,P|234:138|238:182,2,75,0|8|0,0:0|0:0|0:0,0:0:0:0:
400,100,97480,5,0,0:0:0:0:
276,232,98046,1,0,0:0:0:0:
140,112,98612,1,0,0:0:0:0:
40,260,99178,1,0,0:0:0:0:
132,256,99461,2,0,L|184:284,1,50,8|2,0:0|0:0,0:0:0:0:
296,288,100027,5,8,0:0:0:0:
296,288,100310,2,0,L|328:216,1,75,0|10,0:0|0:0,0:0:0:0:
276,144,100876,1,0,0:0:0:0:
276,144,101159,1,10,0:0:0:0:
188,168,101443,2,0,L|128:216,1,75,0|10,0:0|0:0,0:0:0:0:
148,304,102009,5,0,0:0:0:0:
232,332,102292,2,0,P|276:340|312:328,1,75,10|0,0:0|0:0,0:0:0:0:
344,252,102858,2,0,P|300:244|264:256,1,75,10|0,0:0|0:0,0:0:0:0:
192,212,103424,2,0,L|136:156,2,75,10|0|10,0:0|0:0|0:0,0:0:0:0:
264,156,104282,5,0,0:0:0:0:
332,100,104565,1,10,0:0:0:0:
420,124,104848,1,0,0:0:0:0:
440,212,105131,1,10,0:0:0:0:
368,264,105414,2,0,P|344:296|336:336,1,75,0|10,0:0|0:0,0:0:0:0:
248,344,105980,2,0,P|216:320|176:312,1,75,0|10,0:0|0:0,0:0:0:0:
116,252,106546,5,0,0:0:0:0:
156,172,106829,2,0,L|180:92,1,75,10|0,0:0|0:0,0:0:0:0:
256,140,107395,2,0,L|316:82,1,75,10|0,0:0|0:0,0:0:0:0:
360,164,107961,2,0,L|441:144,2,75,10|0|10,0:0|0:0|0:0,0:0:0:0:
320,244,108811,5,0,0:0:0:0:
248,300,109094,2,0,L|176:332,1,75,10|0,0:0|0:0,0:0:0:0:
172,240,109660,2,0,L|98:211,1,75,10|0,0:0|0:0,0:0:0:0:
164,148,110226,2,0,L|132:75,2,75,10|0|10,0:0|0:0|0:0,0:0:0:0:
244,184,111075,5,0,0:0:0:0:
420,140,111641,1,0,0:0:0:0:
460,316,112208,1,0,0:0:0:0:
288,364,112774,1,4,0:0:0:0:
284,360,122396,5,2,0:0:0:0:
172,220,122962,1,2,0:0:0:0:
228,48,123528,1,2,0:0:0:0:
316,64,123811,2,0,B|352:80|352:80|380:104,1,75,10|0,0:0|0:0,0:0:0:0:
368,192,124377,1,8,0:0:0:0:
368,192,124660,6,0,B|332:176|332:176|304:152,1,75,0|8,0:0|0:0,0:0:0:0:
276,240,125226,2,0,L|216:188,1,75,0|8,0:0|0:0,0:0:0:0:
172,268,125792,2,0,L|112:216,1,75,0|8,0:0|0:0,0:0:0:0:
68,296,126359,2,0,L|8:244,1,75,0|8,0:0|0:0,0:0:0:0:
44,164,126925,5,2,0:0:0:0:
108,100,127208,1,10,0:0:0:0:
196,104,127491,1,2,0:0:0:0:
256,192,127774,12,0,129189,0:0:0:0:
256,192,129755,5,0,0:0:0:0:
408,96,130322,1,0,0:0:0:0:
384,184,130605,1,8,0:0:0:0:
360,272,130888,1,0,0:0:0:0:
184,308,131454,6,0,P|144:308|112:288,1,75,0|8,0:0|0:0,0:0:0:0:
96,204,132020,1,0,0:0:0:0:
148,132,132303,2,2,P|222:116|266:40,1,150,10|10,0:0|0:0,2:0:0:0:
352,36,133152,1,2,0:0:0:0:
344,124,133435,1,10,0:0:0:0:
316,208,133718,5,0,0:0:0:0:
140,252,134285,1,0,0:0:0:0:
304,324,134851,1,0,0:0:0:0:
376,272,135134,1,8,0:0:0:0:
380,184,135417,2,0,L|340:116,1,75,0|8,0:0|0:0,0:0:0:0:
256,144,135983,6,2,L|220:76,2,75,2|10|2,0:0|0:0|0:0,0:0:0:0:
236,232,136832,1,10,0:0:0:0:
236,232,137115,1,2,0:0:0:0:
148,248,137398,1,8,0:0:0:0:
148,248,137681,1,0,0:0:0:0:
100,172,137964,1,8,0:0:0:0:
100,172,138248,5,0,0:0:0:0:
244,60,138814,1,0,0:0:0:0:
404,144,139380,2,0,P|324:168|304:200,1,125
104,336,140512,5,0,0:0:0:0:
88,248,140795,1,8,0:0:0:0:
164,200,141078,2,0,P|204:188|232:164,1,75,0|8,0:0|0:0,0:0:0:0:
160,112,141644,2,0,P|193:87|211:54,1,75,0|8,0:0|0:0,0:0:0:0:
300,40,142211,2,0,P|324:73|357:91,1,75,0|8,0:0|0:0,0:0:0:0:
356,180,142777,6,0,P|322:204|304:237,1,75,0|8,0:0|0:0,0:0:0:0:
336,320,143343,1,0,0:0:0:0:
168,252,143909,1,0,0:0:0:0:
124,76,144475,1,0,0:0:0:0:
300,44,145041,5,0,0:0:0:0:
340,124,145324,1,8,0:0:0:0:
264,176,145607,2,0,B|224:184|224:184|192:200,1,75,0|8,0:0|0:0,0:0:0:0:
240,276,146174,2,0,B|209:291|209:291|169:299,1,75,0|8,0:0|0:0,0:0:0:0:
88,260,146740,2,0,L|36:196,2,75,0|8|0,0:0|0:0|0:0,0:0:0:0:
152,92,147872,5,0,0:0:0:0:
332,92,148438,1,0,0:0:0:0:
408,256,149004,1,0,0:0:0:0:
248,340,149570,6,0,L|283:273,1,75,0|8,0:0|0:0,0:0:0:0:
220,204,150137,2,0,L|184:272,1,75,0|8,0:0|0:0,0:0:0:0:
120,208,150703,2,0,L|117:133,1,75,0|8,0:0|0:0,0:0:0:0:
168,56,151269,2,0,P|200:64|244:64,1,75,0|8,0:0|0:0,0:0:0:0:
324,100,151835,5,0,0:0:0:0:
400,148,152118,2,0,P|424:176|432:212,1,75,8|0,0:0|0:0,0:0:0:0:
376,284,152684,1,8,0:0:0:0:
292,312,152967,1,0,0:0:0:0:
180,172,153533,1,0,1:0:0:0:
304,44,154100,5,0,0:0:0:0:
344,124,154383,2,0,L|404:176,1,75,8|0,0:0|0:0,0:0:0:0:
372,260,154949,2,0,L|296:216,1,75,8|0,0:0|0:0,0:0:0:0:
224,260,155515,1,8,0:0:0:0:
224,260,155798,2,0,L|276:328,2,75,0|8|0,0:0|0:0|0:0,0:0:0:0:
88,140,156930,5,0,0:0:0:0:
260,84,157496,1,0,0:0:0:0:
328,252,158063,2,2,P|378:308|438:283,1,150,0|2,0:0|0:0,0:0:0:0:
476,200,158912,5,8,0:0:0:0:
416,132,159195,1,0,0:0:0:0:
240,168,159761,1,0,0:0:0:0:
64,136,160327,1,0,0:0:0:0:
104,308,160893,5,0,0:0:0:0:
192,328,161176,2,0,L|264:308,2,75,8|0|8,0:0|0:0|0:0,0:0:0:0:
168,240,162026,1,0,0:0:0:0:
256,84,162592,1,0,0:0:0:0:
400,192,163158,6,0,L|452:276,2,75,0|8|0,0:0|0:0|0:0,0:0:0:0:
316,160,164007,1,8,0:0:0:0:
236,120,164290,2,0,L|196:56,1,75,0|8,0:0|0:0,0:0:0:0:
140,124,164856,2,0,L|184:192,2,75,0|8|0,0:0|0:0|0:0,0:0:0:0:
108,300,165989,5,0,0:0:0:0:
256,196,166555,1,0,0:0:0:0:
404,300,167121,1,0,0:0:0:0:
464,128,167687,5,4,0:0:0:0:
