osu file format v14

[General]
AudioFilename: Caravan Palace - Lone Digger.mp3
AudioLeadIn: 0
PreviewTime: 135130
Countdown: 0
SampleSet: None
StackLeniency: 0.7
Mode: 2
LetterboxInBreaks: 0
WidescreenStoryboard: 1

[Editor]
Bookmarks: 18032,19967,35451,50935,64483,66419,79967,81903,89645,95451,97387,112871,128354,136096,149645,151580,159322,167064,174806,180612,182548,188354,196096,198032,211580
DistanceSpacing: 1.3
BeatDivisor: 4
GridSize: 8
TimelineZoom: 1

[Metadata]
Title:Lone Digger
TitleUnicode:Lone Digger
Artist:Caravan Palace
ArtistUnicode:Caravan Palace
Creator:Absolute Zero
Version:Wild's Salad
Source:
Tags:electro swing music electronic vocal robot face
BeatmapID:992704
BeatmapSetID:-1

[Difficulty]
HPDrainRate:4
CircleSize:3
OverallDifficulty:6.5
ApproachRate:6.5
SliderMultiplier:1.7
SliderTickRate:1

[Events]
//Background and Video events
0,0,"background.jpg",0,0
//Break Periods
//Storyboard Layer 0 (Background)
//Storyboard Layer 1 (Fail)
//Storyboard Layer 2 (Pass)
//Storyboard Layer 3 (Foreground)
//Storyboard Sound Samples

[TimingPoints]
614,483.870967741935,4,2,0,10,1,0
8355,-100,4,2,0,20,0,0
12226,-100,4,2,0,25,0,0
15130,-100,4,2,0,25,0,0
16097,-100,4,2,0,25,0,0
18033,-100,4,2,0,25,0,0
19605,-100,4,2,0,70,0,0
19968,-100,4,2,0,50,0,0
33517,-100,4,2,0,25,0,0
35452,-100,4,2,0,20,0,0
43194,-100,4,2,0,25,0,0
47065,-100,4,2,0,30,0,0
49001,-100,4,2,0,20,0,0
50936,-100,4,3,0,40,0,0
64484,-100,4,3,0,15,0,0
65936,-100,4,3,0,25,0,0
66420,-100,4,3,0,65,0,1
73678,-100,4,3,0,65,0,0
74162,-100,4,3,0,65,0,1
79726,-100,4,3,0,20,0,1
79968,-100,4,3,0,20,0,0
81541,-100,4,3,0,60,0,0
81904,-100,4,3,0,50,0,0
89162,-100,4,3,0,60,0,0
89646,-100,4,3,0,60,0,0
95452,-100,4,3,0,30,0,0
97388,-100,4,2,0,25,0,0
105130,-100,4,2,0,30,0,0
109001,-100,4,2,0,35,0,0
110936,-100,4,2,0,45,0,0
111904,-100,4,2,0,35,0,0
112872,-100,4,3,0,45,0,0
127872,-100,4,3,0,35,0,0
128355,-100,4,2,0,15,0,0
135613,-100,4,3,0,35,0,0
136097,-100,4,3,0,65,0,1
143355,-100,4,3,0,65,0,0
143839,-100,4,3,0,65,0,1
149646,-100,4,3,0,65,0,0
151581,-100,4,2,0,15,0,0
159323,-100,4,2,0,20,0,0
167065,-100,4,2,0,25,0,0
174807,-100,4,2,0,35,0,0
178678,-100,4,2,0,15,0,0
182065,-100,4,3,0,65,0,0
182549,-100,4,3,0,65,0,1
197549,-100,4,3,0,65,0,0
198033,-100,4,3,0,65,0,1
205291,-100,4,3,0,65,0,0
205775,-100,4,3,0,65,0,1
211339,-100,4,2,0,65,0,1
211581,-100,4,2,0,65,0,0
211581,-100,4,2,0,60,0,0
211823,-100,4,2,0,50,0,0
212065,-100,4,2,0,40,0,0
212307,-100,4,2,0,30,0,0
212549,-100,4,2,0,20,0,0
213517,-100,4,2,0,10,0,0
217388,-100,4,2,0,5,0,0

[Colours]
Combo1 : 0,0,202
Combo2 : 0,0,128
Combo3 : 64,0,128
Combo4 : 99,0,198

[HitObjects]
320,192,614,6,0,L|424:192,2,85
192,192,1581,2,0,L|72:192,2,85
416,192,2549,6,0,L|328:192,1,85
224,192,3033,2,0,L|32:192,2,170
448,192,4484,6,0,L|344:192,2,85
224,192,5452,2,0,L|128:192,2,85
448,192,6420,6,0,L|360:192,1,85
256,192,6904,2,0,L|432:192,2,170
32,192,8355,6,0,L|117:192,1,85
224,192,8839,1,0,0:0:0:0:
408,192,9323,2,0,L|312:192,1,85
216,192,9807,1,0,0:0:0:0:
368,192,10291,6,0,B|464:192|464:192|352:192,1,170
168,208,11259,1,0,0:0:0:0:
392,208,11743,1,0,0:0:0:0:
144,208,12226,6,0,L|248:208,2,85
368,208,13194,2,0,L|248:208,2,85
144,208,14162,6,0,L|320:208,1,170
200,208,14888,1,0,0:0:0:0:
314,208,15130,2,0,L|122:208,1,170
256,208,15855,1,0,0:0:0:0:
368,208,16097,6,0,P|440:192|448:96,2,170
144,208,17549,2,0,L|240:208,1,85
336,208,18033,6,0,L|152:208,1,170
384,208,19001,1,0,0:0:0:0:
384,208,19243,1,0,0:0:0:0:
328,208,19363,1,0,0:0:0:0:
160,216,19605,6,0,L|32:216,1,127.5
264,184,20452,2,0,L|168:184,1,85
72,176,20936,2,0,L|272:176,1,170
440,208,21904,6,0,L|440:120,1,85
328,120,22388,1,0,0:0:0:0:
328,120,22872,2,0,L|144:120,1,170
352,128,23597,1,0,0:0:0:0:
240,120,23839,6,0,L|128:120,2,85
464,120,24807,2,0,L|280:120,1,170
40,128,25775,5,0,0:0:0:0:
152,128,26017,2,0,L|264:128,2,85
40,128,26743,2,0,L|216:128,1,170
480,128,27710,6,0,L|392:128,1,85
288,136,28194,1,0,0:0:0:0:
64,136,28678,2,0,L|256:136,1,170
344,136,29404,1,0,0:0:0:0:
168,136,29646,6,0,L|80:136,2,85
464,144,30613,2,0,L|288:144,1,170
408,144,31339,1,0,0:0:0:0:
216,144,31581,6,0,L|128:144,2,85
442,144,32549,2,0,L|272:144,1,170
384,144,33275,1,0,0:0:0:0:
174,152,33517,6,0,L|86:152,2,85
392,152,34484,2,0,L|208:152,1,170
336,152,35210,1,0,0:0:0:0:
136,160,35452,6,0,P|72:176|136:192,1,170
344,200,36420,2,0,P|424:192|480:272,1,170
368,256,37146,1,0,0:0:0:0:
256,256,37388,6,0,L|48:256,2,170
480,256,38839,1,0,0:0:0:0:
256,272,39323,6,0,L|72:272,1,170
304,280,40291,2,0,L|400:280,2,85
192,280,41017,1,0,0:0:0:0:
80,280,41259,6,0,L|264:280,1,170
472,280,42226,2,0,L|368:280,2,85
360,280,42952,1,0,0:0:0:0:
248,280,43194,6,0,L|64:280,1,170
296,288,44162,2,0,L|400:288,1,85
488,288,44646,2,0,L|400:288,1,85
296,288,45130,6,0,L|120:288,2,170
72,288,46581,1,0,0:0:0:0:
184,288,46823,1,0,0:0:0:0:
296,288,47065,6,0,L|112:288,1,170
344,288,48033,2,0,L|448:288,2,85
232,288,48759,1,0,0:0:0:0:
120,288,49001,5,0,0:0:0:0:
344,288,49484,1,0,0:0:0:0:
120,288,49968,2,0,L|208:288,2,85
232,288,50694,1,0,0:0:0:0:
400,296,50936,6,0,P|464:272|384:224,1,170
200,208,51904,2,0,L|88:208,1,85
224,208,52388,2,0,L|336:208,1,85
416,208,52872,6,0,L|240:208,1,170
24,200,53839,1,0,0:0:0:0:
248,200,54323,1,0,0:0:0:0:
360,200,54565,1,0,0:0:0:0:
192,200,54807,6,0,L|8:200,2,170
304,200,56017,2,0,L|400:200,2,85
192,200,56743,5,0,0:0:0:0:
416,200,57226,1,0,0:0:0:0:
192,200,57710,2,0,L|312:200,2,85
80,208,58436,1,0,0:0:0:0:
272,200,58678,6,0,L|448:200,1,170
168,208,59646,2,0,L|360:208,1,170
448,208,60372,1,0,0:0:0:0:
256,208,60613,6,0,L|72:208,2,170
480,208,62065,2,0,L|376:208,1,85
200,208,62549,6,0,L|104:208,2,85
424,208,63517,2,0,L|336:208,1,85
232,208,64001,2,0,L|344:208,1,85
144,208,64484,6,0,P|80:240|216:280,1,340
40,296,65936,2,0,L|125:296,1,85
304,296,66420,6,0,L|488:296,1,170
344,296,67146,1,0,0:0:0:0:
232,296,67388,2,0,L|144:296,2,85
456,296,68355,5,0,0:0:0:0:
112,304,68839,1,0,0:0:0:0:
336,304,69323,2,0,L|232:304,1,85
144,304,69807,2,0,L|248:304,1,85
408,304,70291,6,0,P|464:288|400:256,1,170
288,248,71017,1,0,0:0:0:0:
176,248,71259,2,0,L|384:240,1,170
112,248,72226,5,0,0:0:0:0:
224,248,72468,2,0,L|128:248,1,85
248,248,72952,2,0,L|360:248,2,85
139,248,73678,2,0,L|35:248,1,85
256,248,74162,6,0,L|440:248,2,170
80,240,75613,1,0,0:0:0:0:
376,240,76097,6,0,L|376:136,1,85
264,160,76581,2,0,L|72:160,1,170
312,160,77549,2,0,L|416:160,1,85
232,160,78033,6,0,L|112:160,2,85
344,160,78759,1,0,0:0:0:0:
456,160,79001,2,0,L|256:160,1,170
32,160,79968,6,0,P|112:224|184:208,1,170
328,216,80936,1,0,0:0:0:0:
216,216,81178,1,0,0:0:0:0:
160,216,81299,1,0,0:0:0:0:
352,168,81541,6,0,L|480:168,1,127.5
240,168,82388,1,0,0:0:0:0:
128,168,82630,2,0,L|43:168,2,85
296,168,83355,1,0,0:0:0:0:
32,176,83839,5,0,0:0:0:0:
320,176,84323,1,0,0:0:0:0:
432,176,84565,2,0,L|336:176,2,85
272,176,85291,1,0,0:0:0:0:
48,184,85775,6,0,L|240:184,1,170
320,184,86501,1,0,0:0:0:0:
432,184,86743,2,0,L|336:184,1,85
240,184,87226,2,0,L|336:184,1,85
488,184,87710,6,0,B|456:64|352:88,1,170
120,192,88678,2,0,L|35:192,1,85
144,192,89162,2,0,L|248:192,1,85
384,192,89646,6,0,P|448:240|368:256,1,170
240,272,90372,2,0,L|155:272,2,85
128,272,91097,1,0,0:0:0:0:
424,280,91581,5,0,0:0:0:0:
128,280,92065,1,0,0:0:0:0:
304,280,92307,2,0,L|389:280,2,85
192,280,93033,1,0,0:0:0:0:
312,280,93517,6,0,L|496:280,1,170
304,288,94243,2,0,L|184:288,3,85
448,288,95452,6,0,L|264:288,2,170
278,288,96904,2,0,L|374:288,1,85
256,200,97388,5,0,0:0:0:0:
480,200,97872,1,0,0:0:0:0:
256,200,98355,2,0,L|160:200,1,85
64,200,98839,2,0,L|184:200,1,85
256,200,99323,6,0,L|440:200,2,170
256,200,100775,1,0,0:0:0:0:
32,200,101259,6,0,L|232:200,1,170
424,200,102226,2,0,L|320:200,2,85
312,200,102952,1,0,0:0:0:0:
152,200,103194,6,0,P|80:208|152:224,1,170
344,248,104162,2,0,L|456:248,2,85
232,248,104888,1,0,0:0:0:0:
120,248,105130,6,0,L|320:240,1,170
40,264,106097,2,0,L|248:264,1,170
320,264,106823,1,0,0:0:0:0:
432,264,107065,6,0,L|240:264,1,170
40,272,108033,2,0,L|224:272,1,170
320,264,108759,1,0,0:0:0:0:
210,272,109001,6,0,L|394:272,1,170
160,272,109968,1,0,0:0:0:0:
272,272,110210,1,0,0:0:0:0:
380,272,110452,1,0,0:0:0:0:
104,280,110936,6,0,P|64:248|224:160,1,340
464,144,112388,2,0,L|376:144,1,85
213,141,112872,6,0,L|29:141,1,170
264,136,113839,2,0,L|360:136,1,85
240,136,114323,2,0,L|128:136,1,85
352,136,114807,5,0,0:0:0:0:
128,136,115291,2,0,L|312:136,1,170
408,136,116017,2,0,L|496:136,2,85
216,144,116743,6,0,L|32:144,2,170
408,144,118194,2,0,L|312:144,1,85
120,144,118678,6,0,L|24:144,2,85
296,144,119646,2,0,L|126:144,1,170
240,144,120372,1,0,0:0:0:0:
448,144,120613,5,0,0:0:0:0:
200,144,121097,1,0,0:0:0:0:
424,144,121581,2,0,L|336:144,2,85
312,144,122307,1,0,0:0:0:0:
200,144,122549,6,0,L|392:144,2,170
88,144,123759,2,0,L|0:144,2,85
280,152,124484,6,0,L|464:152,1,170
232,168,125452,2,0,L|328:168,1,85
424,168,125936,2,0,L|328:168,1,85
168,168,126420,6,0,P|40:176|32:224,2,170
392,176,127872,2,0,L|488:176,1,85
368,176,128355,6,0,L|184:176,1,170
416,176,129323,2,0,L|216:176,1,170
24,168,130291,6,0,L|200:168,1,170
416,176,131259,2,0,L|240:176,1,170
248,176,132226,6,0,L|160:176,2,85
360,176,132952,2,0,L|472:176,2,85
248,176,133678,6,0,L|48:176,2,170
360,176,134888,1,0,0:0:0:0:
304,176,135009,1,0,0:0:0:0:
64,184,135613,1,0,0:0:0:0:
445,184,136097,6,0,L|349:184,1,85
248,184,136581,2,0,L|360:184,1,85
445,184,137065,2,0,L|253:184,1,170
56,192,138033,5,0,0:0:0:0:
256,192,138517,1,0,0:0:0:0:
472,192,139001,2,0,L|352:192,2,85
360,192,139726,1,0,0:0:0:0:
176,192,139968,6,0,P|72:192|40:136,1,170
152,136,140694,1,0,0:0:0:0:
264,128,140936,2,0,P|368:128|400:184,1,170
64,200,141904,6,0,L|248:200,1,170
344,200,142630,1,0,0:0:0:0:
232,192,142872,2,0,L|336:192,2,85
120,192,143597,1,0,0:0:0:0:
304,192,143839,6,0,L|488:192,1,170
160,192,144807,2,0,L|248:192,2,85
272,192,145533,1,0,0:0:0:0:
384,192,145775,6,0,L|480:192,2,85
80,200,146743,2,0,L|256:200,1,170
136,200,147468,1,0,0:0:0:0:
256,200,147710,6,0,L|256:112,1,85
256,115,148678,1,0,0:0:0:0:
144,120,148920,1,0,0:0:0:0:
256,120,149162,1,0,0:0:0:0:
480,120,149646,6,0,L|304:120,1,170
200,120,150372,1,0,0:0:0:0:
88,120,150613,1,0,0:0:0:0:
200,120,150855,2,0,L|112:120,2,85
384,120,151581,5,0,0:0:0:0:
160,128,152065,1,0,0:0:0:0:
320,128,152549,1,0,0:0:0:0:
96,128,153033,2,0,L|184:128,1,85
288,128,153517,6,0,L|480:128,2,170
288,128,154968,2,0,L|400:128,1,85
264,128,155452,6,0,L|88:128,1,170
312,136,156420,2,0,L|128:136,1,170
360,136,157388,6,0,L|256:136,2,85
472,136,158113,1,0,0:0:0:0:
360,136,158355,1,0,0:0:0:0:
136,144,158839,2,0,L|40:144,1,85
232,144,159323,6,0,L|336:144,1,85
424,144,159807,1,0,0:0:0:0:
200,144,160291,1,0,0:0:0:0:
424,144,160775,1,0,0:0:0:0:
200,136,161259,6,0,L|96:136,2,85
448,136,162226,1,0,0:0:0:0:
224,136,162710,2,0,L|320:136,1,85
200,136,163194,6,0,L|24:136,1,170
248,136,164162,2,0,L|448:136,1,170
200,144,165130,6,0,L|296:144,2,85
88,144,165855,1,0,0:0:0:0:
200,144,166097,2,0,L|400:144,1,170
152,152,167065,6,0,L|152:56,1,85
256,64,167549,1,0,0:0:0:0:
432,64,168033,2,0,L|336:64,1,85
240,64,168517,2,0,L|360:64,1,85
432,64,169001,6,0,L|248:64,1,170
40,64,169968,1,0,0:0:0:0:
264,64,170452,2,0,L|168:64,1,85
288,64,170936,6,0,L|472:64,1,170
240,64,171904,1,0,0:0:0:0:
128,64,172146,1,0,0:0:0:0:
16,64,172388,1,0,0:0:0:0:
240,72,172872,6,0,L|440:72,1,170
152,72,173839,2,0,L|360:72,1,170
208,72,174565,1,0,0:0:0:0:
376,72,174807,6,0,L|376:160,1,85
256,160,175291,1,0,0:0:0:0:
32,160,175775,2,0,L|120:160,2,85
256,160,176743,5,0,0:0:0:0:
88,160,177226,1,0,0:0:0:0:
312,160,177710,1,0,0:0:0:0:
88,152,178194,2,0,L|184:152,1,85
280,152,178678,6,0,L|392:152,2,85
56,152,179646,2,0,L|160:152,2,85
280,152,180613,6,0,L|464:152,1,170
232,176,181581,1,0,0:0:0:0:
120,176,181823,1,0,0:0:0:0:
176,176,181944,1,0,0:0:0:0:
360,176,182186,6,0,L|496:176,1,127.5
264,176,183033,1,0,0:0:0:0:
376,176,183275,2,0,L|461:176,2,85
200,176,184001,1,0,0:0:0:0:
472,176,184484,5,0,0:0:0:0:
248,184,184968,1,0,0:0:0:0:
136,184,185210,2,0,L|240:184,2,85
336,184,185936,1,0,0:0:0:0:
48,184,186420,6,0,L|224:184,1,170
440,184,187388,2,0,L|328:184,1,85
248,192,187872,2,0,L|336:192,1,85
144,192,188355,6,0,P|80:200|152:224,1,170
240,248,189081,1,0,0:0:0:0:
352,248,189323,2,0,L|437:248,2,85
240,248,190049,1,0,0:0:0:0:
56,256,190291,5,0,0:0:0:0:
280,256,190775,1,0,0:0:0:0:
120,256,191017,2,0,L|0:256,2,85
232,248,191743,1,0,0:0:0:0:
456,248,192226,5,0,0:0:0:0:
232,256,192710,1,0,0:0:0:0:
400,256,192952,2,0,L|496:256,2,85
288,256,193678,1,0,0:0:0:0:
72,256,194162,6,0,P|40:200|144:168,1,170
224,144,194888,1,0,0:0:0:0:
336,144,195130,2,0,L|248:144,1,85
144,144,195613,2,0,L|240:144,1,85
408,144,196097,6,0,P|456:160|392:176,1,170
280,176,196823,1,0,0:0:0:0:
168,184,197065,2,0,L|280:184,2,85
56,192,197791,1,0,0:0:0:0:
248,192,198033,6,0,L|432:192,1,170
200,192,199001,2,0,L|96:192,1,85
224,192,199484,2,0,L|320:192,1,85
72,192,199968,5,0,0:0:0:0:
296,192,200452,1,0,0:0:0:0:
48,192,200936,2,0,L|152:192,2,85
160,192,201662,1,0,0:0:0:0:
312,192,201904,6,0,L|512:192,1,170
144,200,202872,2,0,L|328:200,1,170
424,200,203597,1,0,0:0:0:0:
280,192,203839,6,0,L|104:192,1,170
224,192,204565,1,0,0:0:0:0:
336,192,204807,2,0,L|240:192,2,85
448,192,205533,1,0,0:0:0:0:
251,192,205775,6,0,L|51:192,2,170
32,192,207226,2,0,L|128:192,1,85
312,192,207710,6,0,L|432:192,1,85
288,192,208194,1,0,0:0:0:0:
64,192,208678,2,0,L|184:192,2,85
176,192,209404,1,0,0:0:0:0:
352,192,209646,6,0,P|408:216|328:248,1,170
240,272,210372,1,0,0:0:0:0:
128,280,210613,2,0,L|32:280,2,85
304,280,211339,6,0,P|368:256|264:160,1,255
72,152,212549,1,0,0:0:0:0:
72,152,213033,1,0,0:0:0:0:
256,192,213517,5,0,0:0:0:0:
480,192,214001,2,0,L|304:192,1,170
88,192,214968,1,0,0:0:0:0:
312,192,215452,6,0,L|128:192,2,170
88,192,216904,1,0,0:0:0:0:
312,192,217388,5,0,0:0:0:0:
160,192,217872,1,0,0:0:0:0:
384,192,218355,1,0,0:0:0:0:
160,192,218839,2,0,L|256:192,1,85
352,192,219323,6,0,L|152:192,1,170
400,200,220291,1,0,0:0:0:0:
256,192,220775,1,0,0:0:0:0:
256,192,221259,12,0,227065,0:0:0:0:
