osu file format v13

[General]
AudioFilename: 09. Dramophone.mp3
AudioLeadIn: 0
PreviewTime: 34329
Countdown: 0
SampleSet: Normal
StackLeniency: 0.7
Mode: 0
LetterboxInBreaks: 1
WidescreenStoryboard: 0

[Editor]
Bookmarks: 111227
DistanceSpacing: 1
BeatDivisor: 4
GridSize: 8
TimelineZoom: 1

[Metadata]
Title:Dramophone
TitleUnicode:Dramophone
Artist:Caravan Palace
ArtistUnicode:Caravan Palace
Creator:silklash
Version:Insane
Source:
Tags:Panic
BeatmapID:380948
BeatmapSetID:155275

[Difficulty]
HPDrainRate:7
CircleSize:4
OverallDifficulty:7
ApproachRate:9
SliderMultiplier:1.8
SliderTickRate:1

[Events]
//Background and Video events
0,0,"9e3a51a4589cf69a4c8d0f6d6d2e65b3.jpg",0,0
//Break Periods
2,95237,102294
//Storyboard Layer 0 (Background)
//Storyboard Layer 1 (Fail)
//Storyboard Layer 2 (Pass)
//Storyboard Layer 3 (Foreground)
//Storyboard Sound Samples
//Background Colour Transformations
3,100,163,162,255

[TimingPoints]
3847,476.190476190476,4,2,0,50,1,0
34323,-80,4,1,0,50,0,0
49799,-80,4,2,0,50,0,0
64799,-80,4,1,0,50,0,0
102894,-100,4,2,0,50,0,0
123846,-66.6666666666667,4,2,0,50,0,0
129561,-50,4,2,0,50,0,0

[Colours]
Combo1 : 128,0,0
Combo2 : 128,0,255
Combo3 : 0,0,255
Combo4 : 128,0,128

[HitObjects]
172,136,3847,5,0,0:0:0:0:
214,136,4085,1,0,0:0:0:0:
256,136,4323,1,0,0:0:0:0:
297,136,4561,1,0,0:0:0:0:
339,248,4799,5,0,0:0:0:0:
297,248,5037,1,0,0:0:0:0:
256,248,5275,1,0,0:0:0:0:
214,248,5513,1,0,0:0:0:0:
152,63,5751,6,0,B|144:72|144:72|117:74|117:74|101:97|101:97|104:120,1,90
152,248,6227,2,0,B|160:239|160:239|187:237|187:237|203:213|203:213|200:191,1,90
360,128,6704,2,0,B|351:136|351:136|324:138|324:138|308:162|308:162|311:184,1,90
360,312,7180,2,0,B|369:304|369:304|395:301|395:301|411:278|411:278|409:256,1,90
255,144,7656,5,0,0:0:0:0:
208,192,7894,1,0,0:0:0:0:
256,239,8132,1,0,0:0:0:0:
303,191,8370,1,0,0:0:0:0:
256,74,8608,5,0,0:0:0:0:
373,192,8846,1,0,0:0:0:0:
255,309,9085,1,0,0:0:0:0:
138,191,9323,1,0,0:0:0:0:
320,128,9561,2,0,B|363:109|363:109|408:112,1,90
192,256,10037,2,0,B|149:275|149:275|104:272,1,90
352,296,10513,2,0,B|392:320|392:320|440:312,1,90
160,88,10989,2,0,B|120:64|120:64|72:72,1,90
352,104,11466,5,0,0:0:0:0:
352,104,11704,1,0,0:0:0:0:
160,280,11942,1,0,0:0:0:0:
160,280,12180,1,0,0:0:0:0:
304,184,12418,1,0,0:0:0:0:
208,200,12656,1,0,0:0:0:0:
352,280,12894,1,0,0:0:0:0:
160,104,13132,1,0,0:0:0:0:
440,48,13370,5,0,0:0:0:0:
328,80,13608,1,0,0:0:0:0:
72,48,13846,1,0,0:0:0:0:
184,80,14085,1,0,0:0:0:0:
440,88,14323,1,0,0:0:0:0:
328,120,14561,1,0,0:0:0:0:
72,88,14799,1,0,0:0:0:0:
184,120,15038,1,0,0:0:0:0:
368,224,15275,5,0,0:0:0:0:
256,272,15513,1,0,0:0:0:0:
144,224,15751,1,0,0:0:0:0:
256,272,15989,1,0,0:0:0:0:
368,224,16227,1,0,0:0:0:0:
144,224,16466,1,0,0:0:0:0:
368,184,16704,1,0,0:0:0:0:
144,184,16942,1,0,0:0:0:0:
88,40,17180,6,0,L|88:136,1,90
424,40,17656,2,0,L|424:136,1,90
176,280,18132,2,0,L|144:176,1,90
336,280,18608,2,0,L|368:176,1,90
184,32,19085,6,0,B|168:54|168:54|160:80,1,45
128,328,19442,2,0,B|128:296|128:296|144:272|144:272|144:240,1,90
144,192,19799,1,0,0:0:0:0:
144,192,19918,1,0,0:0:0:0:
376,144,20156,2,0,B|400:168|400:168|391:198|391:198|416:224,1,90
176,304,20632,1,0,0:0:0:0:
336,304,20870,1,0,0:0:0:0:
168,64,21108,6,0,B|144:88|144:88|153:118|153:118|128:144,1,90
104,168,21466,2,0,L|104:232,1,45
368,224,21823,1,0,0:0:0:0:
304,56,22061,1,0,0:0:0:0:
304,56,22180,2,0,L|304:104,1,45
224,104,22418,2,0,L|224:152,1,45
144,144,22656,2,0,L|144:192,1,45
72,320,22894,6,0,B|96:328|96:328|136:328,1,45
352,264,23251,2,0,B|320:264|320:264|296:248|296:248|264:248,1,90
224,248,23608,1,0,0:0:0:0:
224,248,23727,1,0,0:0:0:0:
64,112,23966,2,0,B|104:88|104:88|152:88,1,90
392,128,24442,1,0,0:0:0:0:
208,296,24680,1,0,0:0:0:0:
280,48,24918,2,0,B|296:72|296:72|288:104|288:104|304:128,1,90
320,168,25275,2,0,L|320:216,1,45
304,256,25513,5,0,0:0:0:0:
168,272,25751,1,0,0:0:0:0:
136,144,25989,2,0,L|160:96,1,45
264,72,26227,2,0,L|240:120,1,45
232,232,26466,2,0,L|256:184,1,45
360,144,26704,5,0,0:0:0:0:
360,144,26823,1,0,0:0:0:0:
176,320,27061,2,0,B|136:296|136:296|136:248,1,90
136,208,27418,1,0,0:0:0:0:
136,208,27537,1,0,0:0:0:0:
320,48,27775,2,0,B|320:80|320:80|344:96|344:96|344:128,1,90
272,288,28251,2,0,B|304:288|304:288|328:264|328:264|376:264,1,90
400,264,28608,5,0,0:0:0:0:
304,168,28846,1,0,0:0:0:0:
400,80,29085,1,0,0:0:0:0:
400,80,29204,1,0,0:0:0:0:
224,40,29442,2,0,B|192:72|192:72|168:112,1,90
104,280,29918,1,0,0:0:0:0:
280,248,30156,1,0,0:0:0:0:
456,48,30513,6,0,B|464:64|464:64|472:96,1,45,0|0,0:0|0:0,0:0:0:0:
320,296,30870,2,0,B|304:272|304:272|312:240|312:240|288:208,1,90
296,176,31227,1,0,0:0:0:0:
296,176,31346,1,0,0:0:0:0:
136,56,31585,1,0,0:0:0:0:
136,56,31704,2,0,L|80:72,1,45
96,160,31942,2,0,L|64:200,1,45
144,240,32180,2,0,L|144:288,1,45
224,320,32418,1,0,0:0:0:0:
256,64,34323,5,0,0:0:0:0:
256,288,34561,1,0,0:0:0:0:
112,120,34799,1,0,0:0:0:0:
328,176,35037,1,0,0:0:0:0:
376,192,35156,1,0,0:0:0:0:
88,272,35394,2,0,B|120:272|120:272|144:296|144:296|192:296,1,112.5
424,112,35870,2,0,B|392:112|392:112|368:88|368:88|320:88,1,112.5
160,288,36346,6,0,B|184:320|184:320|216:328|216:328|256:312,1,112.5
304,288,36704,1,0,0:0:0:0:
304,288,36823,1,0,0:0:0:0:
256,120,37061,1,0,0:0:0:0:
256,120,37180,1,0,0:0:0:0:
104,192,37418,1,0,0:0:0:0:
360,192,37656,1,0,0:0:0:0:
168,328,37894,1,0,0:0:0:0:
432,72,38132,6,0,B|456:88|456:88|464:128,1,56.25
384,328,38489,2,0,B|352:304|352:304|352:272|352:272|312:248,1,112.5
184,232,38846,1,0,0:0:0:0:
200,280,38966,1,0,0:0:0:0:
320,24,39204,2,0,B|352:48|352:48|352:80|352:80|392:104,1,112.5
424,176,39561,2,0,B|384:192|384:192|344:176|344:176|312:152,1,112.5
160,112,40037,5,0,0:0:0:0:
160,280,40275,1,0,0:0:0:0:
144,80,40513,1,0,0:0:0:0:
176,312,40751,1,0,0:0:0:0:
128,51,40989,1,0,0:3:0:0:
192,339,41227,1,0,0:3:0:0:
110,15,41466,1,0,0:0:0:0:
211,375,41704,1,0,0:0:0:0:
320,88,41942,6,0,B|352:96|352:96|376:128|376:128|376:152,1,56.25
160,248,42299,2,0,B|134:195|134:195|165:135,1,112.5
256,208,42656,1,0,0:0:0:0:
280,256,42775,1,0,0:0:0:0:
40,328,43013,2,0,B|48:296|48:296|16:272|16:272|24:208,1,112.5
80,128,43370,2,0,B|72:160|72:160|104:184|104:184|96:248,1,112.5
288,336,43846,5,0,0:0:0:0:
392,136,44085,2,0,B|397:106|397:106|392:64,1,56.25
288,48,44323,1,0,0:0:0:0:
248,72,44442,1,0,0:0:0:0:
128,144,44680,1,0,0:0:0:0:
304,200,44918,1,0,0:0:0:0:
32,248,45156,1,0,0:0:0:0:
352,336,45394,1,0,0:0:0:0:
176,64,45751,6,0,B|184:96|184:96|208:128,1,56.25,0|0,0:0|0:0,0:0:0:0:
416,80,46108,2,0,B|440:128|440:128|416:208,1,112.5
336,256,46466,1,0,0:0:0:0:
336,256,46585,1,0,0:0:0:0:
80,336,46823,2,0,B|56:288|56:288|80:208,1,112.5
88,192,47180,1,0,0:0:0:0:
312,56,47418,1,0,0:0:0:0:
312,328,47656,5,0,0:0:0:0:
208,128,47894,1,0,0:0:0:0:
432,144,48132,1,0,0:0:0:0:
160,272,48370,1,0,0:0:0:0:
408,32,48608,1,0,0:0:0:0:
448,256,48846,1,0,0:0:0:0:
424,304,48966,1,0,0:0:0:0:
256,272,49204,1,0,0:0:0:0:
208,296,49323,1,0,0:0:0:0:
152,304,49442,1,0,0:0:0:0:
96,288,49561,1,0,0:0:0:0:
144,40,49799,6,0,P|208:56|264:40,1,112.5
400,72,50156,2,0,P|336:88|288:136,1,112.5
144,128,50513,2,0,P|208:144|240:200,1,112.5
240,336,50870,2,0,P|320:328|352:288,1,112.5
376,280,51227,1,0,0:0:0:0:
368,136,51466,5,0,0:0:0:0:
248,216,51704,1,0,0:0:0:0:
248,72,51942,1,0,0:0:0:0:
128,152,52180,2,0,B|80:176|80:176|96:208|56:216|56:216|56:256,1,150
88,352,52656,2,0,B|127:348|127:348|144:352|144:352|200:328,1,112.5
256,248,53053,2,0,B|220:235|220:235|168:248,2,75
408,320,53608,5,0,0:0:0:0:
440,56,53846,2,0,P|384:72|360:136,1,112.5
72,56,54323,2,0,P|128:72|152:136,1,112.5
80,248,54680,2,0,B|160:312|232:248,1,168.75
384,80,55275,5,0,0:0:0:0:
472,192,55513,1,0,0:0:0:0:
336,232,55751,1,0,0:0:0:0:
296,208,55870,1,0,0:0:0:0:
152,168,56108,1,0,0:0:0:0:
192,192,56227,1,0,0:0:0:0:
192,336,56466,1,0,0:0:0:0:
72,256,56704,1,0,0:0:0:0:
176,40,56942,6,0,B|200:40|200:40|216:24|216:24|232:40|232:40|280:40,1,112.5
368,272,57418,1,0,0:0:0:0:
256,176,57656,1,0,0:0:0:0:
144,272,57894,1,0,0:0:0:0:
256,176,58132,1,0,0:0:0:0:
424,112,58370,1,0,0:0:0:0:
256,40,58608,1,0,0:0:0:0:
88,112,58846,1,0,0:0:0:0:
280,288,59085,5,0,0:0:0:0:
328,312,59204,2,0,P|424:288|432:248,1,112.5
264,144,59561,2,0,P|240:192|264:248,1,112.5
352,192,59918,1,0,0:0:0:0:
192,32,60156,1,0,0:0:0:0:
32,192,60394,1,0,0:0:0:0:
192,352,60632,1,0,0:0:0:0:
368,64,60989,5,0,0:0:0:0:
368,64,61227,2,0,P|408:128|376:208,2,168.75
200,72,62180,1,0,0:0:0:0:
152,104,62299,1,0,0:0:0:0:
200,232,62537,1,0,0:0:0:0:
192,288,62656,1,0,0:0:0:0:
440,248,63013,5,0,0:0:0:0:
440,248,63132,2,0,L|392:208,1,56.25
344,96,63370,2,0,L|288:144,1,56.25
304,256,63608,2,0,L|256:216,1,56.25
208,104,63846,2,0,L|152:152,1,56.25
104,288,64204,1,0,0:0:0:0:
424,64,64561,5,0,0:0:0:0:
392,288,64799,2,0,B|352:304|352:304|336:304,1,56.25
80,264,65156,2,0,B|80:320|80:320|136:352,1,112.5
224,288,65513,1,0,0:0:0:0:
216,240,65632,1,0,0:0:0:0:
384,40,65870,2,0,B|416:80|416:80|416:144,1,112.5
304,112,66227,1,0,0:0:0:0:
104,216,66466,1,0,0:0:0:0:
400,256,66704,5,0,0:0:0:0:
424,304,66823,2,0,B|398:318|384:344|384:344|352:328|320:336,1,112.5
232,288,67180,1,0,0:0:0:0:
256,248,67299,1,0,0:0:0:0:
440,96,67537,1,0,0:0:0:0:
440,96,67656,5,0,0:0:0:0:
216,128,67894,1,0,0:0:0:0:
424,208,68132,1,0,0:0:0:0:
200,240,68370,1,0,0:0:0:0:
408,320,68608,6,0,B|368:336|368:336|328:336,1,56.25
80,304,68966,2,0,B|96:272|96:272|136:272|136:272|152:240,1,112.5
176,128,69323,1,0,0:0:0:0:
216,160,69442,1,0,0:0:0:0:
408,320,69680,2,0,B|440:272|440:272|424:208,1,112.5
344,48,70037,2,0,B|312:96|312:96|328:160,1,112.5
256,351,70513,5,0,0:0:0:0:
96,192,70751,1,0,0:0:0:0:
256,32,70989,1,0,0:0:0:0:
415,192,71228,1,0,0:0:0:0:
209,344,71466,5,0,0:0:0:0:
102,145,71704,1,0,0:0:0:0:
302,38,71942,1,0,0:0:0:0:
408,238,72181,1,0,0:0:0:0:
112,272,72418,6,0,B|128:248|128:248|152:224,1,56.25,0|0,0:0|0:0,0:0:0:0:
384,96,72775,2,0,B|368:152|368:152|312:176,1,112.5
208,136,73132,1,0,0:0:0:0:
232,88,73251,1,0,0:0:0:0:
464,272,73489,2,0,B|424:312|424:312|352:320,1,112.5
48,112,73966,2,0,B|88:72|88:72|160:64,1,112.5
256,56,74323,5,0,0:0:0:0:
376,248,74561,2,0,L|320:208,1,56.25
160,208,74799,2,0,L|224:256,1,56.25
80,352,75156,1,0,0:0:0:0:
264,304,75394,1,0,0:0:0:0:
248,112,75632,1,0,0:0:0:0:
432,56,75870,1,0,0:0:0:0:
88,64,76227,6,0,B|80:96|80:96|96:128,1,56.25
352,256,76585,2,0,B|352:200|352:200|296:152,1,112.5
192,176,76942,1,0,0:0:0:0:
176,224,77061,1,0,0:0:0:0:
432,344,77299,6,0,B|464:296|464:296|464:240,1,112.5
384,152,77656,2,0,B|352:200|352:200|352:256,1,112.5
224,328,78013,2,0,B|256:280|256:280|256:216,1,112.5
256,192,78370,1,0,0:0:0:0:
88,48,78608,2,0,B|64:80|64:80|64:128,1,75
256,192,78966,5,0,0:0:0:0:
256,192,79204,1,0,0:0:0:0:
432,48,79442,5,0,0:0:0:0:
432,48,79561,2,0,P|448:88|440:136,1,75
376,176,79799,2,0,P|360:216|376:256,1,75
416,320,80037,5,0,0:0:0:0:
304,352,80275,1,0,0:0:0:0:
80,336,80513,2,0,B|104:312|104:312|147:296|147:296|192:248,1,112.5
240,80,80989,1,0,0:0:0:0:
136,112,81227,1,0,0:0:0:0:
296,240,81466,1,0,0:0:0:0:
416,208,81704,1,0,0:0:0:0:
416,208,81823,2,0,B|400:168|400:168|416:120|392:96,1,112.5
360,72,82180,1,0,0:0:0:0:
296,184,82418,1,0,0:0:0:0:
272,224,82537,1,0,0:0:0:0:
176,184,82775,5,0,0:0:0:0:
176,184,83013,1,0,0:0:0:0:
64,96,83251,5,0,0:0:0:0:
64,96,83370,2,0,P|40:128|40:176,1,75
32,256,83608,2,0,P|64:296|56:336,1,75
160,344,83846,2,0,B|202:359|261:314,1,75,0|0,0:0|0:0,2:0:0:0:
472,200,84204,6,0,B|416:192|416:192|352:208,1,112.5
240,232,84561,1,0,0:0:0:0:
200,256,84680,1,0,0:0:0:0:
72,80,84918,2,0,B|112:40|112:40|168:40,1,112.5
256,40,85275,1,0,0:0:0:0:
256,336,85513,1,0,0:0:0:0:
256,192,85751,1,0,0:0:0:0:
216,160,85870,6,0,P|128:184|112:216,1,112.5
88,304,86227,1,0,0:0:0:0:
88,304,86346,1,0,0:0:0:0:
400,304,86585,1,0,0:0:0:0:
256,112,86823,1,0,0:0:0:0:
448,64,87061,5,0,0:0:0:0:
448,64,87180,1,0,0:0:0:0:
296,232,87418,1,0,0:0:0:0:
112,96,87656,6,0,B|96:120|96:120|80:176,1,56.25
376,336,88013,2,0,B|424:304|424:304|440:240,1,112.5
360,48,88370,2,0,B|336:64|336:64|320:104,1,56.25
112,336,88727,2,0,B|96:296|96:296|64:272|64:272|64:224,1,112.5
64,192,89085,1,0,0:0:0:0:
336,120,89323,1,0,0:0:0:0:
360,160,89442,1,0,0:0:0:0:
336,192,89561,1,0,0:0:0:0:
192,272,89799,6,0,P|166:248|160:208,1,56.25
200,96,90037,2,0,P|225:119|232:160,1,56.25
328,344,90394,1,0,0:0:0:0:
384,48,90632,1,0,0:0:0:0:
408,248,90870,1,0,0:0:0:0:
280,152,91108,1,0,0:0:0:0:
80,328,91466,6,0,B|57:301|57:301|56:272,1,56.25
232,48,91823,2,0,B|224:80|224:80|264:120|232:168,1,112.5
80,160,92180,1,0,0:0:0:0:
88,112,92299,1,0,0:0:0:0:
400,112,92537,2,0,B|392:168|392:168|344:208,1,112.5
192,272,92894,2,0,B|248:256|248:256|304:288,1,112.5
360,336,93251,1,0,0:0:0:0:
456,48,93489,6,0,B|401:28|401:28|349:49,1,112.5
88,112,93846,2,0,B|120:128|120:128|160:128|144:128,1,56.25
360,176,94204,1,0,0:0:0:0:
184,320,94442,2,0,B|128:312|128:312|72:288,1,112.5
328,320,94799,2,0,B|384:312|384:312|440:288,1,112.5
328,192,102894,5,0,0:0:0:0:
328,192,103132,1,0,0:0:0:0:
416,192,103370,1,0,0:0:0:0:
416,192,103608,1,0,0:0:0:0:
184,192,103846,5,0,0:0:0:0:
184,192,104084,1,0,0:0:0:0:
96,192,104322,1,0,0:0:0:0:
96,192,104560,1,0,0:0:0:0:
296,152,104799,5,0,0:0:0:0:
216,232,105037,1,0,0:0:0:0:
296,232,105275,1,0,0:0:0:0:
216,152,105513,1,0,0:0:0:0:
340,190,105751,5,0,0:0:0:0:
170,192,105989,1,0,0:0:0:0:
256,275,106227,1,0,0:0:0:0:
256,106,106465,1,0,0:0:0:0:
128,32,106704,5,0,0:0:0:0:
72,104,106942,1,0,0:0:0:0:
72,192,107180,1,0,0:0:0:0:
112,272,107418,2,0,P|176:272|200:336,1,135
304,336,107894,2,0,P|272:288|296:232,1,90
408,256,108291,2,0,B|368:272|368:272|320:272,2,60
328,120,108846,6,0,B|304:96|304:96|280:120|232:136,1,90
168,248,109323,2,0,B|176:280|176:280|200:304|200:304|232:312|232:312|272:312|272:312|304:288,1,180
256,192,110037,1,0,0:0:0:0:
256,192,110275,1,0,0:0:0:0:
200,120,110513,5,0,0:0:0:0:
232,280,110751,1,0,0:0:0:0:
344,168,110989,1,0,0:0:0:0:
136,208,111227,2,0,P|72:144|120:56,1,180
240,40,111942,2,0,P|272:80|272:120,1,90
400,240,112418,2,0,P|448:264|464:304,1,90
280,208,112894,2,0,P|280:256|328:296,1,90
224,336,113370,1,0,0:0:0:0:
144,264,113608,1,0,0:0:0:0:
144,160,113846,1,0,0:0:0:0:
224,88,114085,1,0,0:0:0:0:
392,40,114323,6,0,P|432:80|440:128,1,90
408,216,114799,1,0,0:0:0:0:
128,328,115037,2,0,P|128:232|200:200,1,180
352,320,115751,2,0,P|361:291|352:256,1,60
336,136,116069,2,0,P|320:168|336:200,1,60
232,280,116466,5,0,0:0:0:0:
184,296,116585,1,0,0:0:0:0:
136,280,116704,1,0,0:0:0:0:
24,128,116942,1,0,0:0:0:0:
48,80,117061,1,0,0:0:0:0:
96,64,117180,1,0,0:0:0:0:
272,96,117418,1,0,0:0:0:0:
104,152,117656,1,0,0:0:0:0:
280,184,117894,1,0,0:0:0:0:
64,288,118132,6,0,P|96:328|144:328,1,90
376,288,118608,2,0,P|344:328|296:328,1,90
224,224,119085,1,0,0:0:0:0:
224,88,119323,1,0,0:0:0:0:
344,32,119561,1,0,0:0:0:0:
344,168,119799,1,0,0:0:0:0:
448,336,120037,6,0,L|448:232,1,90
168,304,120513,2,0,L|168:200,1,90
320,224,120989,2,0,L|320:120,1,90
24,136,121466,2,0,L|24:32,1,90
360,48,121942,5,0,0:0:0:0:
240,120,122180,1,0,0:0:0:0:
368,192,122418,1,0,0:0:0:0:
264,288,122656,1,0,0:0:0:0:
224,312,122775,1,0,0:0:0:0:
176,312,122894,1,0,0:0:0:0:
32,160,123132,1,0,0:0:0:0:
64,128,123251,1,0,0:0:0:0:
112,128,123370,1,0,0:0:0:0:
368,312,123608,1,0,0:0:0:0:
272,48,123846,6,0,B|208:24|208:24|136:48,1,135.000005149842
64,224,124323,2,0,B|128:248|128:248|200:224,1,135.000005149842,0|0,0:0|0:0,0:0:0:0:
464,144,124799,6,0,B|400:120|400:120|328:144,1,135.000005149842
256,320,125276,2,0,B|320:344|320:344|392:320,1,135.000005149842,0|0,0:0|0:0,0:0:0:0:
272,96,125751,5,0,0:0:0:0:
160,96,125989,1,0,0:0:0:0:
168,200,126227,1,0,0:0:0:0:
440,312,126466,2,0,B|464:272|464:272|472:232|432:184,1,135.000005149842
272,96,126942,1,0,0:0:0:0:
72,64,127180,1,0,0:0:0:0:
72,264,127418,1,0,0:0:0:0:
72,264,127537,1,0,0:0:0:0:
72,264,127656,1,0,0:0:0:0:
320,288,127894,5,0,0:0:0:0:
400,152,128132,1,0,0:0:0:0:
360,320,128370,1,0,0:0:0:0:
360,112,128608,1,0,0:0:0:0:
400,352,128846,1,0,0:0:0:0:
320,72,129085,1,0,0:0:0:0:
256,352,129323,1,0,0:0:0:0:
32,192,129561,5,0,0:0:0:0:
32,192,129799,1,0,0:0:0:0:
256,40,130037,2,0,B|256:72|232:88|232:88|232:112|232:112|264:152|256:208,1,180
480,192,130513,5,0,0:0:0:0:
480,192,130751,1,0,0:0:0:0:
256,344,130989,2,0,B|256:312|280:296|280:296|280:272|280:272|248:232|256:176,1,180
88,48,131466,1,0,0:0:0:0:
40,184,131704,1,0,0:0:0:0:
304,304,131942,2,0,B|240:264|296:224|256:192|256:192|200:192,1,180
424,48,132418,1,0,0:0:0:0:
472,184,132656,1,0,0:0:0:0:
208,304,132894,2,0,B|272:264|216:224|256:192|256:192|312:192,1,180
200,48,133370,5,0,0:0:0:0:
80,184,133608,1,0,0:0:0:0:
80,232,133727,1,0,0:0:0:0:
80,280,133846,1,0,0:0:0:0:
256,336,134085,1,0,0:0:0:0:
256,288,134204,1,0,0:0:0:0:
256,240,134323,1,0,0:0:0:0:
432,40,134561,1,0,0:0:0:0:
400,312,134799,2,0,B|336:280|336:280|336:216|336:216|296:160,1,180
310,179,135156,1,0,0:0:0:0:
310,179,135275,1,0,0:0:0:0:
136,128,135513,5,0,0:0:0:0:
456,88,135751,2,0,B|384:88|384:88|352:48|352:48|312:88,1,180
104,264,136227,1,0,0:0:0:0:
104,120,136466,1,0,0:0:0:0:
456,296,136704,2,0,B|384:296|384:296|352:336|352:336|312:296,1,180
