osu file format v9

[General]
AudioFilename: I Love You - Have sex with me now.mp3
AudioLeadIn: 0
PreviewTime: 66246
Countdown: 2
SampleSet: Soft
StackLeniency: 0.7
Mode: 0
LetterboxInBreaks: 1

[Editor]
DistanceSpacing: 1.5
BeatDivisor: 2
GridSize: 8

[Metadata]
Title:Veronica
Artist:Caramelos de Cianuro
Creator:ErufenRito
Version:Normal
Source:
Tags:RandomJibberish

[Difficulty]
HPDrainRate:4
CircleSize:4
OverallDifficulty:4
ApproachRate:4
SliderMultiplier:1
SliderTickRate:2

[Events]
//Background and Video events
0,0,"WALLPAPERCDC2.jpg"
//Break Periods
2,113481,133898
//Storyboard Layer 0 (Background)
//Storyboard Layer 1 (Fail)
//Storyboard Layer 2 (Pass)
//Storyboard Layer 3 (Foreground)
//Storyboard Sound Samples
//Background Colour Transformations
3,100,163,162,255

[TimingPoints]
821,342.780479780671,4,2,0,70,1,0
66634,-100,4,2,0,70,0,1
76232,-100,4,2,0,70,0,0
88572,-100,4,2,0,70,0,1
98170,-100,4,2,0,70,0,0
113281,342.780751718189,4,2,0,70,1,0
157156,-100,4,2,0,70,0,1
166754,-100,4,2,0,70,0,0
179094,-100,4,2,0,70,0,1
188692,-100,4,2,0,70,0,0
202746,-100,4,1,0,70,0,0
203432,-100,4,2,0,70,0,1
204374,-100,4,2,0,70,0,0

[Colours]
Combo1 : 192,192,192
Combo2 : 0,128,64
Combo3 : 128,128,255

[HitObjects]
128,80,22416,1,2
128,80,22758,2,0,B|79:147|118:241,2,150,2|0|2
219,199,24301,6,0,B|298:276,1,100,0|2
290,269,24815,1,0
368,208,25158,1,2
440,280,25501,2,0,B|489:213|450:119,2,150,0|2|0
360,344,26872,5,2
360,344,27043,2,0,B|200:333,1,150,2|0
160,328,27729,1,0
47,228,28243,2,0,B|119:188|137:100,1,150,2|0
202,245,29271,6,0,B|275:41,2,200,2|0|2
123,306,30985,2,0,B|93:144,2,150,0|2|0
216,342,32356,6,0,B|271:317|311:379|381:333,2,150,2|0|2
363,342,34070,1,4
313,148,34756,5,2
313,148,34927,2,0,B|409:124|426:20,3,150,2|0|0|2
271,17,36984,1,2
136,83,37498,6,0,B|184:296,1,200,0|2
251,349,38526,1,0
280,253,38869,1,2
303,155,39212,6,0,B|475:182,2,150,0|2|0
244,73,40583,2,0,B|81:99,2,150,2|0|2
257,172,41954,6,0,B|282:227|220:267|266:337,2,150,0|2|0
256,318,43668,1,4
147,84,44696,5,2
246,72,45039,1,8
246,72,45211,2,0,B|336:96|426:70,1,150,2|8
394,77,45896,1,2
320,207,46410,5,8
320,207,46582,2,0,B|401:229|456:321,1,150,2|8
438,294,47267,1,2
289,313,47781,5,8
289,313,47953,2,0,B|217:264|224:155,1,150,2|8
223,184,48638,1,2
217,33,49153,5,8
217,33,49324,2,0,B|167:89|77:100,1,150,2|8
85,98,50009,1,2
85,98,50181,1,2
82,198,50524,5,8
82,198,50695,2,0,B|151:234|167:298,2,100,2|2|2
169,149,51895,5,8
169,149,52066,2,0,B|238:113|254:49,2,100,2|2|2
256,192,52923,12,2,54637
496,168,55665,5,2
485,77,56008,1,8
485,77,56180,2,0,B|341:147,1,150,2|8
154,103,57379,5,8
154,103,57551,2,0,B|298:33,1,150,2|8
197,214,58750,5,8
197,214,58922,2,0,B|53:284,1,150,2|8
255,328,60122,5,8
255,328,60293,2,0,B|399:258,1,150,2|8
389,262,60978,1,2
389,262,61150,1,2
415,165,61493,5,8
415,165,61664,2,0,B|484:201|500:265,2,100,2|2|2
324,44,62864,5,8
324,44,63035,2,0,B|255:80|239:144,2,100,2|2|2
256,192,63892,12,2,65606
20,48,66292,6,0,B|129:28,1,100,8|2
76,121,66977,1,8
76,121,67149,2,0,B|244:92,1,150,2|8
212,144,67834,2,0,B|380:115,1,150,2|8
341,164,68520,2,0,B|509:135,1,150,2|8
463,235,69377,2,0,B|295:264,3,150,2|4|4|4
197,352,71433,1,2
146,266,71776,6,2,B|37:246,1,100,8|2
117,175,72462,1,8
117,175,72633,2,0,B|285:146,1,150,2|8
242,105,73319,2,0,B|410:76,1,150,2|8
309,19,74176,2,0,B|389:7,1,50,2|2
430,143,74861,2,4,B|433:219|520:302,2,150
295,291,76575,5,8
203,331,76918,1,2
203,331,77089,1,0
203,331,77261,1,8
215,232,77603,5,2
115,217,77946,1,8
115,217,78117,2,0,B|68:69,1,150,2|8
69,74,78803,1,2
210,125,79317,1,8
210,125,79489,2,0,B|324:102,1,100,2|2
335,253,80346,2,0,B|487:268,3,150,4|4|4|4
438,125,82402,1,2
352,73,82745,6,2,B|237:90,1,100,8|2
157,55,83431,1,8
157,55,83602,1,2
65,173,84116,1,8
65,173,84288,1,2
123,311,84802,1,8
123,311,84973,1,2
215,193,85487,5,8
215,193,85659,1,2
256,336,86173,1,8
256,336,86344,1,2
349,218,86858,1,8
349,218,87030,1,2
301,75,87544,1,8
301,75,87715,2,0,L|145:88,1,150,2|8
68,143,88572,5,4
119,229,88915,1,8
119,229,89086,2,0,L|95:379,1,150,2|8
195,370,89943,2,0,L|317:353,1,100,2|8
229,279,90629,1,2
229,279,90800,2,0,L|399:285,4,150,2|4|4|4|4
237,138,93371,5,2
309,206,93714,1,8
342,111,94057,1,2
437,140,94400,1,8
437,140,94571,2,0,B|463:201|459:299,1,150,2|8
360,273,95428,5,2
295,349,95771,1,8
202,312,96113,1,2
202,312,96285,2,0,B|141:338|33:322,3,150,2|4|4|4
116,134,98513,5,8
86,229,98856,1,2
116,134,99198,1,8
202,83,99541,6,0,B|321:96,1,100,2|8
276,137,100055,2,0,B|443:156,1,150,2|8
443,200,100741,2,0,B|276:181,1,150,2|8
243,178,101427,2,0,B|237:228|166:266,1,100,2|2
86,141,102284,5,4
213,61,102798,1,4
351,117,103312,1,4
356,266,103826,1,4
221,331,104340,5,2
221,331,104512,2,0,B|147:281|55:281,1,150,2|2
26,197,105369,1,8
26,197,105540,2,0,B|107:187|173:121,1,150,2|8
154,84,106225,2,0,B|340:69,1,150,2|8
389,123,107082,1,2
389,123,107254,1,2
376,272,107768,5,4
256,184,108282,1,4
136,280,108796,1,4
192,144,109311,1,4
320,144,109739,1,4
256,192,109996,12,0,111881
256,192,112053,12,4,113281
147,300,135218,5,2
246,312,135561,1,8
246,312,135733,2,0,B|336:288|426:314,1,150,2|8
394,306,136418,1,2
320,177,136932,5,8
320,177,137104,2,0,B|401:155|456:63,1,150,2|8
438,90,137789,1,2
289,71,138303,5,8
289,71,138475,2,0,B|217:120|224:229,1,150,2|8
223,200,139160,1,2
217,351,139675,5,8
217,351,139846,2,0,B|167:295|77:284,1,150,2|8
85,286,140532,1,2
85,286,140703,1,2
82,186,141046,5,8
82,186,141217,2,0,B|151:150|167:86,2,100,2|2|2
169,235,142417,5,8
169,235,142588,2,0,B|238:271|254:335,2,100,2|2|2
256,192,143445,12,2,145159
485,307,146187,5,2
485,307,146530,1,8
485,307,146702,2,0,B|341:237,1,150,2|8
154,281,147901,5,8
154,281,148073,2,0,B|298:351,1,150,2|8
197,170,149272,5,8
197,170,149444,2,0,B|53:100,1,150,2|8
255,56,150644,5,8
255,56,150815,2,0,B|399:126,1,150,2|8
389,121,151501,1,2
389,121,151672,1,2
415,219,152015,5,8
415,219,152186,2,0,B|484:183|500:119,2,100,2|2|2
324,340,153386,5,8
324,340,153557,2,0,B|255:304|239:240,2,100,2|2|2
256,192,154414,12,2,156128
492,336,156814,6,0,B|383:356,1,100,8|2
436,263,157499,1,8
436,263,157671,2,0,B|268:292,1,150,2|8
300,240,158356,2,0,B|132:269,1,150,2|8
171,220,159042,2,0,B|3:249,1,150,2|8
49,149,159899,2,0,B|217:120,3,150,2|4|4|4
315,32,161955,1,2
366,118,162298,6,2,B|475:138,1,100,8|2
395,209,162984,1,8
395,209,163155,2,0,B|227:238,1,150,2|8
270,279,163841,2,0,B|102:308,1,150,2|8
203,365,164698,2,0,B|123:377,1,50,2|2
82,241,165383,2,4,B|79:165|-8:82,2,150
217,93,167097,5,8
309,53,167440,1,2
309,53,167611,1,0
309,53,167783,1,8
297,152,168125,5,2
397,167,168468,1,8
397,167,168640,2,0,B|444:315,1,150,2|8
443,310,169325,1,2
302,259,169839,1,8
302,259,170011,2,0,B|188:282,1,100,2|2
177,131,170868,2,0,B|25:116,3,150,4|4|4|4
74,259,172924,1,2
160,311,173267,6,2,B|275:294,1,100,8|2
355,329,173953,1,8
355,329,174124,1,2
447,211,174638,1,8
447,211,174810,1,2
389,73,175324,1,8
389,73,175495,1,2
297,191,176009,5,8
297,191,176181,1,2
256,48,176695,1,8
256,48,176866,1,2
163,166,177381,1,8
163,166,177552,1,2
211,309,178066,1,8
211,309,178237,2,0,L|367:296,1,150,2|8
444,241,179094,5,4
352,201,179437,1,8
352,201,179609,2,0,L|376:36,1,150,2|8
283,8,180466,2,0,L|161:25,1,100,2|8
235,107,181151,1,2
235,107,181322,2,0,L|73:83,4,150,2|4|4|4|4
275,246,183893,5,2
203,178,184236,1,8
170,273,184579,1,2
75,244,184922,1,8
75,244,185093,2,0,B|49:183|53:85,1,150,2|8
152,111,185950,5,2
217,35,186293,1,8
310,72,186636,1,2
310,72,186807,2,0,B|371:46|479:62,3,150,2|4|4|4
396,250,189035,5,8
426,155,189378,1,2
396,250,189721,1,8
310,301,190063,6,0,B|191:288,1,100,2|8
236,247,190578,2,0,B|69:228,1,150,2|8
69,184,191263,2,0,B|236:203,1,150,2|8
269,206,191949,2,0,B|275:156|346:118,1,100,2|2
426,243,192806,5,4
299,323,193320,1,4
161,267,193834,1,4
156,118,194348,1,4
291,53,194862,5,2
291,53,195034,2,0,B|365:103|457:103,1,150,2|2
486,187,195891,1,8
486,187,196062,2,0,B|405:197|339:263,1,150,2|8
358,300,196748,2,0,B|172:315,1,150,2|8
123,261,197605,1,2
123,261,197776,1,2
160,112,198290,5,4
256,224,198804,1,4
360,112,199318,1,4
320,256,199833,1,4
192,256,200261,1,4
256,192,200518,12,0,202403
176,136,203432,5,4
336,136,203775,1,4
256,264,204117,1,4
256,264,204289,1,4
