osu file format v12

[General]
AudioFilename: Caramelo de Cianuro - Verano.mp3
AudioLeadIn: 0
PreviewTime: 46796
Countdown: 0
SampleSet: Soft
StackLeniency: 0.7
Mode: 0
LetterboxInBreaks: 0

[Editor]
DistanceSpacing: 1
BeatDivisor: 4
GridSize: 4

[Metadata]
Title:Verano
TitleUnicode:Verano
Artist:Caramelos de Cianuro
ArtistUnicode:Caramelos de Cianuro
Creator:mancusojuanmattos
Version:Insane
Source:
Tags:punk Summer
BeatmapID:211229
BeatmapSetID:74341

[Difficulty]
HPDrainRate:7
CircleSize:4
OverallDifficulty:7
ApproachRate:8
SliderMultiplier:2.2
SliderTickRate:2

[Events]
//Background and Video events
Video,385,"Summercito.avi"
0,0,"169.jpg",1,1
//Break Periods
2,75556,81787
//Storyboard Layer 0 (Background)
//Storyboard Layer 1 (Fail)
//Storyboard Layer 2 (Pass)
//Storyboard Layer 3 (Foreground)
//Storyboard Sound Samples
//Background Colour Transformations
3,100,163,162,255

[TimingPoints]
2980,476.758045292014,4,2,0,30,1,0
2980,-117.647058823529,4,2,0,30,0,0
10608,-105.263157894737,4,2,0,30,0,0
18236,476.379515680826,4,2,0,40,1,0
31564,476.001586671956,4,2,0,40,1,0
33468,-100,4,2,0,70,0,0
48700,-100,4,2,0,70,0,1
75356,476.379515680826,4,2,0,70,1,0
113466,-100,4,2,0,70,0,1
124892,476.190476190476,4,2,0,70,1,1
140124,476.001586671956,4,2,0,70,1,0
155356,-80,4,2,0,70,0,1
157270,476.001586671956,4,2,0,70,1,1
157270,-80,4,2,0,70,0,1
161088,476.001586671956,4,2,0,70,1,1
161088,-80,4,2,0,70,0,1
180128,-100,4,2,0,40,0,1
181556,-100,4,2,0,30,0,1
182508,-100,4,2,0,20,0,0
182746,-100,4,2,0,5,0,0

[Colours]
Combo1 : 255,100,100
Combo2 : 0,117,0
Combo3 : 117,117,0
Combo4 : 0,0,193

[HitObjects]
256,52,2980,1,0,0:0:0:0:
332,108,3218,1,0,0:0:0:0:
303,196,3456,1,2,0:0:0:0:
209,196,3695,1,2,0:0:0:0:
180,108,3933,1,0,0:0:0:0:
192,16,4171,2,0,P|145:21|109:49,1,93.500001783371,0|2,0:0|0:0,0:0:0:0:
180,108,4648,1,0,0:0:0:0:
116,176,4887,6,0,L|64:260,1,93.500001783371
108,340,5363,2,0,L|157:260,1,93.500001783371,2|0,0:0|0:0,0:0:0:0:
208,340,5840,2,0,L|257:260,1,93.500001783371,2|0,0:0|0:0,0:0:0:0:
288,112,6317,5,8,0:3:0:0:
196,96,6555,1,8,0:3:0:0:
108,132,6794,1,8,0:3:0:0:
208,256,7032,5,0,0:0:0:0:
296,284,7270,2,0,P|288:328|300:374,1,93.500001783371,2|0,0:0|0:0,0:0:0:0:
380,324,7746,2,0,P|424:332|470:319,1,93.500001783371,0|0,0:0|0:0,0:0:0:0:
416,244,8224,2,0,P|424:200|411:153,1,93.500001783371,2|0,0:0|0:0,0:0:0:0:
340,92,8700,1,0,0:0:0:0:
256,52,8938,1,0,0:0:0:0:
172,92,9177,1,2,0:0:0:0:
196,184,9416,1,0,0:0:0:0:
196,184,9654,2,0,P|256:244|316:184,1,187.000003566742,2|0,0:0|0:0,0:0:0:0:
256,112,10369,1,0,0:0:0:0:
84,184,10608,5,0,0:0:0:0:
96,288,10846,2,0,P|128:328|182:346,1,104.499997209549,0|2,0:0|0:0,0:0:0:0:
256,276,11323,1,0,0:0:0:0:
416,288,11561,2,0,P|384:328|335:346,1,104.499997209549
332,240,12038,1,2,0:0:0:0:
420,184,12276,1,0,0:0:0:0:
412,80,12515,2,0,P|368:64|311:72,1,104.499997209549
256,160,12991,2,0,P|199:168|155:152,1,104.499997209549,2|0,0:0|0:0,0:0:0:0:
100,64,13468,2,0,P|56:48|0:56,1,104.499997209549,2|0,0:0|0:0,0:0:0:0:
92,244,13945,5,8,0:3:0:0:
256,372,14183,1,8,0:3:0:0:
420,244,14422,1,8,0:3:0:0:
464,152,14660,5,0,0:0:0:0:
420,244,14898,2,0,P|376:212|358:166,1,104.499997209549,2|0,0:0|0:0,0:0:0:0:
216,92,15375,2,0,P|260:124|278:170,2,104.499997209549,0|0|2,0:0|0:0|0:0,0:0:0:0:
120,56,16090,1,0,0:0:0:0:
52,136,16329,6,0,P|72:236|163:272,1,208.999994419098,2|0,0:0|0:0,0:0:0:0:
256,224,17044,1,2,0:0:0:0:
256,328,17282,1,0,0:0:0:0:
349,272,17521,2,0,P|440:236|460:136,1,208.999994419098,2|0,0:0|0:0,0:0:0:0:
356,100,18236,6,0,B|290:88|258:136|226:180|153:163,1,220,2|0,0:0|0:0,0:0:0:0:
184,268,18950,2,0,B|256:284|288:240|320:192|386:204,1,220,2|0,0:0|0:0,0:0:0:0:
496,212,19665,2,0,P|488:268|454:307,1,110,2|0,0:0|0:0,0:0:0:0:
348,336,20141,1,2,0:0:0:0:
256,276,20379,1,0,0:0:0:0:
164,336,20617,1,0,0:0:0:0:
72,272,20856,2,0,P|108:180|212:128,1,220,2|0,0:0|0:0,0:0:0:0:
392,32,21570,5,8,0:3:0:0:
272,204,21808,1,8,0:3:0:0:
480,200,22047,1,8,0:3:0:0:
340,288,22285,6,0,P|296:316|240:312,2,110,0|2|0,0:0|0:0|0:0,0:0:0:0:
272,204,22999,2,0,P|168:208|116:300,1,220,0|2,0:0|0:0,0:0:0:0:
200,376,23714,2,0,P|224:336|212:276,1,110,0|2,0:0|0:0,0:0:0:0:
176,24,24190,2,0,P|152:64|164:124,1,110,0|2,0:0|0:0,0:0:0:0:
264,80,24667,2,0,P|320:80|358:114,2,110,0|2|0,0:0|0:0|0:0,0:0:0:0:
80,204,25381,5,8,0:3:0:0:
292,148,25619,1,8,0:3:0:0:
240,364,25858,1,8,0:3:0:0:
432,260,26334,5,0,0:0:0:0:
432,368,26572,2,0,B|358:371|346:311|336:259|258:251,1,220,2|0,0:0|0:0,0:0:0:0:
172,176,27287,1,2,0:0:0:0:
16,40,27525,2,0,P|72:52|106:89,1,110
172,176,28001,2,0,P|206:213|262:225,1,110,0|0,0:0|0:0,0:0:0:0:
268,116,28478,2,0,P|280:60|428:32,1,220,2|0,0:0|0:0,0:0:0:0:
464,240,29192,5,8,0:3:0:0:
256,312,29430,1,8,0:3:0:0:
48,240,29669,1,8,0:3:0:0:
80,136,29907,6,0,P|108:92|157:65,1,110,2|0,0:0|0:0,0:0:0:0:
268,48,30383,2,0,P|376:48|448:128,1,220,2|0,0:0|0:0,0:0:0:0:
464,240,31098,2,0,P|412:228|376:186,1,110,2|0,0:0|0:0,0:0:0:0:
204,152,31564,5,2,0:0:0:0:
120,220,31802,2,0,L|28:280,1,110,0|0,0:0|0:0,0:0:0:0:
160,332,32278,2,0,L|252:272,1,110,2|0,0:0|0:0,0:0:0:0:
92,184,32754,2,0,L|0:244,1,110,0|2,0:0|0:0,0:0:0:0:
188,368,33230,2,0,L|280:308,1,110,2|0,0:0|0:0,0:0:0:0:
380,264,33706,5,8,0:3:0:0:
432,192,33944,1,0,1:0:0:0:
356,84,34182,5,2,0:0:0:0:
292,144,34420,1,0,0:0:0:0:
92,196,34658,5,8,0:3:0:0:
154,133,34896,1,0,1:0:0:0:
216,70,35134,1,2,0:0:0:0:
44,300,35372,6,0,P|96:324|145:313,1,110,0|2,0:0|0:0,0:0:0:0:
256,240,35848,1,0,1:0:0:0:
366,313,36086,2,0,P|416:324|468:300,1,110,2|0,0:0|0:0,0:0:0:0:
404,212,36562,2,0,P|415:162|391:110,1,110,8|0,0:3|1:0,0:0:0:0:
296,56,37038,1,2,0:0:0:0:
136,132,37276,5,0,0:0:0:0:
28,124,37514,2,0,P|40:76|84:36,1,110,2|0,0:0|1:0,0:0:0:0:
192,24,37990,1,0,0:0:0:0:
296,56,38228,1,2,0:0:0:0:
304,164,38466,1,8,0:3:0:0:
208,216,38704,1,0,1:0:0:0:
136,132,38942,1,0,0:0:0:0:
296,56,39180,6,0,L|204:116,1,110,2|8,0:0|0:3,0:0:0:0:
116,276,39656,2,0,L|208:216,1,110,0|0,1:0|0:0,0:0:0:0:
268,20,40132,2,0,L|176:80,1,110,2|8,0:0|0:3,0:0:0:0:
144,312,40608,2,0,L|236:252,1,110,0|0,1:0|0:0,0:0:0:0:
376,144,41084,5,2,0:0:0:0:
484,128,41322,1,8,0:3:0:0:
500,236,41560,1,0,1:0:0:0:
408,300,41798,2,0,P|356:296|312:260,1,110,2|0,0:0|0:0,0:0:0:0:
200,260,42274,2,0,P|156:296|104:300,1,110,8|0,0:3|1:0,0:0:0:0:
116,192,42750,1,2,0:0:0:0:
260,88,42988,5,0,0:0:0:0:
312,260,43226,1,8,0:3:0:0:
168,156,43464,1,0,1:0:0:0:
344,156,43702,1,2,0:0:0:0:
200,260,43940,1,0,0:0:0:0:
52,356,44178,2,0,P|104:368|160:344,1,110,2|0,0:0|1:0,0:0:0:0:
356,347,44654,2,0,P|408:368|460:356,2,110,0|2|0,0:0|0:0|0:0,0:0:0:0:
436,144,45368,5,0,1:0:0:0:
256,272,45606,1,2,0:0:0:0:
76,144,45844,1,0,0:0:0:0:
256,20,46082,1,8,0:3:0:0:
256,30,46320,1,0,1:0:0:0:
256,272,46796,5,0,0:0:0:0:
360,128,47034,2,0,P|308:112|256:128,1,110,2|0,0:0|0:0,0:0:0:0:
152,128,47510,2,0,P|204:112|256:128,1,110,0|2,0:0|0:0,0:0:0:0:
204,224,47986,2,0,P|256:240|308:224,1,110,2|0,0:0|0:0,0:0:0:0:
428,40,48700,6,0,L|455:146,1,110,4|0,0:0|0:0,0:0:0:0:
428,344,49176,2,0,L|455:237,2,110,0|0|0,1:0|0:0|0:0,0:0:0:0:
320,344,49890,1,2,0:0:0:0:
212,340,50128,1,0,1:0:0:0:
140,260,50366,1,2,0:0:0:0:
16,136,50604,6,0,P|48:96|101:76,1,110,0|8,0:0|0:3,0:0:0:0:
208,100,51080,2,0,P|176:140|122:159,2,110,0|0|0,1:0|0:0|0:0,0:0:0:0:
300,36,51794,1,2,0:0:0:0:
408,20,52032,1,0,1:0:0:0:
456,120,52270,1,0,0:0:0:0:
280,132,52508,6,0,P|324:164|340:215,1,110,4|2,0:0|0:0,0:0:0:0:
436,372,52984,2,0,P|392:340|375:288,1,110,0|0,1:0|0:0,0:0:0:0:
476,244,53460,1,0,0:0:0:0:
256,212,53698,1,2,0:0:0:0:
36,244,53936,1,0,1:0:0:0:
208,128,54174,6,0,P|256:104|304:128,1,110,2|0,0:0|0:0,0:0:0:0:
304,284,54650,2,0,P|256:307|208:283,1,110,8|0,0:3|1:0,0:0:0:0:
124,212,55126,5,0,0:0:0:0:
64,148,55364,1,2,0:0:0:0:
128,32,55602,5,8,0:3:0:0:
184,100,55840,1,0,1:0:0:0:
364,128,56078,5,0,0:0:0:0:
308,60,56316,1,4,0:0:0:0:
472,200,56554,6,0,P|420:192|368:220,1,110,2|0,0:0|1:0,0:0:0:0:
292,295,57030,2,0,P|242:269|190:277,1,110,0|2,0:0|0:0,0:0:0:0:
112,355,57506,2,0,P|62:329|10:337,2,110,2|0|2,0:0|1:0|0:0,0:0:0:0:
220,364,58220,1,0,0:0:0:0:
328,372,58458,6,0,P|368:340|381:284,1,110,2|0,0:0|1:0,0:0:0:0:
308,204,58934,2,0,P|268:236|254:291,2,110,0|2|0,0:0|0:0|0:0,0:0:0:0:
404,148,59648,2,0,P|488:100|426:25,1,220,0|4,1:0|0:0,0:0:0:0:
256,20,60362,5,2,0:0:0:0:
152,60,60600,2,0,P|164:120|204:160,1,110,0|0,1:0|0:0,0:0:0:0:
304,312,61076,2,0,P|292:252|252:212,1,110,2|2,0:0|0:0,0:0:0:0:
80,280,61552,2,0,P|140:268|180:228,1,110,0|4,1:0|0:0,0:0:0:0:
488,32,62266,5,2,0:0:0:0:
456,136,62504,2,0,L|404:232,1,110,0|0,1:0|0:0,0:0:0:0:
336,144,62980,2,0,L|388:48,2,110,2|8|0,0:0|0:3|1:0,0:0:0:0:
240,196,63694,1,0,1:0:0:0:
216,219,63813,1,0,1:0:0:0:
192,242,63932,5,4,0:0:0:0:
128,332,64170,2,0,P|80:308|52:260,1,110,2|0,0:0|1:0,0:0:0:0:
52,150,64646,2,0,P|80:102|128:78,1,110,0|2,0:0|0:0,0:0:0:0:
284,28,65122,1,8,0:3:0:0:
392,20,65360,1,0,1:0:0:0:
436,120,65598,1,0,0:0:0:0:
280,208,65836,5,2,0:0:0:0:
384,240,66074,2,0,P|360:292|314:314,1,110,8|0,0:3|1:0,0:0:0:0:
197,314,66550,2,0,P|152:292|128:240,1,110,2|0,0:0|0:0,0:0:0:0:
64,148,67026,1,8,0:3:0:0:
4,56,67264,1,0,1:0:0:0:
108,24,67502,1,0,0:0:0:0:
248,128,67740,6,0,L|360:100,1,110,4|0,0:0|0:0,0:0:0:0:
444,164,68216,2,0,L|337:190,1,110,0|0,1:0|0:0,0:0:0:0:
174,190,68692,2,0,L|68:164,2,110,0|2|0,0:0|0:0|1:0,0:0:0:0:
160,300,69406,2,0,B|200:352|256:312|256:312|312:352|352:300,1,220,2|8,0:0|0:3,0:0:0:0:
300,204,70120,5,0,1:0:0:0:
376,41,70358,1,2,0:0:0:0:
413,215,70596,1,0,0:0:0:0:
283,97,70834,1,2,0:0:0:0:
459,116,71072,1,0,1:0:0:0:
300,204,71310,1,0,0:0:0:0:
116,84,71548,6,0,L|28:152,1,110,4|2,0:0|0:0,0:0:0:0:
104,356,72024,2,0,L|191:288,1,110,0|0,1:0|0:0,0:0:0:0:
208,180,72500,1,0,0:0:0:0:
296,116,72738,1,8,0:3:0:0:
384,180,72976,1,0,1:0:0:0:
292,240,73214,1,0,0:0:0:0:
120,204,73452,6,0,P|88:164|84:107,1,110,2|0,0:0|0:0,0:0:0:0:
236,16,73928,2,0,P|268:56|271:112,1,110,0|0,1:0|0:0,0:0:0:0:
420,276,74404,1,2,0:0:0:0:
216,356,74642,1,0,0:0:0:0:
204,136,74880,1,0,1:0:0:0:
408,56,75118,1,0,1:0:0:0:
408,56,75237,1,0,1:0:0:0:
408,56,75356,1,4,0:0:0:0:
204,308,82978,6,0,P|256:324|308:308,1,110,2|0,0:0|0:0,0:0:0:0:
256,212,83454,1,0,1:0:0:0:
156,168,83692,1,0,0:0:0:0:
184,64,83930,1,0,0:0:0:0:
312,60,84169,1,2,0:0:0:0:
352,160,84407,1,0,1:0:0:0:
256,212,84645,1,2,0:0:0:0:
100,292,84883,5,0,0:0:0:0:
32,204,85121,2,0,P|4:160|-8:104,1,110,0|0,0:0|1:0,0:0:0:0:
160,48,85598,2,0,P|188:92|200:148,1,110,0|2,0:0|0:0,0:0:0:0:
164,252,86074,1,8,0:3:0:0:
256,360,86312,1,0,1:0:0:0:
328,200,86550,6,0,P|432:200|472:104,1,220,2|8,0:0|0:3,0:0:0:0:
364,84,87265,2,0,P|328:44|274:31,1,110,0|0,1:0|0:0,0:0:0:0:
256,140,87741,2,0,P|243:193|203:229,1,110,2|0,0:0|0:0,0:0:0:0:
152,132,88218,1,0,1:0:0:0:
28,252,88456,1,0,0:0:0:0:
168,360,88694,5,4,0:0:0:0:
380,308,88932,1,8,0:3:0:0:
448,100,89171,1,2,1:2:0:0:
356,44,89409,6,0,P|316:80|303:133,1,110,2|0,0:0|0:0,0:0:0:0:
303,242,89885,2,0,P|290:295|250:331,1,110,0|0,0:0|1:0,0:0:0:0:
156,272,90361,1,0,0:0:0:0:
36,144,90600,5,2,0:0:0:0:
224,32,90838,1,8,0:3:0:0:
228,252,91076,1,0,1:0:0:0:
156,172,91314,6,0,P|196:140|252:131,1,110,2|0,0:0|0:0,0:0:0:0:
328,215,91791,2,0,P|320:272|288:312,1,110,8|0,0:3|1:0,0:0:0:0:
180,336,92267,1,2,0:0:0:0:
28,244,92505,5,0,0:0:0:0:
44,136,92743,2,0,P|68:88|117:64,1,110,8|0,0:3|1:0,0:0:0:0:
224,88,93220,2,0,P|200:137|152:161,2,110,2|0|8,0:0|0:0|0:3,0:0:0:0:
316,32,93934,1,0,1:0:0:0:
416,76,94172,2,0,P|472:164|418:254,1,220,2|0,0:0|0:0,0:0:0:0:
256,276,94887,1,0,1:0:0:0:
93,254,95125,2,0,P|40:164|96:76,1,220,2|0,0:0|0:0,0:0:0:0:
200,36,95840,1,0,1:0:0:0:
308,64,96078,1,0,0:0:0:0:
160,160,96316,5,4,0:0:0:0:
336,292,96554,1,8,0:3:0:0:
484,128,96793,1,0,1:0:0:0:
412,44,97031,2,0,P|356:44|307:65,1,110,2|0,0:0|0:0,0:0:0:0:
307,174,97507,2,0,P|356:195|412:195,2,110,8|0|2,0:3|1:0|0:0,0:0:0:0:
160,80,98222,5,0,0:0:0:0:
52,100,98460,1,0,0:0:0:0:
52,208,98698,1,2,1:2:0:0:
124,288,98936,2,0,P|176:268|202:223,1,110
256,124,99413,1,8,0:3:0:0:
309,223,99651,2,0,P|336:268|388:288,1,110,2|0,1:2|0:0,0:0:0:0:
460,208,100127,1,0,0:0:0:0:
420,52,100365,6,0,L|314:20,1,110,0|2,0:0|1:2,0:0:0:0:
197,20,100842,2,0,L|92:52,1,110,0|0,0:0|0:0,0:0:0:0:
92,161,101318,2,0,L|197:129,1,110,0|2,0:0|1:2,0:0:0:0:
308,128,101795,1,0,0:0:0:0:
400,280,102033,5,0,0:0:0:0:
312,344,102271,2,0,P|256:352|212:324,1,110,0|2,0:0|1:2,0:0:0:0:
268,228,102747,2,0,P|224:200|168:208,1,110
104,296,103224,1,2,0:0:0:0:
12,232,103462,1,2,1:2:0:0:
52,128,103700,1,0,0:0:0:0:
204,212,103938,6,0,L|304:156,1,110,2|0,0:0|0:0,0:0:0:0:
428,260,104415,2,0,L|332:313,1,110,0|0,1:0|0:0,0:0:0:0:
200,156,104891,2,0,L|300:100,1,110,2|0,0:0|0:0,0:0:0:0:
432,316,105367,2,0,L|336:369,1,110,0|0,1:0|0:0,0:0:0:0:
72,300,105844,5,0,0:0:0:0:
16,204,106082,1,8,0:3:0:0:
108,140,106320,1,2,1:2:0:0:
176,228,106558,2,0,P|228:216|274:185,1,110
352,107,107035,2,0,P|398:76|450:64,1,110,0|2,0:0|1:2,0:0:0:0:
484,168,107511,1,0,0:0:0:0:
400,324,107749,6,0,P|344:320|299:291,1,110,0|8,0:0|0:3,0:0:0:0:
112,324,108226,2,0,P|168:320|212:291,1,110,2|0,1:2|0:0,0:0:0:0:
376,224,108702,5,2,0:0:0:0:
440,58,108940,1,0,0:0:0:0:
292,154,109178,1,2,1:2:0:0:
469,163,109417,1,0,0:0:0:0:
332,48,109655,1,2,0:0:0:0:
308,282,109893,5,0,0:0:0:0:
372,116,110131,1,2,1:2:0:0:
224,212,110369,1,0,0:0:0:0:
401,221,110608,1,0,0:0:0:0:
264,106,110846,1,0,0:0:0:0:
308,282,111084,1,0,1:0:0:0:
36,348,111799,6,0,L|116:268,1,110,2|0,0:0|0:0,0:0:0:0:
108,160,112275,2,0,L|30:82,2,110,0|2|0,0:0|0:0|0:0,0:0:0:0:
204,212,112989,1,2,0:0:0:0:
448,328,113466,6,0,P|428:284|440:224,1,110,4|2,0:0|0:0,0:0:0:0:
495,33,113942,2,0,P|515:77|504:136,1,110,0|0,1:0|0:0,0:0:0:0:
404,92,114419,1,2,0:0:0:0:
300,60,114657,1,0,0:0:0:0:
256,160,114895,1,0,1:0:0:0:
136,288,115133,6,0,P|224:352|336:336,1,220,2|8,0:0|0:3,0:0:0:0:
424,280,115848,2,0,P|336:216|230:228,1,220,0|0,1:0|0:0,0:0:0:0:
136,288,116562,2,0,P|92:264|64:212,1,110,2|0,0:0|1:0,0:0:0:0:
92,108,117039,1,0,0:0:0:0:
256,40,117277,6,0,P|308:52|360:32,1,110,4|2,0:0|0:0,0:0:0:0:
468,16,117753,1,0,1:0:0:0:
492,124,117991,2,0,P|480:176|500:228,1,110,0|2,0:0|0:0,0:0:0:0:
400,360,118468,2,0,P|412:308|392:256,1,110,8|0,0:3|1:0,0:0:0:0:
356,64,118944,6,0,P|256:24|156:64,1,220,2|2,0:0|0:0,0:0:0:0:
156,176,119659,2,0,P|256:216|356:176,1,220,0|2,1:0|0:0,0:0:0:0:
444,244,120373,2,0,P|408:292|352:312,1,110,8|0,0:3|1:0,0:0:0:0:
256,316,120850,1,0,0:0:0:0:
68,244,121088,6,0,P|104:292|148:310,2,110,4|2|0,0:0|0:0|1:0,0:0:0:0:
60,132,121803,1,0,0:0:0:0:
60,24,122041,1,2,0:0:0:0:
168,40,122279,1,8,0:3:0:0:
204,144,122517,2,0,P|256:160|308:144,1,110,0|2,1:0|0:0,0:0:0:0:
344,40,122993,1,0,0:0:0:0:
360,216,123232,6,0,P|324:256|311:309,1,110,2|0,0:0|1:0,0:0:0:0:
200,309,123708,2,0,P|188:256|152:216,2,110,2|0|0,0:0|0:0|0:0,0:0:0:0:
256,216,124423,1,0,1:0:0:0:
256,203,124892,5,4,0:0:0:0:
164,140,125130,2,0,P|164:84|200:48,1,110,2|0,0:0|1:0,0:0:0:0:
312,48,125606,2,0,P|348:84|348:140,1,110,0|2,0:0|0:0,0:0:0:0:
256,204,126082,1,0,0:0:0:0:
200,300,126320,1,0,1:0:0:0:
312,300,126558,1,4,0:0:0:0:
44,36,127034,5,2,0:0:0:0:
152,16,127272,1,0,1:0:0:0:
124,124,127511,2,0,L|156:232,2,110,0|2|0,0:0|0:0|0:0,0:0:0:0:
228,92,128225,1,0,1:0:0:0:
305,169,128463,1,0,1:0:0:0:
328,192,128582,1,0,1:0:0:0:
351,215,128701,5,4,0:0:0:0:
396,316,128939,2,0,P|340:320|292:292,1,110,2|0,0:0|1:0,0:0:0:0:
116,316,129415,2,0,P|172:320|220:292,1,110,0|2,0:0|0:0,0:0:0:0:
144,212,129891,1,2,0:0:0:0:
256,108,130130,1,0,1:0:0:0:
368,212,130368,1,2,0:0:0:0:
204,44,130606,6,0,P|256:28|308:44,1,110,0|8,0:0|0:3,0:0:0:0:
364,140,131082,2,0,P|380:192|364:244,1,110,0|0,1:0|0:0,0:0:0:0:
308,336,131558,2,0,P|256:352|204:336,1,110,2|8,0:0|0:3,0:0:0:0:
148,244,132034,2,0,P|132:192|148:140,1,110,0|0,1:0|0:0,0:0:0:0:
276,260,132511,6,0,L|376:316,1,110,4|2,0:0|0:0,0:0:0:0:
500,212,132987,2,0,L|404:159,1,110,0|0,1:0|0:0,0:0:0:0:
272,316,133463,2,0,L|372:372,1,110,2|8,0:0|0:3,0:0:0:0:
504,156,133939,2,0,L|408:103,1,110,0|2,1:0|0:0,0:0:0:0:
256,20,134415,5,0,0:0:0:0:
148,44,134653,1,8,0:3:0:0:
160,152,134892,2,0,B|200:204|256:164|256:164|312:204|352:152,1,220,0|2,1:0|0:0,0:0:0:0:
364,44,135606,1,0,0:0:0:0:
256,92,135844,2,0,L|256:316,1,220,0|4,1:0|0:0,0:0:0:0:
80,324,136558,6,0,L|12:237,1,110,2|0,0:0|1:0,0:0:0:0:
24,60,137034,2,0,P|84:152|188:164,1,220,4|0,0:0|0:0,0:0:0:0:
188,56,137749,2,0,P|240:56|290:82,1,110,0|0,1:0|0:0,0:0:0:0:
448,172,138225,6,0,P|396:172|345:145,2,110,2|8|0,0:0|0:3|1:0,0:0:0:0:
432,64,138939,1,2,0:0:0:0:
272,160,139177,1,0,0:0:0:0:
348,328,139415,1,8,0:3:0:0:
164,328,139653,1,0,1:0:0:0:
64,172,139892,1,0,1:0:0:0:
36,152,140011,1,0,1:0:0:0:
28,120,140124,5,4,0:0:0:0:
136,96,140362,1,2,0:0:0:0:
236,56,140600,2,0,P|292:52|336:80,1,110,0|0,1:0|0:0,0:0:0:0:
412,160,141076,2,0,P|456:188|512:184,1,110,0|2,0:0|0:0,0:0:0:0:
484,76,141552,1,0,1:0:0:0:
412,160,141790,1,2,0:0:0:0:
444,332,142028,5,0,0:0:0:0:
336,356,142266,1,2,0:0:0:0:
308,248,142504,2,0,P|256:232|204:248,1,110,0|0,1:0|0:0,0:0:0:0:
176,356,142980,1,2,0:0:0:0:
68,332,143218,1,0,0:0:0:0:
100,228,143456,2,0,P|84:176|100:124,1,110,0|0,1:0|0:0,0:0:0:0:
256,40,143932,6,0,P|272:92|256:144,1,110,4|0,0:0|0:0,0:0:0:0:
256,144,144408,1,0,1:0:0:0:
256,144,144646,1,0,0:0:0:0:
316,228,144884,2,0,P|416:264|500:192,1,220,2|0,0:0|1:0,0:0:0:0:
388,160,145598,2,0,L|444:376,1,220,2|8,0:0|0:3,0:0:0:0:
444,372,146312,1,0,1:0:0:0:
328,340,146550,1,2,0:0:0:0:
220,368,146788,1,0,0:0:0:0:
112,228,147026,2,0,P|164:240|200:292,2,110,0|0|0,0:0|1:0|0:0,0:0:0:0:
80,236,147621,1,0,1:0:0:0:
60,264,147740,5,4,0:0:0:0:
108,364,147978,1,2,0:0:0:0:
220,368,148216,1,0,1:0:0:0:
320,320,148454,2,0,P|372:308|412:270,1,110,2|2,0:0|0:0,0:0:0:0:
400,160,148930,2,0,P|348:172|308:210,2,110,0|0|0,0:0|1:0|0:0,0:0:0:0:
504,124,149644,5,0,0:0:0:0:
428,44,149882,1,8,0:3:0:0:
320,32,150120,1,0,1:0:0:0:
212,40,150358,2,0,P|164:76|148:121,1,110,2|0,0:0|0:0,0:0:0:0:
248,164,150834,1,8,0:3:0:0:
356,140,151072,1,0,1:0:0:0:
464,168,151310,2,0,P|393:248|290:229,1,220,2|0,0:0|0:0,0:0:0:0:
356,140,152024,5,0,1:0:0:0:
444,328,152262,1,2,0:0:0:0:
236,312,152500,1,0,0:0:0:0:
148,244,152738,6,0,L|64:164,1,110,2|0,0:0|1:0,0:0:0:0:
48,60,153214,1,0,0:0:0:0:
156,80,153452,2,0,L|235:155,1,110,2|0,0:0|0:0,0:0:0:0:
372,44,153928,5,0,1:0:0:0:
448,124,154166,2,0,P|448:176|408:220,1,110,2|0,0:0|0:0,0:0:0:0:
368,320,154642,1,0,1:0:0:0:
328,356,154761,1,0,1:0:0:0:
292,364,154880,1,0,1:0:0:0:
256,356,154999,1,0,1:0:0:0:
220,364,155118,1,0,1:0:0:0:
184,356,155237,1,0,1:0:0:0:
144,320,155356,5,4,0:0:0:0:
76,204,155594,2,0,P|120:152|184:154,1,137.5,2|0,0:0|1:0,0:0:0:0:
327,154,156070,2,0,P|392:152|436:204,1,137.5,0|2,0:0|0:0,0:0:0:0:
308,256,156546,1,2,0:0:0:0:
256,128,156784,1,0,1:0:0:0:
204,256,157022,1,2,0:0:0:0:
68,84,157270,5,0,0:0:0:0:
256,16,157508,1,8,0:3:0:0:
444,84,157746,1,0,1:0:0:0:
480,216,157984,2,0,P|428:264|420:336,1,137.5,0|2,0:0|0:0,0:0:0:0:
280,340,158460,2,0,P|236:288|168:280,1,137.5,8|0,0:3|1:0,0:0:0:0:
28,260,158936,1,0,0:0:0:0:
223,148,159174,5,4,0:0:0:0:
18,49,159412,1,2,0:0:0:0:
125,241,159650,1,0,1:0:0:0:
152,24,159888,1,0,0:0:0:0:
0,184,160126,1,2,0:0:0:0:
223,148,160364,5,2,0:0:0:0:
416,40,160602,1,0,1:0:0:0:
444,260,160840,1,2,0:0:0:0:
492,124,161088,5,0,0:0:0:0:
356,148,161326,1,8,3:0:0:0:
351,152,161445,1,0,0:0:0:0:
346,156,161564,1,0,1:0:0:0:
228,236,161802,1,2,0:0:0:0:
188,104,162040,2,0,L|56:36,1,137.5,0|2,0:0|0:0,0:0:0:0:
8,168,162516,2,0,L|130:230,1,137.5,0|0,1:0|0:0,0:0:0:0:
324,336,162992,6,0,P|392:324|456:352,2,137.5,4|2|0,0:0|0:0|1:0,0:0:0:0:
188,336,163706,2,0,P|120:324|56:352,2,137.5,0|2|8,0:0|0:0|0:3,0:0:0:0:
168,200,164420,1,0,1:0:0:0:
304,28,164658,5,4,0:0:0:0:
304,28,164896,1,0,0:0:0:0:
434,88,165134,1,2,0:0:0:0:
512,200,165372,1,0,1:0:0:0:
380,236,165610,1,0,0:0:0:0:
304,124,165848,1,2,0:0:0:0:
176,72,166086,1,0,0:0:0:0:
120,196,166324,5,0,1:0:0:0:
123,200,166562,1,0,0:0:0:0:
126,204,166800,1,4,0:0:0:0:
200,320,167038,1,2,0:0:0:0:
200,320,167157,1,0,0:0:0:0:
200,320,167276,1,0,1:0:0:0:
336,296,167514,5,0,0:0:0:0:
440,256,167752,1,2,0:0:0:0:
488,100,167990,5,8,0:3:0:0:
392,152,168228,1,0,1:0:0:0:
308,40,168466,6,0,P|180:52|164:180,1,275,4|0,0:0|0:0,0:0:0:0:
212,308,169180,1,0,1:0:0:0:
324,228,169418,2,0,P|384:196|464:192,1,137.5,0|2,0:0|0:0,0:0:0:0:
484,324,169894,1,0,1:0:0:0:
456,328,170013,1,0,1:0:0:0:
432,312,170132,1,0,0:0:0:0:
340,100,170370,5,0,1:0:0:0:
316,84,170489,1,0,1:0:0:0:
288,88,170608,1,4,0:0:0:0:
240,216,170846,1,2,0:0:0:0:
156,108,171084,2,0,P|96:80|40:124,1,137.5,0|0,1:0|0:0,0:0:0:0:
0,252,171560,2,0,P|60:280|113:242,1,137.5,2|2,0:0|0:0,0:0:0:0:
212,152,172036,1,0,1:0:0:0:
416,64,172274,6,0,P|464:176|392:300,1,275,2|8,0:0|0:3,0:0:0:0:
256,324,172988,1,0,1:0:0:0:
132,264,173226,2,0,P|144:208|112:132,1,137.5,2|0,0:0|0:0,0:0:0:0:
256,20,173702,2,0,P|227:92|239:148,1,137.5,8|0,0:3|1:0,0:0:0:0:
368,96,174178,1,0,0:0:0:0:
508,268,174416,5,4,0:0:0:0:
400,356,174654,2,0,P|340:348|292:292,1,137.5,2|0,0:0|1:0,0:0:0:0:
194,194,175130,2,0,P|146:138|86:130,1,137.5,0|2,0:0|0:0,0:0:0:0:
80,268,175606,1,2,0:0:0:0:
192,352,175844,1,0,1:0:0:0:
292,156,176082,6,0,P|340:40|464:68,1,275,2|8,0:0|0:3,0:0:0:0:
420,200,176796,1,0,1:0:0:0:
396,336,177034,2,0,P|328:336|280:288,1,137.5,2|0,0:0|0:0,0:0:0:0:
92,128,177510,2,0,P|160:128|207:174,1,137.5,0|0,0:0|1:0,0:0:0:0:
92,248,177986,1,2,0:0:0:0:
344,228,178224,5,4,0:0:0:0:
444,132,178462,1,0,1:0:0:0:
429,117,178581,1,0,1:0:0:0:
414,102,178700,1,0,1:0:0:0:
399,87,178819,1,0,1:0:0:0:
384,72,178938,1,2,0:0:0:0:
256,24,179176,1,8,0:3:0:0:
120,28,179414,1,0,0:0:0:0:
32,136,179652,1,0,1:0:0:0:
46,150,179771,1,0,1:0:0:0:
60,164,179890,1,2,0:0:0:0:
384,304,180366,5,0,1:0:0:0:
436,132,180604,1,0,1:0:0:0:
292,236,180842,1,0,1:0:0:0:
468,236,181080,1,0,1:0:0:0:
324,132,181318,1,0,1:0:0:0:
384,208,181556,1,0,1:0:0:0:
256,192,181794,12,0,182746,0:0:0:0:
