osu file format v12

[General]
AudioFilename: Caramelo de Cianuro - Verano.mp3
AudioLeadIn: 0
PreviewTime: 46796
Countdown: 0
SampleSet: Soft
StackLeniency: 0.7
Mode: 0
LetterboxInBreaks: 0

[Editor]
DistanceSpacing: 1
BeatDivisor: 4
GridSize: 4

[Metadata]
Title:Verano
TitleUnicode:Verano
Artist:Caramelos de Cianuro
ArtistUnicode:Caramelos de Cianuro
Creator:mancusojuanmattos
Version:Hard
Source:
Tags:punk Summer
BeatmapID:211228
BeatmapSetID:74341

[Difficulty]
HPDrainRate:6
CircleSize:4
OverallDifficulty:6
ApproachRate:7
SliderMultiplier:1.8
SliderTickRate:2

[Events]
//Background and Video events
Video,385,"Summercito.avi"
0,0,"169.jpg",1,1
//Break Periods
2,75556,81787
//Storyboard Layer 0 (Background)
//Storyboard Layer 1 (Fail)
//Storyboard Layer 2 (Pass)
//Storyboard Layer 3 (Foreground)
//Storyboard Sound Samples
//Background Colour Transformations
3,100,163,162,255

[TimingPoints]
2980,476.758045292014,4,2,0,30,1,0
2980,-117.647058823529,4,2,0,30,0,0
10608,-105.263157894737,4,2,0,30,0,0
18236,476.379515680826,4,2,0,40,1,0
31564,476.001586671956,4,2,0,40,1,0
33468,-100,4,2,0,70,0,0
48700,-100,4,2,0,70,0,1
66193,-100,4,2,2,60,0,1
66431,-100,4,2,0,70,0,1
75356,476.379515680826,4,2,0,70,1,0
103343,-100,4,2,2,60,0,0
103581,-100,4,2,0,70,0,0
113466,-100,4,2,0,70,0,1
123351,-100,4,2,2,60,0,1
123589,-100,4,2,0,70,0,1
124892,476.190476190476,4,2,0,70,1,1
130963,-100,4,2,2,60,0,1
131201,-100,4,2,0,70,0,1
140124,476.001586671956,4,2,0,70,1,0
150001,-100,4,2,2,60,0,0
150239,-100,4,2,0,70,0,0
155356,-100,4,2,0,70,0,1
157270,476.001586671956,4,2,0,70,1,1
161088,476.001586671956,4,2,0,70,1,1
180128,-100,4,2,0,40,0,1
181556,-100,4,2,0,30,0,1
182508,-100,4,2,0,20,0,0
182746,-100,4,2,0,5,0,0

[Colours]
Combo1 : 255,100,100
Combo2 : 0,117,0
Combo3 : 117,117,0
Combo4 : 0,0,193

[HitObjects]
196,272,2980,2,0,P|256:312|316:272,1,153.000002918243,0|2,0:0|0:0,0:0:0:0:
316,112,3933,2,0,P|256:72|196:112,1,153.000002918243,0|2,0:0|0:0,0:0:0:0:
64,192,4887,1,0,0:0:0:0:
216,196,5363,6,0,P|252:204|292:196,1,76.5000014591217,2|0,0:0|0:0,0:0:0:0:
352,148,5840,2,0,P|388:140|428:148,1,76.5000014591217,2|0,0:0|0:0,0:0:0:0:
392,216,6317,1,8,0:3:0:0:
352,280,6555,1,8,0:3:0:0:
280,312,6794,6,0,B|204:280|204:336|132:304,1,153.000002918243,8|2,0:3|0:0,0:0:0:0:
48,176,7747,2,0,P|128:176|167:230,1,153.000002918243,0|2,0:0|0:0,0:0:0:0:
345,230,8701,2,0,P|384:176|464:176,1,153.000002918243,0|2,0:0|0:0,0:0:0:0:
420,240,9416,1,0,0:0:0:0:
376,304,9654,2,0,P|456:304|495:250,1,153.000002918243,2|0,0:0|0:0,0:0:0:0:
456,80,10608,6,0,P|408:76|373:89,1,85.4999977169037
300,132,11084,2,0,P|256:140|216:133,1,85.4999977169037,2|0,0:0|0:0,0:0:0:0:
138,89,11561,2,0,P|104:76|56:80,1,85.4999977169037
84,160,12038,1,2,0:0:0:0:
44,324,12515,6,0,B|84:332|84:332|128:325,2,85.4999977169037,0|0|2,0:0|0:0|0:0,0:0:0:0:
88,252,13230,1,0,0:0:0:0:
172,256,13468,2,0,B|212:248|212:248|256:256,2,85.4999977169037,0|0|8,0:0|0:0|0:3,0:0:0:0:
212,328,14183,1,8,0:3:0:0:
296,340,14422,6,0,P|376:356|440:302,1,170.999995433807,8|2,0:3|0:0,0:0:0:0:
440,131,15375,2,0,P|375:77|295:93,1,170.999995433807,0|2,0:0|0:0,0:0:0:0:
68,100,16329,2,0,P|132:153|212:137,1,170.999995433807,2|0,0:0|0:0,0:0:0:0:
256,304,17282,1,0,0:0:0:0:
256,304,17759,1,0,0:0:0:0:
404,200,18236,6,0,P|384:116|301:91,1,180,2|0,0:0|0:0,0:0:0:0:
212,91,18950,2,0,P|129:115|109:199,1,180,2|0,0:0|0:0,0:0:0:0:
168,268,19665,2,0,B|212:280|256:256|256:256|300:280|341:268,2,180,0|2|0,0:0|0:0|0:0,0:0:0:0:
256,340,20856,2,0,B|276:288|256:252|236:208|256:164,1,180,0|2,0:0|0:0,0:0:0:0:
424,100,21808,1,0,0:0:0:0:
340,64,22047,6,0,B|285:83|285:83|232:24|176:54,1,180,2|0,0:0|0:0,0:0:0:0:
88,80,22761,1,0,0:0:0:0:
148,148,22999,2,0,P|104:220|124:308,1,180,0|2,0:0|0:0,0:0:0:0:
388,308,23952,2,0,P|408:220|364:148,1,180,2|0,0:0|0:0,0:0:0:0:
304,80,24667,1,0,0:0:0:0:
256,156,24905,1,2,0:0:0:0:
208,80,25143,1,0,0:0:0:0:
168,256,25619,6,0,B|224:264|224:264|256:256|296:248|296:248|345:255,1,180,2|0,0:0|0:0,0:0:0:0:
344,344,26334,1,0,0:0:0:0:
256,356,26572,2,0,B|249:306|249:306|257:266|265:234|265:234|257:178,1,180,2|0,0:0|0:0,0:0:0:0:
196,112,27287,2,0,P|256:56|316:112,1,180,2|0,0:0|0:0,0:0:0:0:
476,192,28239,5,0,0:0:0:0:
428,280,28478,2,0,B|380:304|344:280|344:280|304:256|256:280,1,180,2|0,0:0|0:0,0:0:0:0:
256,104,29430,2,0,B|208:128|168:104|168:104|132:80|84:104,1,180,2|2,0:0|0:0,0:0:0:0:
52,280,30383,2,0,P|160:208|292:244,1,270,2|0,0:0|0:0,0:0:0:0:
220,300,31336,1,0,0:0:0:0:
164,368,31564,1,2,0:0:0:0:
296,352,31802,6,0,P|340:356|380:336,1,90,0|0,0:0|0:0,0:0:0:0:
408,252,32278,2,0,P|412:208|404:164,1,90,0|2,0:0|0:0,0:0:0:0:
324,208,32754,2,0,P|310:166|308:121,1,90,0|0,0:0|0:0,0:0:0:0:
240,60,33230,1,0,0:0:0:0:
152,56,33468,5,0,0:0:0:0:
136,144,33706,2,0,P|104:172|88:224,1,90,8|0,0:3|1:0,0:0:0:0:
136,292,34182,2,0,P|120:335|88:363,2,90,2|0|8,0:0|0:0|0:3,0:0:0:0:
204,236,34896,1,0,1:0:0:0:
352,340,35372,5,0,0:0:0:0:
416,280,35610,2,0,L|460:196,1,90,2|0,0:0|1:0,0:0:0:0:
392,136,36086,2,0,L|350:215,2,90,2|0|8,0:0|0:0|0:3,0:0:0:0:
332,72,36800,1,0,1:0:0:0:
256,124,37038,1,0,0:0:0:0:
180,72,37276,5,2,0:0:0:0:
180,160,37514,1,8,0:3:0:0:
180,160,37752,2,0,P|256:200|333:159,2,180,0|2|0,1:0|0:0|1:0,0:0:0:0:
132,236,38942,2,0,P|168:264|210:275,1,90,0|2,0:0|0:0,0:0:0:0:
380,236,39418,2,0,P|344:264|301:275,1,90,0|0,0:0|1:0,0:0:0:0:
256,352,39894,5,2,0:0:0:0:
168,360,40132,1,0,0:0:0:0:
88,316,40370,1,8,0:3:0:0:
44,236,40608,2,0,P|32:192|36:148,1,90,0|0,1:0|0:0,0:0:0:0:
72,64,41084,6,0,P|168:60|216:128,1,180,2|0,0:0|1:0,0:0:0:0:
256,200,41798,1,0,0:0:0:0:
297,121,42036,2,0,P|344:60|440:64,2,180,2|0|0,0:0|1:0|0:0,0:0:0:0:
328,204,43226,6,0,P|312:248|272:272,1,90,2|0,0:0|1:0,0:0:0:0:
192,304,43702,1,0,0:0:0:0:
112,256,43940,2,0,P|158:194|254:198,2,180,2|0|2,0:0|1:0|0:0,0:0:0:0:
28,284,45130,1,8,0:3:0:0:
92,348,45368,1,0,1:0:0:0:
176,316,45606,1,0,0:0:0:0:
176,316,45844,2,0,B|224:344|264:320|300:296|351:314,1,180,2|0,0:0|1:0,0:0:0:0:
468,180,46796,5,0,0:0:0:0:
384,152,47034,2,0,L|336:76,1,90,2|0,0:0|0:0,0:0:0:0:
256,36,47510,2,0,L|256:128,1,90,0|2,0:0|0:0,0:0:0:0:
176,76,47986,2,0,L|128:152,1,90,2|0,0:0|0:0,0:0:0:0:
20,296,48700,6,0,P|108:304|177:251,1,180,4|0,0:0|1:0,0:0:0:0:
268,244,49414,2,0,P|256:288|227:321,2,90,2|0|2,0:0|0:0|0:0,0:0:0:0:
312,168,50128,1,0,1:0:0:0:
404,180,50366,6,0,P|384:96|292:76,1,180,2|8,0:0|0:3,0:0:0:0:
210,72,51080,2,0,P|128:96|108:180,1,180,0|0,1:0|0:0,0:0:0:0:
184,232,51794,1,2,0:0:0:0:
184,232,52032,2,0,P|256:184|324:232,1,180,0|4,1:0|0:0,0:0:0:0:
256,292,52746,5,2,0:0:0:0:
256,292,52984,1,0,1:0:0:0:
176,332,53222,2,0,P|132:328|93:305,1,90,2|0,0:0|0:0,0:0:0:0:
108,216,53698,2,0,P|69:193|25:189,2,90,2|0|0,0:0|1:0|0:0,0:0:0:0:
176,160,54412,6,0,P|108:112|8:104,2,180,2|0|2,0:0|1:0|0:0,0:0:0:0:
256,200,55602,1,8,0:3:0:0:
332,248,55840,2,0,P|400:296|494:305,2,180,0|2|0,1:0|0:0|1:0,0:0:0:0:
328,160,57030,2,0,P|328:116|302:79,1,90,2|0,0:0|0:0,0:0:0:0:
209,79,57506,2,0,P|184:116|184:160,1,90,8|0,0:3|1:0,0:0:0:0:
168,248,57982,6,0,B|256:232|256:288|344:264,1,180,2|0,0:0|0:0,0:0:0:0:
344,352,58696,2,0,P|256:368|168:352,2,180,0|2|0,1:0|0:0|1:0,0:0:0:0:
408,288,59886,1,0,0:0:0:0:
372,204,60124,6,0,P|301:149|256:72,1,180,2|0,0:0|1:0,0:0:0:0:
180,24,60838,2,0,P|180:104|232:192,1,180,8|2,0:3|0:0,0:0:0:0:
284,260,61552,2,0,P|312:296|320:338,1,90,0|4,1:0|0:0,0:0:0:0:
144,300,62266,6,0,P|112:268|68:252,1,90,2|0,0:0|1:0,0:0:0:0:
70,162,62742,2,0,P|111:146|143:114,1,90,0|2,0:0|0:0,0:0:0:0:
216,60,63218,2,0,P|264:60|304:40,1,90,8|0,0:3|1:0,0:0:0:0:
392,28,63694,1,0,1:0:0:0:
398,34,63813,1,0,1:0:0:0:
404,40,63932,5,4,0:0:0:0:
436,124,64170,2,0,L|412:212,1,90,2|0,0:0|1:0,0:0:0:0:
328,240,64646,2,0,L|304:328,1,90,0|2,0:0|0:0,0:0:0:0:
220,356,65122,2,0,P|176:360|136:380,1,90,8|0,0:3|1:0,0:0:0:0:
71,316,65598,2,0,P|91:276|95:232,1,90,0|2,0:0|0:0,0:0:0:0:
184,220,66074,6,0,P|184:132|144:48,1,180,8|0,0:3|0:0,0:0:0:0:
84,116,66788,2,0,P|172:116|260:76,1,180,2|0,0:0|1:0,0:0:0:0:
328,28,67502,1,0,0:0:0:0:
400,80,67740,5,4,0:0:0:0:
432,164,67978,2,0,P|388:164|347:184,1,90,2|0,0:0|1:0,0:0:0:0:
340,276,68454,2,0,P|299:296|255:296,1,90,0|2,0:0|0:0,0:0:0:0:
192,232,68930,2,0,P|148:232|107:252,1,90,0|0,0:0|1:0,0:0:0:0:
28,212,69406,2,0,P|104:160|189:147,1,180,2|8,0:0|0:3,0:0:0:0:
279,147,70120,2,0,P|364:134|440:82,2,180,0|2|0,1:0|0:0|1:0,0:0:0:0:
216,212,71310,1,0,0:0:0:0:
160,284,71548,6,0,L|216:361,1,90,4|8,0:0|0:3,0:0:0:0:
302,356,72024,2,0,L|354:283,1,90,0|0,1:0|0:0,0:0:0:0:
296,112,72738,2,0,P|255:129|215:113,1,90,8|0,0:3|1:0,0:0:0:0:
124,124,73214,1,0,0:0:0:0:
180,52,73452,6,0,P|256:12|333:53,2,180,2|0|0,0:0|1:0|0:0,0:0:0:0:
124,124,74642,1,0,0:0:0:0:
132,212,74880,1,0,1:0:0:0:
196,276,75118,2,0,P|216:264|226:245,2,45,0|0|4,1:0|1:0|0:0,0:0:0:0:
213,73,82978,6,0,P|256:88|296:72,1,90,4|0,0:0|0:0,0:0:0:0:
340,152,83454,2,0,P|256:180|172:152,1,180,0|0,1:0|0:0,0:0:0:0:
96,108,84169,1,2,0:0:0:0:
88,196,84407,2,0,P|116:280|88:364,2,180,0|2|0,1:0|0:0|1:0,0:0:0:0:
44,276,85598,2,0,L|232:276,1,180,2|8,0:0|0:3,0:0:0:0:
304,232,86312,1,0,1:0:0:0:
376,284,86550,6,0,P|452:240|494:160,1,180,2|0,0:0|0:0,0:0:0:0:
472,72,87265,1,0,1:0:0:0:
384,64,87503,2,0,P|308:108|265:187,1,180,2|8,0:0|0:3,0:0:0:0:
232,272,88218,2,0,P|164:328|76:332,1,180,0|2,1:0|0:0,0:0:0:0:
60,244,88932,5,0,0:0:0:0:
16,164,89171,1,0,1:0:0:0:
100,136,89409,2,0,P|144:144|182:123,1,90,2|0,0:0|0:3,0:0:0:0:
232,48,89885,1,8,0:3:0:0:
320,40,90123,2,0,P|364:52|393:84,1,90,0|0,1:0|0:0,0:0:0:0:
416,172,90600,6,0,P|436:256|372:312,1,180,2|0,0:0|1:0,0:0:0:0:
338,228,91314,2,0,B|288:228|256:256|256:256|224:228|172:228,1,180,2|8,0:0|0:3,0:0:0:0:
140,312,92029,2,0,P|76:256|96:172,1,180,0|0,1:0|0:0,0:0:0:0:
136,92,92743,6,0,P|168:64|212:48,1,90,2|0,0:0|1:0,0:0:0:0:
302,48,93220,2,0,P|346:63|378:91,1,90,0|2,0:0|0:0,0:0:0:0:
300,136,93696,1,8,0:3:0:0:
212,136,93934,1,0,1:0:0:0:
212,224,94172,2,0,B|212:296|256:296|304:296|304:372,1,180,2|0,0:0|0:0,0:0:0:0:
208,365,94887,1,0,1:0:0:0:
208,365,95125,2,0,B|208:296|256:296|300:296|300:224,1,180,2|8,0:0|0:3,0:0:0:0:
332,140,95840,2,0,P|255:99|179:139,1,180,0|4,1:0|0:0,0:0:0:0:
132,60,96554,6,0,P|168:32|210:21,1,90,2|0,0:0|1:0,0:0:0:0:
301,21,97031,2,0,P|344:32|380:60,1,90,0|2,0:0|0:0,0:0:0:0:
379,149,97507,2,0,P|343:177|300:188,1,90,8|0,0:3|1:0,0:0:0:0:
212,196,97984,2,0,P|169:207|133:235,1,90,2|0,0:0|0:0,0:0:0:0:
92,316,98460,1,8,0:3:0:0:
176,348,98698,2,0,P|224:348|256:324,1,90,2|0,1:2|0:0,0:0:0:0:
336,348,99174,2,0,P|288:348|256:324,1,90
256,232,99651,1,2,1:2:0:0:
420,316,100127,5,0,0:0:0:0:
456,232,100365,2,0,P|468:188|462:144,1,90,2|0,0:0|1:0,0:0:0:0:
384,188,100842,2,0,P|378:144|390:100,2,90,2|0|8,0:0|0:0|0:3,0:0:0:0:
332,260,101556,1,2,1:2:0:0:
256,216,101795,1,0,0:0:0:0:
176,256,102033,6,0,P|132:232|100:196,1,90,0|0,0:0|0:0,0:0:0:0:
108,112,102509,2,0,P|152:136|184:172,1,90,2|0,1:2|0:0,0:0:0:0:
256,216,102986,1,0,0:0:0:0:
244,128,103224,2,0,P|180:64|96:28,1,180,2|0,0:0|0:0,0:0:0:0:
28,84,103938,5,2,0:0:0:0:
28,264,104415,1,2,1:2:0:0:
192,340,104891,1,2,0:0:0:0:
280,332,105129,2,0,P|324:332|364:311,1,90,0|2,0:0|1:2,0:0:0:0:
392,224,105606,1,0,0:0:0:0:
392,224,105844,6,0,P|432:203|476:203,2,90,2|8|0,0:0|0:3|1:0,0:0:0:0:
308,188,106558,2,0,L|144:100,1,180,2|8,0:0|0:3,0:0:0:0:
76,152,107273,2,0,L|234:237,1,180,2|0,1:2|0:0,0:0:0:0:
164,292,107987,2,0,L|248:336,2,90,2|0|0,0:0|1:0|0:0,0:0:0:0:
120,372,108702,2,0,L|40:330,1,90,2|0,0:2|0:0,0:0:0:0:
34,239,109178,1,2,1:2:0:0:
34,148,109417,1,0,0:0:0:0:
84,72,109655,6,0,P|172:72|212:145,1,180,2|2,0:0|1:2,0:0:0:0:
256,224,110369,1,0,0:0:0:0:
300,145,110608,2,0,P|340:72|428:72,1,180,2|0,0:0|1:0,0:0:0:0:
300,304,111799,6,0,P|256:316|212:304,1,90,2|0,0:0|0:0,0:0:0:0:
172,228,112275,2,0,P|213:217|257:230,1,90,0|2,0:0|0:0,0:0:0:0:
343,228,112751,2,0,P|301:217|257:230,1,90,2|0,0:0|0:0,0:0:0:0:
84,176,113466,6,0,P|84:104|172:60,1,180,4|0,0:0|1:0,0:0:0:0:
260,72,114180,2,0,P|304:72|344:52,1,90,2|0,0:0|0:0,0:0:0:0:
424,92,114657,2,0,P|424:136|444:176,1,90,2|0,0:0|1:0,0:0:0:0:
388,248,115133,2,0,P|388:320|300:364,1,180,2|8,0:0|0:3,0:0:0:0:
209,364,115848,2,0,P|121:320|121:248,1,180,0|0,1:0|0:0,0:0:0:0:
172,176,116562,1,2,0:0:0:0:
172,176,116801,2,0,B|224:176|256:204|256:204|288:176|338:176,1,180,0|4,1:0|0:0,0:0:0:0:
380,96,117515,6,0,L|299:55,1,90,2|0,0:0|1:0,0:0:0:0:
212,55,117991,2,0,L|132:96,1,90,0|2,0:0|0:0,0:0:0:0:
68,160,118468,1,8,0:3:0:0:
16,232,118706,1,0,1:0:0:0:
100,264,118944,2,0,P|196:264|260:320,1,180,2|2,0:0|0:0,0:0:0:0:
192,374,119659,2,0,B|204:324|260:316|316:304|327:266,1,180,0|2,1:0|0:0,0:0:0:0:
368,184,120373,2,0,P|400:152|442:140,2,90,0|0|0,0:0|1:0|0:0,0:0:0:0:
444,232,121088,6,0,L|340:72,1,180,4|0,0:0|1:0,0:0:0:0:
256,64,121803,1,0,0:0:0:0:
166,81,122041,2,0,L|68:232,1,180,2|0,0:0|1:0,0:0:0:0:
108,312,122755,1,4,0:0:0:0:
184,360,122993,5,0,0:0:0:0:
200,272,123232,2,0,P|268:196|348:188,1,180,2|0,0:0|0:0,0:0:0:0:
428,168,123946,2,0,P|472:156|507:129,1,90,2|8,0:0|0:3,0:0:0:0:
496,40,124423,2,0,P|452:52|416:78,1,90,0|0,1:0|0:0,0:0:0:0:
348,136,124892,5,4,0:0:0:0:
268,100,125130,2,0,L|176:80,1,90,2|0,0:0|1:0,0:0:0:0:
132,156,125606,2,0,L|44:136,1,90,0|2,0:0|0:0,0:0:0:0:
24,224,126082,2,0,L|111:243,1,90,8|0,0:3|1:0,0:0:0:0:
200,268,126558,1,4,0:0:0:0:
356,356,127034,5,2,0:0:0:0:
356,356,127272,2,0,P|395:340|419:300,1,90,0|0,1:0|0:0,0:0:0:0:
496,252,127749,2,0,P|427:194|340:187,1,180,2|0,0:0|1:0,0:0:0:0:
256,156,128463,1,0,1:0:0:0:
248,151,128582,1,0,1:0:0:0:
240,146,128701,5,4,0:0:0:0:
168,88,128939,2,0,L|92:32,1,90,2|0,0:0|1:0,0:0:0:0:
8,16,129415,1,0,0:0:0:0:
24,104,129653,2,0,L|96:157,1,90,2|8,0:0|0:3,0:0:0:0:
128,240,130130,1,0,1:0:0:0:
168,320,130368,2,0,B|228:288|256:316|284:344|340:311,2,180,2|8|0,0:0|0:3|0:0,0:0:0:0:
128,240,131558,2,0,P|172:224|216:224,1,90,2|0,0:0|0:0,0:0:0:0:
297,223,132034,2,0,P|340:224|384:240,1,90,0|0,1:0|0:0,0:0:0:0:
432,316,132511,5,4,0:0:0:0:
496,252,132749,1,2,0:0:0:0:
464,168,132987,1,0,1:0:0:0:
384,128,133225,2,0,P|344:128|305:98,1,90,0|2,0:0|0:0,0:0:0:0:
256,24,133701,1,8,3:0:0:0:
206,98,133939,2,0,P|168:128|128:128,1,90,0|2,1:0|0:0,0:0:0:0:
140,40,134415,6,0,P|56:60|36:144,1,180,0|0,0:0|1:0,0:0:0:0:
35,232,135130,2,0,P|52:268|107:288,1,90,2|0,0:0|0:0,0:0:0:0:
185,288,135606,2,0,P|228:308|245:344,2,90,2|0|0,0:0|1:0|0:0,0:0:0:0:
144,208,136320,6,0,P|232:220|300:276,1,180,4|0,0:0|1:0,0:0:0:0:
332,360,137034,1,4,0:0:0:0:
456,232,137511,6,0,L|512:160,1,90,8|0,3:0|1:0,0:0:0:0:
468,80,137987,1,0,0:0:0:0:
396,24,138225,2,0,L|340:95,1,90,2|8,0:0|3:0,0:0:0:0:
252,100,138701,1,0,1:0:0:0:
284,184,138939,2,0,L|228:255,1,90,2|0,0:0|0:0,0:0:0:0:
140,268,139415,1,0,0:0:0:0:
200,336,139653,1,0,1:0:0:0:
112,352,139892,1,0,1:0:0:0:
112,352,140011,1,0,1:0:0:0:
112,352,140124,1,4,0:0:0:0:
44,296,140362,5,2,0:0:0:0:
72,212,140600,2,0,P|96:172|104:128,1,90,0|0,1:0|0:0,0:0:0:0:
136,48,141076,2,0,P|112:88|104:130,1,90,0|2,0:0|0:0,0:0:0:0:
192,124,141552,2,0,P|192:168|171:208,1,90,0|0,1:0|0:0,0:0:0:0:
128,288,142028,5,0,0:0:0:0:
216,272,142266,2,0,P|260:272|300:293,1,90,2|0,0:0|1:0,0:0:0:0:
376,240,142742,2,0,P|312:180|295:92,1,180,2|0,0:0|0:0,0:0:0:0:
336,12,143456,1,0,1:0:0:0:
424,32,143694,1,0,0:0:0:0:
368,96,143932,6,0,P|380:140|410:170,1,90,4|2,0:0|0:0,0:0:0:0:
500,192,144408,1,0,1:0:0:0:
440,260,144646,1,0,0:0:0:0:
352,268,144884,2,0,P|264:264|190:314,1,180,2|0,0:0|1:0,0:0:0:0:
108,280,145598,2,0,P|112:192|61:118,1,180,2|8,0:0|3:0,0:0:0:0:
0,52,146312,1,0,1:0:0:0:
88,36,146550,2,0,P|136:44|176:37,1,90,2|0,0:0|0:0,0:0:0:0:
256,76,147026,1,2,0:0:0:0:
336,37,147264,2,0,P|376:30|424:38,1,90,0|0,1:0|0:0,0:0:0:0:
428,45,147621,1,0,1:0:0:0:
431,53,147740,5,4,0:0:0:0:
456,140,147978,1,0,0:0:0:0:
480,228,148216,1,0,1:0:0:0:
412,284,148454,2,0,P|384:320|344:338,1,90,2|0,0:0|0:0,0:0:0:0:
300,260,148930,2,0,P|256:248|212:260,1,90,8|0,0:3|1:0,0:0:0:0:
167,338,149406,2,0,P|128:320|100:284,1,90,2|0,0:0|0:0,0:0:0:0:
96,192,149882,2,0,P|152:100|220:56,1,180,8|0,0:3|0:0,0:0:0:0:
296,32,150596,2,0,P|339:23|383:31,1,90,2|8,0:0|3:0,0:0:0:0:
428,108,151072,2,0,P|384:116|340:107,1,90,0|0,1:0|0:0,0:0:0:0:
296,184,151548,6,0,P|384:200|472:184,2,180,2|0|2,0:0|1:0|0:0,0:0:0:0:
216,132,152738,1,8,0:3:0:0:
216,132,152976,2,0,P|128:116|40:132,1,180,0|2,1:0|0:0,0:0:0:0:
256,308,153928,1,0,1:0:0:0:
256,308,154404,1,0,0:0:0:0:
256,220,154642,2,0,L|256:172,5,45,0|0|0|0|0|0,1:0|1:0|1:0|1:0|1:0|1:0,0:0:0:0:
256,132,155356,5,4,0:0:0:0:
312,60,155594,2,0,P|356:56|396:76,1,90,2|0,0:0|1:0,0:0:0:0:
459,139,156070,2,0,P|479:179|475:223,1,90,0|2,0:0|0:0,0:0:0:0:
388,196,156546,1,2,0:0:0:0:
404,284,156784,1,0,1:0:0:0:
316,304,157022,1,2,0:0:0:0:
292,216,157270,5,0,0:0:0:0:
200,220,157508,2,0,P|180:180|141:158,1,90,8|0,0:3|1:0,0:0:0:0:
64,108,157984,2,0,P|25:86|5:46,2,90,2|0|0,0:0|0:0|0:0,0:0:0:0:
64,196,158698,2,0,P|25:218|5:258,1,90,0|2,1:0|0:0,0:0:0:0:
68,320,159174,6,0,B|128:288|156:316|184:344|240:311,1,180,4|0,0:0|1:0,0:0:0:0:
212,224,159888,2,0,P|256:216|295:235,1,90,0|2,0:0|0:0,0:0:0:0:
328,320,160364,1,8,0:3:0:0:
392,380,160602,1,0,1:0:0:0:
460,320,160840,1,0,0:0:0:0:
392,260,161088,5,2,0:0:0:0:
256,140,161564,1,0,1:0:0:0:
192,76,161802,2,0,P|156:52|110:43,1,90,2|0,0:0|0:0,0:0:0:0:
36,92,162278,2,0,P|72:116|117:124,1,90,2|0,0:0|1:0,0:0:0:0:
120,216,162754,1,0,0:0:0:0:
168,292,162992,6,0,B|220:268|256:284|256:284|292:268|344:292,1,180,4|0,0:0|1:0,0:0:0:0:
300,368,163706,2,0,P|256:376|212:368,2,90,0|2|8,0:0|0:0|0:3,0:0:0:0:
388,360,164420,1,0,1:0:0:0:
460,308,164658,2,0,P|492:224|476:132,1,180,2|0,0:0|0:0,0:0:0:0:
420,68,165372,6,0,P|392:36|348:20,1,90,0|0,1:0|0:0,0:0:0:0:
336,108,165848,1,2,0:0:0:0:
256,152,166086,1,0,0:0:0:0:
176,108,166324,1,0,1:0:0:0:
163,20,166562,2,0,P|120:36|92:68,1,90,0|2,0:0|0:0,0:0:0:0:
91,158,167038,6,0,P|119:190|162:206,1,90,0|0,0:0|1:0,0:0:0:0:
256,212,167514,1,0,0:0:0:0:
340,244,167752,2,0,P|383:260|411:292,1,90,2|8,0:0|0:3,0:0:0:0:
347,356,168228,2,0,P|304:340|276:308,1,90,0|4,1:0|0:0,0:0:0:0:
192,272,168704,6,0,B|150:244|107:250|107:250|96:209|52:181,1,180,2|0,0:0|1:0,0:0:0:0:
84,96,169418,2,0,P|124:124|149:155,1,90
240,152,169894,1,0,1:0:0:0:
246,145,170013,1,0,1:0:0:0:
252,138,170132,1,0,0:0:0:0:
340,132,170370,2,0,L|368:88,2,45,0|0|4,1:0|1:0|1:2,0:0:0:0:
388,208,170846,5,2,0:0:0:0:
448,276,171084,1,0,1:0:0:0:
400,352,171322,2,0,B|372:352|372:352|348:352|314:329,1,90,0|2,0:0|0:0,0:0:0:0:
320,240,171798,2,0,B|286:217|262:217|262:217|234:217,1,90,2|0,0:0|1:0,0:0:0:0:
180,288,172274,6,0,P|76:264|44:204,1,180,2|8,0:0|0:3,0:0:0:0:
80,120,172988,1,0,1:0:0:0:
120,40,173226,2,0,L|212:32,1,90,2|0,0:0|0:0,0:0:0:0:
302,32,173702,2,0,L|392:40,1,90,0|0,0:3|1:0,0:0:0:0:
432,120,174178,1,0,0:0:0:0:
348,148,174416,6,0,P|312:180|300:232,1,90,4|2,0:0|0:0,0:0:0:0:
212,218,174892,2,0,P|200:180|164:148,2,90,0|0|2,1:0|0:0|0:0,0:0:0:0:
168,296,175606,1,8,0:3:0:0:
256,320,175844,1,0,1:0:0:0:
344,296,176082,6,0,P|408:232|436:148,1,180,2|8,0:0|0:3,0:0:0:0:
376,80,176796,1,0,1:0:0:0:
300,28,177034,2,0,P|256:20|212:28,1,90,2|0,0:0|0:0,0:0:0:0:
148,91,177510,2,0,P|116:123|96:162,1,90,8|0,0:3|1:0,0:0:0:0:
168,328,178224,6,0,B|220:352|256:336|256:336|292:352|344:328,1,180,4|0,0:0|1:0,0:0:0:0:
340,240,178938,2,0,B|290:216|254:232|254:232|218:216|166:240,1,180,2|0,0:0|1:0,0:0:0:0:
88,284,179652,1,0,1:0:0:0:
79,284,179771,1,0,1:0:0:0:
70,284,179890,1,0,0:0:0:0:
256,192,180128,12,0,182746,0:0:0:0:
