osu file format v12

[General]
AudioFilename: Caramelo de Cianuro - Verano.mp3
AudioLeadIn: 0
PreviewTime: 46796
Countdown: 0
SampleSet: Soft
StackLeniency: 0.7
Mode: 0
LetterboxInBreaks: 0

[Editor]
DistanceSpacing: 1
BeatDivisor: 4
GridSize: 4

[Metadata]
Title:Verano
TitleUnicode:Verano
Artist:Caramelos de Cianuro
ArtistUnicode:Caramelos de Cianuro
Creator:mancusojuanmattos
Version:Easy
Source:
Tags:punk Summer
BeatmapID:211227
BeatmapSetID:74341

[Difficulty]
HPDrainRate:2
CircleSize:3
OverallDifficulty:2
ApproachRate:3
SliderMultiplier:1.2
SliderTickRate:2

[Events]
//Background and Video events
Video,385,"Summercito.avi"
0,0,"169.jpg",1,1
//Break Periods
2,75556,81538
//Storyboard Layer 0 (Background)
//Storyboard Layer 1 (Fail)
//Storyboard Layer 2 (Pass)
//Storyboard Layer 3 (Foreground)
//Storyboard Sound Samples
//Background Colour Transformations
3,100,163,162,255

[TimingPoints]
2980,476.758045292014,4,2,0,30,1,0
2980,-117.647058823529,4,2,0,30,0,0
10608,-105.263157894737,4,2,0,30,0,0
18236,476.379515680826,4,2,0,40,1,0
31564,476.001586671956,4,2,0,40,1,0
33468,-100,4,2,0,70,0,0
37633,-100,4,2,2,60,0,0
37871,-100,4,2,0,70,0,0
41441,-100,4,2,2,60,0,0
41679,-100,4,2,0,70,0,0
43345,-100,4,2,2,60,0,0
43583,-100,4,2,0,70,0,0
48700,-100,4,2,0,70,0,1
50961,-100,4,2,2,60,0,1
51199,-100,4,2,0,70,0,1
56673,-100,4,2,2,60,0,1
56911,-100,4,2,0,70,0,1
57625,-100,4,2,2,60,0,1
57863,-100,4,2,0,70,0,1
73809,-100,4,2,2,60,0,1
74047,-100,4,2,0,70,0,1
74761,-100,4,2,2,60,0,1
74999,-100,4,2,0,70,0,1
75356,476.379515680826,4,2,0,70,1,0
83335,-100,4,2,2,60,0,0
83573,-100,4,2,0,70,0,0
85240,-100,4,2,2,60,0,0
85479,-100,4,2,0,70,0,0
87146,-100,4,2,2,60,0,0
87384,-100,4,2,0,70,0,0
89051,-100,4,2,2,60,0,0
89290,-100,4,2,0,70,0,0
90957,-100,4,2,2,60,0,0
91195,-100,4,2,0,70,0,0
92862,-100,4,2,2,60,0,0
93101,-100,4,2,0,70,0,0
94768,-100,4,2,2,60,0,0
95006,-100,4,2,0,70,0,0
113466,-100,4,2,0,70,0,1
118587,-100,4,2,2,60,0,1
118825,-100,4,2,0,70,0,1
121445,-100,4,2,2,60,0,1
121683,-100,4,2,0,70,0,1
122398,-100,4,2,2,60,0,1
122636,-100,4,2,0,70,0,1
124892,476.190476190476,4,2,0,70,1,1
136677,-100,4,2,2,60,0,1
136915,-100,4,2,0,70,0,1
138582,-100,4,2,2,60,0,1
138820,-100,4,2,0,70,0,1
140124,476.001586671956,4,2,0,70,1,0
145241,-100,4,2,2,60,0,0
145479,-100,4,2,0,70,0,0
147145,-100,4,2,2,60,0,0
147383,-100,4,2,0,70,0,0
150001,-100,4,2,2,60,0,0
150239,-100,4,2,0,70,0,0
155356,-100,4,2,0,70,0,1
157270,476.001586671956,4,2,0,70,1,1
158579,-100,4,2,2,60,0,1
158817,-100,4,2,0,70,0,1
161088,476.001586671956,4,2,0,70,1,1
163349,-100,4,2,2,60,0,1
163587,-100,4,2,0,70,0,1
170965,-100,4,2,2,60,0,1
171203,-100,4,2,0,70,0,1
176677,-100,4,2,2,60,0,1
176915,-100,4,2,0,70,0,1
178581,-100,4,2,2,60,0,1
178819,-100,4,2,0,70,0,1
180128,-100,4,2,0,40,0,1
181556,-100,4,2,0,30,0,1
182508,-100,4,2,0,20,0,0
182746,-100,4,2,0,5,0,0

[Colours]
Combo1 : 255,100,100
Combo2 : 0,117,0
Combo3 : 117,117,0
Combo4 : 0,0,193

[HitObjects]
168,280,2980,2,0,P|256:324|344:280,2,204.000003890991,0|2|0,0:0|0:0|0:0,0:0:0:0:
164,176,5363,2,0,B|224:164|256:204|256:204|288:164|348:176,1,204.000003890991,2|8,0:0|0:3,0:0:0:0:
436,228,6794,5,8,0:3:0:0:
464,128,7270,2,0,P|440:84|396:60,1,102.000001945496,2|0,0:0|0:0,0:0:0:0:
304,104,8224,2,0,P|256:120|208:104,1,102.000001945496,2|0,0:0|0:0,0:0:0:0:
116,60,9177,2,0,P|72:84|48:128,1,102.000001945496,2|2,0:0|0:0,0:0:0:0:
56,356,10608,6,0,P|112:348|156:304,1,113.999996955872,0|2,0:0|0:0,0:0:0:0:
233,229,11561,2,0,P|273:191|329:183,1,113.999996955872,0|2,0:0|0:0,0:0:0:0:
324,296,12515,1,0,0:0:0:0:
432,256,12991,2,0,P|480:228|508:176,1,113.999996955872,2|0,0:0|0:0,0:0:0:0:
480,68,13945,1,8,0:3:0:0:
372,32,14422,5,8,0:3:0:0:
140,32,15375,1,2,0:0:0:0:
256,228,16329,1,2,0:0:0:0:
184,140,16805,2,0,P|256:100|328:140,2,170.999995433807,0|2|2,0:0|0:0|0:0,0:0:0:0:
256,236,18712,5,0,0:0:0:0:
136,216,19188,2,0,L|40:144,2,120,2|0|2,0:0|0:0|0:0,0:0:0:0:
256,236,20617,1,0,0:0:0:0:
344,156,21094,2,0,P|428:132|488:192,2,180,0|2|0,0:0|0:0|0:0,0:0:0:0:
404,260,22999,6,0,P|448:300|512:308,2,120,0|2|2,0:0|0:0|0:0,0:0:0:0:
284,260,24428,1,0,0:0:0:0:
172,300,24905,2,0,P|116:280|76:236,1,120,2|8,0:0|0:3,0:0:0:0:
168,156,25858,6,0,P|128:112|72:92,2,120,8|0|2,0:3|0:0|0:0,0:0:0:0:
256,236,27287,1,0,0:0:0:0:
344,156,27763,2,0,P|384:112|440:92,1,120,2|0,0:0|0:0,0:0:0:0:
448,212,28716,2,0,P|492:252|512:308,1,120,2|8,0:0|0:3,0:0:0:0:
392,296,29669,6,0,P|339:267|280:267,1,120,8|0,0:3|0:0,0:0:0:0:
176,324,30621,1,2,0:0:0:0:
84,244,31098,1,0,0:0:0:0:
200,208,31564,1,2,0:0:0:0:
256,104,32040,2,0,P|316:108|376:76,1,120,0|2,0:0|0:0,0:0:0:0:
476,136,32992,2,0,P|472:196|504:256,1,120,0|0,0:0|0:0,0:0:0:0:
444,356,33944,5,0,1:0:0:0:
328,332,34420,2,0,B|296:312|270:331|236:352|213:326,1,120,0|0,0:0|1:0,0:0:0:0:
144,228,35372,2,0,B|112:248|86:228|52:208|29:233,1,120,0|0,0:0|1:0,0:0:0:0:
24,112,36324,1,2,0:0:0:0:
108,24,36800,1,0,1:0:0:0:
156,132,37276,6,0,B|204:172|204:172|256:128|308:172|308:172|356:132,1,240,2|2,0:0|0:0,0:0:0:0:
404,24,38704,1,0,1:0:0:0:
480,116,39180,2,0,P|440:156|440:224,1,120,2|0,0:0|1:0,0:0:0:0:
512,308,40132,2,0,P|472:348|404:348,1,120,2|0,0:0|1:0,0:0:0:0:
340,256,41084,6,0,P|256:228|172:256,2,180,2|2|0,0:0|0:0|1:0,0:0:0:0:
256,340,42988,2,0,L|256:96,1,240,2|2,0:0|0:0,0:0:0:0:
372,72,44416,5,0,1:0:0:0:
140,72,45368,1,0,1:0:0:0:
256,280,46320,1,0,1:0:0:0:
176,192,46796,6,0,P|256:156|336:192,2,180,0|2|0,0:0|0:0|0:0,0:0:0:0:
256,280,48700,5,4,0:0:0:0:
136,308,49176,1,0,1:0:0:0:
56,220,49652,2,0,L|32:100,1,120,2|0,0:0|1:0,0:0:0:0:
148,68,50604,2,0,B|220:56|256:104|256:104|292:56|364:68,1,240,2|0,0:0|0:0,0:0:0:0:
480,36,52032,1,0,1:0:0:0:
468,156,52508,6,0,P|448:212|388:244,1,120,4|0,0:0|1:0,0:0:0:0:
310,156,53460,2,0,P|256:178|200:156,1,120,2|0,0:0|1:0,0:0:0:0:
132,256,54412,2,0,P|184:280|196:344,1,120,2|0,0:0|1:0,0:0:0:0:
314,337,55364,2,0,P|328:280|380:256,1,120,2|0,0:0|1:0,0:0:0:0:
432,148,56316,6,0,B|356:172|324:72|324:72|256:176|188:72|188:72|156:172|80:148,1,480,2|2,0:0|0:0,0:0:0:0:
152,244,58696,2,0,P|256:296|360:244,2,240,0|0|0,1:0|1:0|1:0,0:0:0:0:
44,192,61076,5,2,0:0:0:0:
60,72,61552,2,0,L|120:36,1,60,0|4,1:0|0:0,0:0:0:0:
252,152,62504,6,0,P|312:152|368:116,1,120,0|0,1:0|0:0,0:0:0:0:
472,168,63456,2,0,P|472:228|508:284,1,120,0|4,1:0|0:0,0:0:0:0:
396,332,64408,5,0,1:0:0:0:
256,136,65360,1,0,1:0:0:0:
116,332,66312,1,0,1:0:0:0:
60,228,66788,2,0,P|40:172|60:112,2,120,2|0|0,0:0|1:0|0:0,0:0:0:0:
164,168,68216,6,0,P|220:188|280:168,1,120,0|0,1:0|0:0,0:0:0:0:
360,86,69168,2,0,P|416:66|471:83,1,120,0|2,1:0|0:0,0:0:0:0:
420,192,70120,1,0,1:0:0:0:
424,312,70596,2,0,P|364:316|317:281,1,120,2|0,0:0|1:0,0:0:0:0:
194,281,71548,6,0,P|148:316|88:312,2,120,4|0|2,0:0|1:0|0:0,0:0:0:0:
108,200,72976,1,0,1:0:0:0:
80,84,73452,6,0,B|156:60|188:160|188:160|256:56|324:160|324:160|356:60|432:84,1,480,2|4,0:0|0:0,0:0:0:0:
176,312,82978,6,0,P|256:348|336:312,2,180,2|2|0,0:0|0:0|1:0,0:0:0:0:
196,192,84883,2,0,P|116:156|36:192,2,180,2|2|0,0:0|0:0|1:0,0:0:0:0:
316,192,86789,2,0,P|396:156|476:192,2,180,2|2|0,0:0|0:0|1:0,0:0:0:0:
396,280,88694,6,0,L|396:40,1,240,2|0,0:0|0:0,0:0:0:0:
276,32,90123,1,0,1:0:0:0:
156,44,90600,2,0,P|68:44|12:128,2,180,2|2|0,0:0|0:0|1:0,0:0:0:0:
160,164,92505,2,0,P|248:164|301:96,2,180,2|2|0,0:0|0:0|1:0,0:0:0:0:
80,252,94411,6,0,P|152:280|252:272,2,180,2|2|0,0:0|0:0|1:0,0:0:0:0:
84,132,96316,1,4,0:0:0:0:
176,52,96793,1,0,1:0:0:0:
236,156,97269,2,0,P|296:148|348:104,1,120,2|0,0:0|1:0,0:0:0:0:
456,144,98222,6,0,P|464:204|508:256,2,120,0|2|0,0:0|1:2|0:0,0:0:0:0:
424,28,99651,1,2,1:2:0:0:
344,256,100604,5,2,1:2:0:0:
252,336,101080,2,0,P|192:348|136:312,1,120,0|2,0:0|1:2,0:0:0:0:
204,216,102033,2,0,P|154:188|94:200,2,120,0|2|0,0:0|1:2|0:0,0:0:0:0:
316,260,103462,1,2,1:2:0:0:
424,212,103938,6,0,L|456:80,1,120,2|0,0:0|1:0,0:0:0:0:
344,40,104891,2,0,L|315:156,1,120,2|0,0:0|1:0,0:0:0:0:
196,156,105844,2,0,L|168:40,2,120,0|2|0,0:0|1:2|0:0,0:0:0:0:
88,212,107273,2,0,L|59:95,2,120,2|0|2,1:2|0:0|1:2,0:0:0:0:
84,332,108702,6,0,P|144:340|196:312,1,120,0|2,0:0|1:2,0:0:0:0:
317,313,109655,2,0,P|368:340|428:332,1,120,0|2,0:0|1:2,0:0:0:0:
392,216,110608,2,0,L|408:156,2,60,0|0|0,0:0|0:0|1:0,0:0:0:0:
216,56,112037,6,0,P|168:92|110:103,2,120,2|0|2,0:0|0:0|0:0,0:0:0:0:
336,64,113466,6,0,P|332:124|305:176,1,120,4|0,0:0|1:0,0:0:0:0:
184,180,114419,1,2,0:0:0:0:
92,260,114895,1,0,1:0:0:0:
208,296,115371,2,0,P|256:328|304:296,1,120,2|0,0:0|1:0,0:0:0:0:
420,260,116324,1,2,0:0:0:0:
328,180,116800,1,0,1:0:0:0:
408,92,117277,6,0,P|368:52|301:36,1,120,4|0,0:0|1:0,0:0:0:0:
188,52,118230,2,0,P|204:132|128:176,2,180,2|2|0,0:0|0:0|1:0,0:0:0:0:
76,92,120135,2,0,P|28:128|16:188,1,120,2|0,0:0|1:0,0:0:0:0:
76,288,121088,6,0,B|140:192|184:336|256:168|256:168|328:336|372:192|440:288,1,480,4|0,0:0|0:0,0:0:0:0:
476,172,123470,6,0,P|416:176|384:132,1,120,0|2,1:0|0:0,0:0:0:0:
316,32,124423,1,0,1:0:0:0:
196,32,124892,1,4,0:0:0:0:
92,88,125368,2,0,L|8:192,1,120,0|0,1:0|0:0,0:0:0:0:
84,280,126320,2,0,L|120:232,1,60,0|4,1:0|0:0,0:0:0:0:
257,112,127272,6,0,B|324:164|368:108|408:52|478:87,1,240,0|0,1:0|1:0,0:0:0:0:
448,204,128701,5,4,0:0:0:0:
332,228,129177,2,0,P|272:224|220:251,1,120,0|2,1:0|0:0,0:0:0:0:
144,344,130130,2,0,P|95:376|35:378,1,120,0|2,1:0|0:0,0:0:0:0:
56,260,131082,1,0,1:0:0:0:
132,168,131558,2,0,P|179:134|239:132,1,120,2|0,0:0|1:0,0:0:0:0:
360,112,132511,5,4,0:0:0:0:
416,220,132987,1,0,1:0:0:0:
312,280,133463,2,0,P|256:300|200:280,1,120,2|0,0:0|1:0,0:0:0:0:
256,176,134415,2,0,P|200:156|145:175,1,120,2|0,0:0|1:0,0:0:0:0:
64,264,135368,2,0,L|20:324,2,60,2|8|0,0:0|0:3|1:0,0:0:0:0:
12,156,136320,6,0,P|4:92|96:40,1,180,4|4,0:0|0:0,0:0:0:0:
80,220,137749,2,0,B|144:316|188:172|260:340|260:340|332:172|376:316|444:220,1,480,0|0,1:0|1:0,0:0:0:0:
348,148,140124,1,4,0:0:0:0:
464,112,140600,6,0,P|492:60|483:1,1,120,0|2,1:0|0:0,0:0:0:0:
369,38,141552,2,0,P|341:90|349:148,1,120,0|2,1:0|0:0,0:0:0:0:
256,240,142504,1,0,1:0:0:0:
163,148,142980,2,0,P|171:90|143:38,1,120,2|0,0:0|1:0,0:0:0:0:
29,1,143932,6,0,P|20:60|48:112,1,120,4|0,0:0|1:0,0:0:0:0:
36,232,144884,2,0,P|60:316|144:320,2,180,2|2|0,0:0|0:0|1:0,0:0:0:0:
156,244,146788,2,0,P|237:249|261:333,2,180,2|2|0,0:0|0:0|1:0,0:0:0:0:
56,176,148692,5,2,0:0:0:0:
80,60,149168,1,0,1:0:0:0:
196,40,149644,2,0,P|288:36|348:96,2,180,2|0|0,0:0|0:0|1:0,0:0:0:0:
244,152,151548,2,0,P|200:192|192:252,2,120,2|0|2,0:0|1:0|0:0,0:0:0:0:
312,252,152976,1,0,1:0:0:0:
256,192,153214,12,4,155356,0:0:0:0:
196,40,156308,6,0,L|316:40,1,120,2|0,0:0|1:0,0:0:0:0:
352,156,157270,2,0,L|232:156,1,120,2|0,0:0|1:0,0:0:0:0:
124,208,158222,2,0,P|92:308|200:344,1,240,2|2,0:0|0:0,0:0:0:0:
314,345,159650,2,0,P|419:307|387:207,1,240,0|0,1:0|1:0,0:0:0:0:
436,96,161088,5,2,0:0:0:0:
336,28,161564,1,0,1:0:0:0:
311,145,162040,2,0,P|257:165|201:145,1,120,2|0,0:0|1:0,0:0:0:0:
176,28,162992,2,0,P|68:64|48:180,1,240,4|0,0:0|0:0,0:0:0:0:
100,280,164420,1,0,1:0:0:0:
216,312,164896,6,0,L|272:352,2,60,2|8|0,0:0|0:3|1:0,0:0:0:0:
224,192,165848,2,0,L|325:255,2,120,2|0|2,0:0|1:0|0:0,0:0:0:0:
120,136,167276,2,0,P|172:104|196:52,1,120,0|2,1:0|0:0,0:0:0:0:
316,52,168228,2,0,P|340:104|392:136,1,120,0|2,1:0|0:0,0:0:0:0:
496,196,169180,5,0,1:0:0:0:
428,292,169656,2,0,L|460:348,2,60,2|8|0,0:0|0:3|1:0,0:0:0:0:
340,208,170608,2,0,P|256:300|180:244,1,240,4|2,0:0|0:0,0:0:0:0:
76,192,172036,2,0,P|160:96|236:144,1,240,0|0,1:0|1:0,0:0:0:0:
348,104,173464,2,0,P|320:52|264:20,2,120,2|0|4,0:0|1:0|0:0,0:0:0:0:
348,223,174892,6,0,P|320:275|268:305,1,120,0|0,1:0|0:0,0:0:0:0:
148,305,175844,2,0,P|60:320|16:252,2,180,0|2|0,1:0|0:0|0:0,0:0:0:0:
112,192,177748,1,0,1:0:0:0:
172,88,178224,6,0,B|256:132|256:56|344:84,2,180,4|2|0,0:0|0:0|1:0,0:0:0:0:
256,192,180128,12,0,182746,0:0:0:0:
