osu file format v12

[General]
AudioFilename: Caramelo de Cianuro - Verano.mp3
AudioLeadIn: 0
PreviewTime: 46796
Countdown: 0
SampleSet: Soft
StackLeniency: 0.7
Mode: 0
LetterboxInBreaks: 0

[Editor]
DistanceSpacing: 1
BeatDivisor: 4
GridSize: 4

[Metadata]
Title:Verano
TitleUnicode:Verano
Artist:Caramelos de Cianuro
ArtistUnicode:Caramelos de Cianuro
Creator:mancusojuanmattos
Version:Normal
Source:
Tags:punk Summer
BeatmapID:211230
BeatmapSetID:74341

[Difficulty]
HPDrainRate:4
CircleSize:4
OverallDifficulty:4
ApproachRate:5
SliderMultiplier:1.5
SliderTickRate:2

[Events]
//Background and Video events
Video,385,"Summercito.avi"
0,0,"169.jpg",1,1
//Break Periods
2,75556,81778
//Storyboard Layer 0 (Background)
//Storyboard Layer 1 (Fail)
//Storyboard Layer 2 (Pass)
//Storyboard Layer 3 (Foreground)
//Storyboard Sound Samples
//Background Colour Transformations
3,100,163,162,255

[TimingPoints]
2980,476.758045292014,4,2,0,30,1,0
2980,-117.647058823529,4,2,0,30,0,0
10608,-105.263157894737,4,2,0,30,0,0
18236,476.379515680826,4,2,0,40,1,0
31564,476.001586671956,4,2,0,40,1,0
33468,-100,4,2,0,70,0,0
48700,-100,4,2,0,70,0,1
56673,-100,4,2,2,60,0,1
56911,-100,4,2,0,70,0,1
57625,-100,4,2,2,60,0,1
57863,-100,4,2,0,70,0,1
73809,-100,4,2,2,60,0,1
74047,-100,4,2,0,70,0,1
74761,-100,4,2,2,60,0,1
74999,-100,4,2,0,70,0,1
75356,476.379515680826,4,2,0,70,1,0
113466,-100,4,2,0,70,0,1
121445,-100,4,2,2,60,0,1
121683,-100,4,2,0,70,0,1
124892,476.190476190476,4,2,0,70,1,1
126201,-100,4,2,2,60,0,1
126439,-100,4,2,0,70,0,1
138582,-100,4,2,2,60,0,1
138820,-100,4,2,0,70,0,1
140124,476.001586671956,4,2,0,70,1,0
155356,-100,4,2,0,70,0,1
156665,-100,4,2,2,60,0,1
156903,-100,4,2,0,70,0,1
157270,476.001586671956,4,2,0,70,1,1
161088,476.001586671956,4,2,0,70,1,1
163349,-100,4,2,2,60,0,1
163587,-100,4,2,0,70,0,1
171917,-100,4,2,2,60,0,1
172155,-100,4,2,0,70,0,1
173821,-100,4,2,2,60,0,1
174059,-100,4,2,0,70,0,1
178581,-100,4,2,2,60,0,1
178819,-100,4,2,0,70,0,1
180128,-100,4,2,0,40,0,1
181556,-100,4,2,0,30,0,1
182508,-100,4,2,0,20,0,0
182746,-100,4,2,0,5,0,0

[Colours]
Combo1 : 255,100,100
Combo2 : 0,117,0
Combo3 : 117,117,0
Combo4 : 0,0,193

[HitObjects]
156,96,2980,2,0,P|92:96|44:134,1,127.50000243187,0|2,0:0|0:0,0:0:0:0:
80,256,3933,2,0,P|144:256|191:217,1,127.50000243187,0|2,0:0|0:0,0:0:0:0:
320,217,4887,2,0,P|368:256|432:256,2,127.50000243187,0|2|0,0:0|0:0|0:0,0:0:0:0:
420,132,6317,2,0,L|393:189,2,63.7500012159348,8|8|8,3:0|0:3|0:3,0:0:0:0:
316,60,7270,6,0,B|269:48|256:76|241:100|197:85,1,127.50000243187,2|0,0:0|0:0,0:0:0:0:
76,132,8224,2,0,P|60:192|80:252,1,127.50000243187,2|0,0:0|0:0,0:0:0:0:
196,300,9177,2,0,B|240:285|254:309|268:337|314:325,1,127.50000243187,2|2,0:0|0:0,0:0:0:0:
464,84,10608,6,0,L|428:156,2,71.2499980974198,0|0|2,0:0|0:0|0:0,0:0:0:0:
432,20,11323,1,0,0:0:0:0:
372,56,11561,2,0,L|336:128,2,71.2499980974198,0|0|2,0:0|0:0|0:0,0:0:0:0:
232,36,12515,2,0,P|164:24|108:66,1,142.49999619484,0|2,0:0|0:0,0:0:0:0:
168,196,13468,2,0,B|152:240|184:264|216:288|204:332,1,142.49999619484,0|8,0:0|0:3,0:0:0:0:
132,324,14183,2,0,P|108:296|100:264,1,71.2499980974198,8|8,0:3|0:3,0:0:0:0:
240,220,14898,5,2,0:0:0:0:
332,112,15375,2,0,B|265:112|265:112|229:112|202:74,1,142.49999619484,2|0,0:0|0:0,0:0:0:0:
332,12,16329,2,0,B|398:12|398:12|434:12|461:49,1,142.49999619484,2|0,0:0|0:0,0:0:0:0:
460,192,17282,2,0,P|396:216|388:282,1,142.49999619484,2|0,0:0|0:0,0:0:0:0:
240,296,18236,5,2,0:0:0:0:
332,180,18712,2,0,P|392:128|468:120,2,150,0|2|0,0:0|0:0|0:0,0:0:0:0:
180,180,20141,2,0,P|120:128|44:120,1,150,2|0,0:0|0:0,0:0:0:0:
0,171,20856,2,0,P|-12:243|36:296,1,150,0|2,0:0|0:0,0:0:0:0:
184,272,21808,2,0,B|224:264|256:284|256:284|288:264|328:272,2,150,2|0|0,0:0|0:0|0:0,0:0:0:0:
188,348,22999,2,0,P|256:376|324:348,1,150,2|2,0:0|0:0,0:0:0:0:
468,312,23952,5,2,0:0:0:0:
504,168,24428,1,0,0:0:0:0:
404,56,24905,2,0,P|332:52|288:109,1,150,2|0,0:0|0:0,0:0:0:0:
181,215,25858,2,0,P|137:272|65:268,1,150,2|0,0:0|0:0,0:0:0:0:
72,120,26810,1,2,0:0:0:0:
220,140,27287,1,0,0:0:0:0:
344,224,27763,5,2,0:0:0:0:
400,364,28239,1,0,0:0:0:0:
328,344,28478,2,0,B|289:320|257:344|257:344|221:368|188:343,1,150,2|0,0:0|0:0,0:0:0:0:
192,196,29430,2,0,B|236:184|256:160|256:160|276:184|320:196,2,150,2|2|0,0:0|0:0|0:0,0:0:0:0:
190,119,30621,2,0,P|254:87|322:119,1,150,2|0,0:0|0:0,0:0:0:0:
256,252,31564,5,2,0:0:0:0:
404,248,32040,2,0,L|496:124,1,150,0|2,0:0|0:0,0:0:0:0:
380,32,32992,2,0,L|336:92,1,75,0|0,0:0|0:0,0:0:0:0:
282,145,33468,5,0,0:0:0:0:
160,60,33944,2,0,P|108:112|88:184,1,150,0|0,1:0|0:0,0:0:0:0:
144,324,34896,1,0,1:0:0:0:
284,272,35372,6,0,L|332:208,2,75,0|8|0,0:0|0:3|1:0,0:0:0:0:
420,332,36324,2,0,L|512:208,1,150,2|0,0:0|1:0,0:0:0:0:
440,80,37276,1,2,0:0:0:0:
372,48,37514,1,8,0:3:0:0:
328,112,37752,1,0,1:0:0:0:
316,260,38228,2,0,B|316:282|276:278|256:298|256:298|236:278|196:282|196:259,1,150,2|0,0:0|1:0,0:0:0:0:
256,216,38942,1,0,0:0:0:0:
188,180,39180,6,0,P|120:192|95:261,1,150,2|0,0:0|1:0,0:0:0:0:
56,116,40132,2,0,P|128:84|198:82,1,150,2|0,0:0|1:0,0:0:0:0:
256,132,40846,1,0,0:0:0:0:
313,82,41084,2,0,P|384:84|456:116,2,150,2|0|0,0:0|1:0|0:0,0:0:0:0:
212,200,42512,6,0,B|211:258|255:258|303:258|303:302,1,150,0|0,1:0|0:0,0:0:0:0:
256,360,43226,1,8,0:3:0:0:
208,302,43464,2,0,B|208:258|256:258|300:258|300:200,1,150,0|0,1:0|0:0,0:0:0:0:
196,92,44416,2,0,P|256:52|316:88,2,150,0|2|0,1:0|0:0|1:0,0:0:0:0:
332,160,45844,1,2,0:0:0:0:
180,160,46320,1,0,1:0:0:0:
256,288,46796,5,0,0:0:0:0:
308,340,47034,2,0,P|328:304|324:268,2,75,2|0|0,0:0|0:0|0:0,0:0:0:0:
256,288,47748,2,0,P|253:255|273:219,2,75,2|2|0,0:0|0:0|0:0,0:0:0:0:
124,356,48700,5,4,0:0:0:0:
0,272,49176,2,0,P|32:208|104:168,1,150,0|0,1:0|0:0,0:0:0:0:
248,160,50128,2,0,P|313:121|345:57,1,150,0|2,1:0|0:0,0:0:0:0:
492,20,51080,1,0,1:0:0:0:
480,168,51556,2,0,L|436:240,2,75,2|8|0,0:0|0:3|1:0,0:0:0:0:
336,204,52508,6,0,L|256:332,1,150,4|0,0:0|1:0,0:0:0:0:
176,204,53460,2,0,L|256:332,1,150,0|0,0:0|1:0,0:0:0:0:
404,360,54412,1,2,0:0:0:0:
510,253,54888,1,0,1:0:0:0:
416,136,55364,1,2,0:0:0:0:
356,92,55602,1,8,0:3:0:0:
292,132,55840,1,0,1:0:0:0:
380,256,56316,6,0,B|344:300|300:236|256:320|256:320|212:236|168:300|132:256,1,300,4|0,0:0|0:0,0:0:0:0:
184,204,57506,2,0,B|232:196|256:216|256:216|280:196|328:204,1,150,2|0,0:0|0:0,0:0:0:0:
380,152,58220,1,0,0:0:0:0:
256,64,58696,1,0,1:0:0:0:
132,152,59172,1,2,0:0:0:0:
56,148,59410,1,8,0:3:0:0:
16,212,59648,1,0,1:0:0:0:
80,348,60124,6,0,B|124:324|152:348|188:376|222:341,1,150,2|0,0:0|1:0,0:0:0:0:
372,324,61076,2,0,P|412:320|441:302,2,75,0|2|0,0:0|0:0|1:0,0:0:0:0:
364,248,61790,2,0,P|432:220|479:161,1,150,4|8,0:0|0:3,0:0:0:0:
440,96,62504,1,0,1:0:0:0:
304,28,62980,1,2,0:0:0:0:
176,104,63456,2,0,L|112:160,1,75,0|0,1:0|1:0,0:0:0:0:
96,224,63932,6,0,P|160:260|198:324,1,150,4|0,0:0|1:0,0:0:0:0:
336,380,64884,1,2,0:0:0:0:
416,252,65360,1,0,1:0:0:0:
396,104,65836,2,0,P|332:140|294:204,1,150,2|0,0:0|1:0,0:0:0:0:
256,268,66550,1,0,0:0:0:0:
218,204,66788,2,0,P|180:140|116:104,1,150,2|0,0:0|1:0,0:0:0:0:
116,28,67502,1,0,0:0:0:0:
188,40,67740,6,0,P|256:68|324:40,1,150,2|0,0:0|1:0,0:0:0:0:
436,140,68692,2,0,P|408:208|414:282,1,150,2|0,0:0|1:0,0:0:0:0:
280,352,69644,2,0,P|212:324|137:330,1,150,2|0,0:0|1:0,0:0:0:0:
56,204,70596,2,0,P|84:136|77:61,1,150,2|0,0:0|1:0,0:0:0:0:
220,104,71548,6,0,P|224:144|208:180,2,75,4|8|0,0:0|0:3|1:0,0:0:0:0:
292,76,72262,1,0,0:0:0:0:
436,112,72738,2,0,P|464:140|477:172,1,75,8|0,0:3|1:0,0:0:0:0:
400,300,73452,6,0,B|340:360|256:316|168:268|116:320,2,300,2|0|4,0:0|0:0|0:0,0:0:0:0:
328,312,82978,5,2,0:0:0:0:
256,336,83216,1,0,0:0:0:0:
184,312,83454,1,0,1:0:0:0:
84,200,83930,6,0,P|156:200|180:132,1,150,2|0,0:0|1:0,0:0:0:0:
332,136,84883,2,0,P|356:200|428:200,1,150,2|0,0:0|1:0,0:0:0:0:
456,52,85836,1,2,0:0:0:0:
332,136,86312,1,0,1:0:0:0:
256,264,86789,1,2,0:0:0:0:
180,136,87265,1,0,1:0:0:0:
56,52,87741,1,2,0:0:0:0:
44,200,88218,6,0,L|40:276,1,75,0|0,1:0|0:0,0:0:0:0:
100,320,88694,2,0,P|160:360|240:360,1,150,2|0,0:0|1:0,0:0:0:0:
324,240,89647,2,0,P|399:241|459:281,2,150,2|0|2,0:0|1:0|0:0,0:0:0:0:
328,88,91076,2,0,B|281:64|256:88|225:116|185:84,1,150,0|2,1:0|0:0,0:0:0:0:
80,192,92029,2,0,B|124:219|118:253|109:294|158:311,1,150,0|2,1:0|0:0,0:0:0:0:
308,304,92982,5,0,1:0:0:0:
448,252,93458,2,0,P|356:244|314:208,1,150,2|0,0:0|1:0,0:0:0:0:
208,104,94411,2,0,P|166:68|74:60,1,150,2|0,0:0|1:0,0:0:0:0:
0,192,95363,2,0,P|41:227|133:235,1,150,2|0,0:0|1:0,0:0:0:0:
256,324,96316,6,0,B|328:324|328:324|356:360|394:360,1,150,2|0,0:0|1:0,0:0:0:0:
393,209,97269,2,0,B|355:209|327:245|327:245|255:245,1,150,2|0,0:0|1:0,0:0:0:0:
124,172,98222,1,0,0:0:0:0:
268,128,98698,1,2,1:2:0:0:
128,80,99174,2,0,P|56:100|28:168,1,150,0|2,0:0|1:2,0:0:0:0:
120,280,100127,6,0,P|192:256|256:220,1,150,0|2,0:0|1:2,0:0:0:0:
392,280,101080,2,0,P|320:256|256:220,1,150,0|2,0:0|1:2,0:0:0:0:
364,116,102033,2,0,P|398:135|434:143,2,75,8|8|2,0:3|0:3|1:2,0:0:0:0:
236,40,102986,1,0,0:0:0:0:
236,40,103462,2,0,B|192:24|164:52|136:80|92:57,1,150,2|2,1:2|0:0,0:0:0:0:
72,208,104415,5,0,1:2:0:0:
52,356,104891,2,0,B|88:364|124:352|124:352|160:364|200:356,1,150,2|2,0:0|1:2,0:0:0:0:
296,240,105844,2,0,B|332:232|368:244|368:244|404:232|444:240,2,150,0|2|0,0:0|1:2|0:0,0:0:0:0:
196,128,107273,6,0,B|224:92|256:84|256:84|288:92|315:126,2,150,2|0|2,1:2|0:0|1:2,0:0:0:0:
48,140,108702,2,0,P|40:200|120:208,1,150,0|2,0:0|1:2,0:0:0:0:
184,348,109655,2,0,P|256:368|326:348,1,150,0|2,0:0|1:2,0:0:0:0:
398,213,110608,2,0,P|472:200|464:140,1,150,2|0,0:0|1:0,0:0:0:0:
256,56,111799,6,0,L|236:144,1,75,2|0,0:0|0:0,0:0:0:0:
239,204,112275,2,0,L|255:277,2,75,0|2|0,0:0|0:0|0:0,0:0:0:0:
176,164,112989,1,2,0:0:0:0:
44,96,113466,6,0,B|52:136|40:172|40:172|52:208|44:244,1,150,4|0,0:0|1:0,0:0:0:0:
184,296,114419,2,0,P|256:312|313:359,1,150,2|0,0:0|1:0,0:0:0:0:
380,324,115133,2,0,P|332:268|263:234,1,150,2|8,0:0|0:3,0:0:0:0:
189,225,115848,1,0,1:0:0:0:
56,152,116324,2,0,P|104:92|172:92,1,150,2|0,0:0|1:0,0:0:0:0:
300,164,117277,6,0,P|370:134|422:78,2,150,4|0|0,0:0|1:0|0:0,0:0:0:0:
256,20,118706,1,0,1:0:0:0:
212,164,119182,2,0,P|142:194|90:250,1,150,2|0,0:0|1:0,0:0:0:0:
220,328,120135,2,0,P|256:336|292:328,2,75,2|8|0,0:0|0:3|1:0,0:0:0:0:
128,212,121088,6,0,B|176:236|212:188|212:188|256:243|300:188|300:188|336:236|384:212,1,300,4|2,0:0|0:0,0:0:0:0:
392,136,122279,1,8,0:3:0:0:
328,96,122517,2,0,B|286:95|254:111|254:111|222:95|182:95,1,150,0|2,1:0|0:0,0:0:0:0:
36,56,123470,1,0,1:0:0:0:
32,204,123946,2,0,P|12:276|31:346,1,150,2|0,0:0|1:0,0:0:0:0:
176,316,124892,5,4,0:0:0:0:
312,256,125368,2,0,L|427:160,1,150,0|2,1:0|0:0,0:0:0:0:
384,100,126082,2,0,L|268:195,1,150,8|4,0:3|0:0,0:0:0:0:
180,316,127034,2,0,L|118:358,2,75,2|0|0,0:0|1:0|0:0,0:0:0:0:
148,248,127749,2,0,L|16:336,1,150,2|0,0:0|1:0,0:0:0:0:
0,184,128701,5,4,0:0:0:0:
72,52,129177,2,0,P|144:60|180:124,1,150,0|0,1:0|0:0,0:0:0:0:
332,122,130130,2,0,P|368:60|440:52,2,150,0|2|0,1:0|0:0|1:0,0:0:0:0:
316,268,131558,2,0,B|316:290|276:286|256:306|256:306|236:286|196:290|196:267,1,150,2|0,0:0|1:0,0:0:0:0:
188,192,132272,1,0,0:0:0:0:
256,228,132511,6,0,L|256:384,2,150,4|0|0,0:0|1:0|0:0,0:0:0:0:
256,80,133939,1,0,1:0:0:0:
384,160,134415,2,0,P|384:224|436:292,2,150,2|0|0,0:0|1:0|0:0,0:0:0:0:
460,172,135606,2,0,P|472:212|496:236,2,75,2|0|0,0:0|1:0|0:0,0:0:0:0:
428,104,136320,5,4,0:0:0:0:
296,32,136796,1,0,1:0:0:0:
148,48,137272,2,0,P|144:120|104:184,1,150,2|0,0:0|1:0,0:0:0:0:
128,332,138225,6,0,B|176:308|212:356|212:356|256:301|300:356|300:356|336:308|384:332,1,300,4|0,0:0|0:0,0:0:0:0:
456,312,139415,1,0,0:0:0:0:
432,240,139653,2,0,L|368:196,1,75,0|0,1:0|0:0,0:0:0:0:
344,128,140124,5,4,0:0:0:0:
256,252,140600,2,0,P|240:180|184:132,1,150,0|2,1:0|0:0,0:0:0:0:
328,132,141552,2,0,P|272:180|256:252,1,150,0|2,1:0|0:0,0:0:0:0:
400,212,142504,2,0,P|456:164|472:92,1,150,0|2,1:0|0:0,0:0:0:0:
332,40,143456,1,0,1:0:0:0:
180,40,143932,5,4,0:0:0:0:
60,128,144408,1,0,1:0:0:0:
184,216,144884,2,0,P|256:244|296:312,1,150,2|0,0:0|1:0,0:0:0:0:
256,368,145598,6,0,P|293:308|365:280,1,150,2|8,0:0|3:0,0:0:0:0:
440,268,146312,1,0,1:0:0:0:
432,120,146788,2,0,B|397:158|365:126|329:90|294:121,1,150,2|0,0:0|1:0,0:0:0:0:
217,121,147502,2,0,B|182:90|146:126|114:158|80:120,1,150,8|0,0:3|0:0,0:0:0:0:
68,48,148216,1,0,1:0:0:0:
32,192,148692,6,0,P|104:216|188:188,1,150,2|0,0:0|1:0,0:0:0:0:
338,197,149644,2,0,P|408:216|480:192,2,150,2|0|0,0:0|1:0|0:0,0:0:0:0:
292,340,151072,2,0,P|256:348|220:340,1,75,0|0,1:0|0:0,0:0:0:0:
256,276,151548,5,4,0:0:0:0:
156,164,152024,1,0,1:0:0:0:
256,52,152500,2,0,B|328:52|328:52|368:52|393:88,1,150,2|0,0:0|1:0,0:0:0:0:
256,148,153452,2,0,B|184:148|184:148|144:148|118:111,2,150,2|0|2,0:0|1:0|0:0,0:0:0:0:
404,152,154880,1,0,1:0:0:0:
472,184,155118,1,0,1:0:0:0:
480,260,155356,5,4,0:0:0:0:
332,252,155832,2,0,B|260:252|260:252|220:252|194:289,1,150,0|0,1:0|0:0,0:0:0:0:
260,324,156546,2,0,B|332:324|332:324|372:324|398:287,1,150,2|0,0:0|0:0,0:0:0:0:
404,208,157270,5,2,0:0:0:0:
320,84,157746,1,0,1:0:0:0:
172,84,158222,2,0,L|36:152,2,150,2|0|2,0:0|1:0|0:0,0:0:0:0:
256,208,159650,2,0,L|256:288,2,75,0|2|0,1:0|0:0|0:0,0:0:0:0:
309,154,160364,2,0,L|372:114,1,75,8|0,0:3|1:0,0:0:0:0:
388,268,161088,5,2,0:0:0:0:
256,340,161564,1,0,1:0:0:0:
124,268,162040,1,2,0:0:0:0:
52,248,162278,1,8,0:3:0:0:
24,180,162516,1,0,1:0:0:0:
164,128,162992,6,0,B|144:81|212:25|256:73|256:73|300:25|368:81|348:129,1,300,4|0,0:0|0:0,0:0:0:0:
444,248,164420,1,0,1:0:0:0:
444,248,164658,2,0,P|372:232|297:241,1,150,2|8,0:0|0:3,0:0:0:0:
256,304,165372,1,0,1:0:0:0:
128,380,165848,1,2,0:0:0:0:
68,248,166324,2,0,P|140:232|214:241,1,150,0|2,1:0|0:0,0:0:0:0:
256,96,167276,6,0,P|248:60|255:23,2,75,0|2|0,1:0|0:0|0:0,0:0:0:0:
400,60,168228,2,0,P|412:132|390:204,1,150,0|2,1:0|0:0,0:0:0:0:
283,310,169180,2,0,P|210:288|138:300,1,150,0|2,1:0|0:0,0:0:0:0:
40,188,170132,2,0,L|12:112,1,75,0|0,1:0|1:0,0:0:0:0:
60,60,170608,5,4,0:0:0:0:
208,68,171084,2,0,P|284:80|344:120,1,150,0|0,1:0|0:0,0:0:0:0:
416,108,171798,2,0,P|340:120|280:160,1,150,8|0,0:3|0:0,0:0:0:0:
228,212,172512,5,2,0:0:0:0:
92,152,172988,2,0,B|100:200|100:200|92:224|84:248|84:248|90:298,1,150,0|2,1:0|0:0,0:0:0:0:
16,300,173702,2,0,B|64:292|64:292|88:300|112:308|112:308|162:301,1,150,8|0,0:3|0:0,0:0:0:0:
228,264,174416,5,4,0:0:0:0:
364,324,174892,1,0,1:0:0:0:
396,176,175368,1,0,0:0:0:0:
396,176,175606,2,0,L|424:104,2,75,2|0|0,0:0|1:0|0:0,0:0:0:0:
256,124,176558,2,0,L|256:200,1,75,8|0,0:3|1:0,0:0:0:0:
108,176,177272,1,2,0:0:0:0:
20,296,177748,1,0,1:0:0:0:
152,368,178224,6,0,B|204:324|256:348|256:348|308:324|360:368,2,225,4|2|0,0:0|0:0|1:0,0:0:0:0:
256,192,180128,12,0,182746,0:0:0:0:
