osu file format v12

[General]
AudioFilename: Rubia Sol Morena Luna.mp3
AudioLeadIn: 0
PreviewTime: 50116
Countdown: 0
SampleSet: Soft
StackLeniency: 0.7
Mode: 0
LetterboxInBreaks: 0
WidescreenStoryboard: 0

[Editor]
DistanceSpacing: 1.1
BeatDivisor: 4
GridSize: 4
TimelineZoom: 1

[Metadata]
Title:Rubia Sol, Morena Luna
TitleUnicode:Rubia Sol, Morena Luna
Artist:Caramelos de Cianuro
ArtistUnicode:Caramelos de Cianuro
Creator:mancuso_JM_
Version:Facil
Source:
Tags:CDC mancusojuanmattos
BeatmapID:415592
BeatmapSetID:171862

[Difficulty]
HPDrainRate:2
CircleSize:3
OverallDifficulty:2
ApproachRate:3
SliderMultiplier:0.9
SliderTickRate:1

[Events]
//Background and Video events
0,0,"caramelos de cianuro02.jpg",0,0
Video,-13469,"RSMfx.avi"
//Break Periods
2,75679,81047
2,130347,134664
//Storyboard Layer 0 (Background)
//Storyboard Layer 1 (Fail)
//Storyboard Layer 2 (Pass)
//Storyboard Layer 3 (Foreground)
//Storyboard Sound Samples
//Background Colour Transformations
3,100,163,162,255

[TimingPoints]
4190,425.531914893617,4,2,1,70,1,0
51849,-100,4,2,1,70,0,1
75679,-100,4,2,1,70,0,0
104402,-100,4,2,1,45,0,0
106317,-100,4,2,1,70,0,1
130041,-100,4,2,1,70,0,0
130147,-100,4,2,1,70,0,1
130253,-100,4,2,1,70,0,0
164190,-100,4,2,1,55,0,0
165892,-100,4,2,1,30,0,0

[Colours]
Combo1 : 189,184,140
Combo2 : 180,169,154
Combo3 : 183,187,200
Combo4 : 158,189,157

[HitObjects]
100,264,4190,6,0,P|142:249|174:218,1,90,2|4,0:0|0:3,0:0:0:0:
232,136,5041,2,0,P|281:180|347:185,2,135,4|2|4,0:3|0:0|0:3,0:0:0:0:
168,60,6743,1,4,0:3:0:0:
72,44,7168,1,4,0:3:0:0:
36,136,7594,5,4,0:3:0:0:
172,280,8445,1,4,0:3:0:0:
256,332,8870,1,0,0:0:0:0:
340,280,9296,1,4,0:3:0:0:
423,227,9721,2,0,P|414:182|418:138,1,90,2|0,0:0|0:0,0:0:0:0:
420,40,10572,1,4,0:3:0:0:
336,92,10998,6,0,P|258:133|173:111,1,180,4|0,0:3|0:0,0:0:0:0:
84,152,12275,2,0,L|103:239,1,90,4|0,0:3|0:0,0:0:0:0:
180,303,13126,2,0,P|213:274|257:263,2,90,2|0|0,0:0|0:0|0:0,0:0:0:0:
80,304,14402,6,0,P|55:218|74:131,1,180,4|4,0:3|0:3,0:0:0:0:
152,72,15679,2,0,L|240:57,1,90,4|4,0:3|0:3,0:0:0:0:
332,96,16530,2,0,L|421:109,1,90,4|4,0:3|0:3,0:0:0:0:
476,192,17381,1,4,0:3:0:0:
421,274,17807,6,0,L|332:288,1,90,0|8,0:0|0:0,0:0:0:0:
232,292,18658,2,0,P|194:267|150:259,2,90,2|8|2,0:0|0:0|0:0,0:0:0:0:
288,372,19934,2,0,P|344:306|430:312,1,180,8|8,0:0|0:0,0:0:0:0:
508,252,21211,6,0,P|524:187|504:123,2,135,2|2|8,0:0|0:0|0:0,0:0:0:0:
424,304,22913,2,0,L|334:292,1,90,0|8,0:0|0:0,0:0:0:0:
236,304,23764,2,0,P|195:320|152:311,1,90,2|8,0:0|0:0,0:0:0:0:
72,252,24615,6,0,P|55:186|69:121,2,135,2|2|8,0:0|0:0|0:0,0:0:0:0:
124,336,26317,1,0,0:0:0:0:
223,344,26743,2,0,P|293:291|379:307,1,180,8|8,0:0|0:0,0:0:0:0:
460,364,28019,5,4,0:0:0:0:
499,272,28445,2,0,P|519:185|491:101,1,180,8|8,0:0|0:0,0:0:0:0:
404,52,29721,2,0,L|314:44,1,90,0|8,0:0|0:0,0:0:0:0:
228,92,30572,2,0,B|192:100|172:84|138:87,1,90,2|8,0:0|0:0,0:0:0:0:
44,116,31424,6,0,P|40:160|48:204,1,90,2|8,0:0|0:0,0:0:0:0:
100,288,32275,2,0,P|138:265|182:260,1,90,2|8,0:0|0:0,0:0:0:0:
272,300,33126,1,2,0:0:0:0:
271,300,33551,2,0,P|342:249|426:271,1,180,8|8,0:0|0:0,0:0:0:0:
504,208,34828,6,0,L|480:75,2,135,4|2|8,0:0|0:0|0:0,0:0:0:0:
492,308,36530,1,2,0:0:0:0:
403,352,36955,2,0,P|359:355|316:343,1,90,8|2,0:0|0:0,0:0:0:0:
256,264,37807,1,8,0:0:0:0:
202,179,38232,6,0,P|245:165|290:171,2,90,2|8|2,0:0|0:0|0:0,0:0:0:0:
256,264,39509,1,8,0:0:0:0:
336,318,39934,2,0,P|260:362|181:327,1,180,2|2,0:0|0:0,0:0:0:0:
124,248,41211,1,8,0:0:0:0:
152,156,41636,6,0,P|183:124|206:85,1,90,2|8,0:0|0:0,0:0:0:0:
305,85,42487,2,0,P|328:124|360:156,1,90,2|8,0:0|0:0,0:0:0:0:
449,202,43338,2,0,P|420:235|380:256,1,90,2|8,0:0|0:0,0:0:0:0:
287,291,44190,2,8,P|249:268|205:263,1,90,2|8,0:0|0:0,0:0:0:0:
111,231,45041,6,0,P|82:148|111:64,2,180,2|2|2,0:0|0:0|0:0,0:0:0:0:
308,255,47594,2,0,P|341:226|363:187,1,90,2|8,0:0|0:0,0:0:0:0:
331,92,48445,6,0,P|255:50|180:92,2,180,2|4|4,0:0|0:3|0:3,0:0:0:0:
348,192,50572,1,4,0:3:0:0:
256,232,50998,1,4,0:3:0:0:
164,192,51424,1,4,0:3:0:0:
178,295,51849,6,0,P|256:333|334:295,2,180,4|2|0,0:0|0:0|0:0,0:0:0:0:
108,228,53977,2,0,P|87:187|79:143,1,90,8|0,0:0|0:0,0:0:0:0:
92,44,54828,1,8,0:0:0:0:
177,93,55253,6,0,B|233:93|256:58|256:58|279:93|334:93,2,180,4|2|0,0:0|0:0|0:0,0:0:0:0:
88,48,57381,1,8,0:0:0:0:
84,148,57807,2,0,L|100:236,1,90,2|8,0:0|0:0,0:0:0:0:
124,332,58658,2,2,P|163:310|207:306,1,90,2|8,0:0|0:0,0:0:0:0:
304,306,59509,2,0,P|348:310|388:332,1,90,2|8,0:0|0:0,0:0:0:0:
464,268,60360,6,0,P|441:228|429:185,1,90,2|8,0:0|0:0,0:0:0:0:
288,48,61636,1,8,0:0:0:0:
212,112,62062,2,0,P|170:129|126:126,1,90,2|8,0:0|0:0,0:0:0:0:
39,176,62913,2,0,P|40:220|51:264,1,90,2|8,0:0|0:0,0:0:0:0:
135,320,63764,2,0,P|180:271|246:271,2,135,2|2|8,0:0|0:0|0:0,0:0:0:0:
52,267,65466,6,0,P|73:181|45:97,2,180,4|2|0,0:0|0:0|0:0,0:0:0:0:
100,356,67594,2,0,L|186:329,1,90,8|0,0:0|0:0,0:0:0:0:
256,260,68445,1,8,0:0:0:0:
244,164,68870,6,0,P|325:194|348:277,2,180,4|2|0,0:0|0:0|0:0,0:0:0:0:
152,204,70998,1,8,0:0:0:0:
56,176,71424,2,0,P|63:131|84:91,1,90,2|8,0:0|0:0,0:0:0:0:
148,16,72275,6,0,P|221:63|306:41,2,180,4|2|0,0:0|0:0|0:0,0:0:0:0:
48,20,74402,1,8,0:0:0:0:
12,112,74828,2,0,L|27:200,1,90,0|8,0:0|0:0,0:0:0:0:
152,328,82487,6,0,P|194:315|239:320,2,90,2|8|4,0:0|0:0|0:3,0:0:0:0:
88,252,83764,2,0,P|108:211|116:167,1,90,8|0,0:0|0:0,0:0:0:0:
174,88,84615,2,0,B|256:125|256:125|338:88,1,180,8|8,0:0|0:0,0:0:0:0:
395,167,85892,6,0,P|403:211|424:252,1,90,4|8,0:3|0:0,0:0:0:0:
352,320,86743,2,0,P|295:285|229:292,2,135,2|2|8,0:0|0:0|0:0,0:0:0:0:
452,308,88445,2,0,L|456:212,1,90,4|8,0:3|0:0,0:0:0:0:
464,120,89296,5,4,0:3:0:0:
377,167,89721,2,0,P|302:211|220:183,1,180,8|8,0:0|0:0,0:0:0:0:
292,112,90998,1,4,0:3:0:0:
363,40,91424,2,0,P|281:12|206:56,1,180,8|8,0:0|0:0,0:0:0:0:
168,144,92700,6,0,P|137:176|96:194,1,90,4|8,0:3|0:0,0:0:0:0:
0,208,93551,2,0,P|17:248|50:279,1,90,2|8,0:0|0:0,0:0:0:0:
136,328,94402,2,0,P|105:360|64:378,2,90,4|8|2,0:3|0:0|0:0,0:0:0:0:
208,248,95679,1,8,0:0:0:0:
255,159,96104,6,0,P|291:132|314:94,1,90,2|8,0:0|0:0,0:0:0:0:
412,96,96955,2,0,P|439:131|477:154,1,90,2|8,0:0|0:0,0:0:0:0:
480,252,97807,2,0,P|444:279|421:317,1,90,2|8,0:0|0:0,0:0:0:0:
324,324,98658,2,0,P|296:288|258:265,1,90,2|8,0:0|0:0,0:0:0:0:
176,208,99509,6,0,P|188:119|233:42,2,180,2|2|2,0:0|0:0|0:0,0:0:0:0:
372,227,102062,2,0,P|386:185|392:141,1,90,2|8,0:0|0:0,0:0:0:0:
356,48,102913,6,0,B|320:56|284:76|256:131|256:131|228:76|192:56|156:48,1,270,2|8,0:0|0:0,0:0:0:0:
256,192,104402,12,4,106317,0:0:0:0:
178,327,107168,6,0,P|256:289|334:327,1,180,2|0,0:0|0:0,0:0:0:0:
404,260,108445,2,0,P|376:224|359:183,1,90,8|0,0:0|0:0,0:0:0:0:
320,92,109296,1,8,0:0:0:0:
319,92,109721,6,0,P|245:140|159:124,2,180,4|2|0,0:0|0:0|0:0,0:0:0:0:
384,16,111849,1,8,0:0:0:0:
416,108,112275,2,0,L|423:197,1,90,2|8,0:0|0:0,0:0:0:0:
388,292,113126,6,0,B|336:280|304:312|304:312|272:344|220:324,2,180,4|2|0,0:0|0:0|0:0,0:0:0:0:
472,240,115253,2,0,P|495:154|469:69,1,180,8|8,0:0|0:0,0:0:0:0:
379,28,116530,6,0,P|338:44|305:74,1,90,4|8,0:0|0:0,0:0:0:0:
206,74,117381,2,0,P|173:44|132:28,1,90,2|8,0:0|0:0,0:0:0:0:
44,71,118232,2,0,P|32:137|50:202,2,135,2|2|8,0:0|0:0|0:0,0:0:0:0:
132,24,119934,6,0,B|184:24|184:24|252:48|252:48|307:48,2,180,4|2|0,0:0|0:0|0:0,0:0:0:0:
44,68,122062,2,0,P|55:111|44:156,1,90,8|0,0:0|0:0,0:0:0:0:
0,244,122913,1,8,0:0:0:0:
0,244,123338,6,0,B|66:271|116:220|116:220|168:228,2,180,4|2|0,0:0|0:0|0:0,0:0:0:0:
44,156,125466,1,8,0:0:0:0:
95,75,125892,2,0,P|51:63|7:66,2,90,2|8|0,0:0|0:0|0:0,0:0:0:0:
184,120,127168,6,0,P|227:131|271:128,2,90,8|2|8,0:0|0:0|0:0,0:0:0:0:
96,76,128445,1,0,0:0:0:0:
112,176,128870,2,0,P|148:255|112:335,1,180,8|8,0:0|0:0,0:0:0:0:
48,256,130147,5,4,0:0:0:0:
48,280,136104,6,0,P|82:251|123:233,1,90,2|8,0:0|0:0,0:0:0:0:
216,196,136955,2,0,P|272:126|292:40,2,180,2|2|0,0:0|0:0|0:0,0:0:0:0:
256,288,139083,2,0,L|342:261,2,90,8|2|8,0:0|0:0|0:0,0:0:0:0:
196,208,140360,6,0,P|234:127|236:37,2,180,2|2|0,0:0|0:0|0:0,0:0:0:0:
104,244,142487,1,8,0:0:0:0:
256,368,143338,1,8,0:0:0:0:
339,316,143764,6,0,P|388:269|452:251,2,135,4|2|8,0:0|0:0|0:0,0:0:0:0:
244,340,145466,2,0,L|236:250,1,90,2|8,0:0|0:0,0:0:0:0:
168,64,146743,1,8,0:0:0:0:
258,107,147168,6,0,P|212:153|146:163,2,135,4|2|8,0:0|0:0|0:0,0:0:0:0:
352,136,148870,2,0,P|348:180|359:224,1,90,2|8,0:0|0:0,0:0:0:0:
448,268,149721,2,0,P|451:223|440:179,1,90,2|8,0:0|0:0,0:0:0:0:
352,136,150572,6,0,B|300:124|268:156|268:156|236:188|184:168,2,180,4|2|0,0:0|0:0|0:0,0:0:0:0:
444,100,152700,1,8,0:0:0:0:
424,196,153126,2,0,P|415:239|427:283,1,90,2|8,0:0|0:0,0:0:0:0:
348,340,153977,6,0,P|280:283|193:293,2,180,4|2|0,0:0|0:0|0:0,0:0:0:0:
440,376,156104,1,8,0:0:0:0:
480,232,156743,2,0,L|483:187,1,45,8|8,0:0|0:0,0:0:0:0:
484,88,157381,6,0,B|432:88|432:88|368:120|368:120|312:120,1,180,4|2,0:0|0:0,0:0:0:0:
256,40,158658,1,8,0:0:0:0:
199,120,159083,2,0,B|144:120|144:120|80:88|80:88|28:88,1,180,2|0,0:0|0:0,0:0:0:0:
16,188,160360,1,8,0:0:0:0:
60,276,160785,6,0,P|129:223|214:243,1,180,2|2,0:0|0:0,0:0:0:0:
296,304,162062,2,0,P|318:300|337:289,1,45,8|4,0:0|0:0,0:0:0:0:
256,192,162381,12,0,165892,0:0:0:0:
