osu file format v12

[General]
AudioFilename: Rubia Sol Morena Luna.mp3
AudioLeadIn: 0
PreviewTime: 50116
Countdown: 0
SampleSet: Soft
StackLeniency: 0.7
Mode: 0
LetterboxInBreaks: 0
WidescreenStoryboard: 0

[Editor]
DistanceSpacing: 1
BeatDivisor: 4
GridSize: 4
TimelineZoom: 1

[Metadata]
Title:Rubia Sol, Morena Luna
TitleUnicode:Rubia Sol, Morena Luna
Artist:Caramelos de Cianuro
ArtistUnicode:Caramelos de Cianuro
Creator:mancuso_JM_
Version:Intermedio
Source:
Tags:CDC mancusojuanmattos
BeatmapID:415593
BeatmapSetID:171862

[Difficulty]
HPDrainRate:4
CircleSize:3
OverallDifficulty:4
ApproachRate:5
SliderMultiplier:1.3
SliderTickRate:1

[Events]
//Background and Video events
0,0,"caramelos de cianuro02.jpg",0,0
Video,-13469,"RSMfx.avi"
//Break Periods
2,75648,81287
2,130347,134692
//Storyboard Layer 0 (Background)
//Storyboard Layer 1 (Fail)
//Storyboard Layer 2 (Pass)
//Storyboard Layer 3 (Foreground)
//Storyboard Sound Samples
//Background Colour Transformations
3,100,163,162,255

[TimingPoints]
4190,425.531914893617,4,2,1,70,1,0
51849,-100,4,2,1,70,0,1
75679,-100,4,2,1,70,0,0
104402,-100,4,2,1,45,0,0
106317,-100,4,2,1,70,0,1
130041,-100,4,2,1,70,0,0
130147,-100,4,2,1,70,0,1
130253,-100,4,2,1,70,0,0
164190,-100,4,2,1,55,0,0
165892,-100,4,2,1,30,0,0

[Colours]
Combo1 : 189,184,140
Combo2 : 180,169,154
Combo3 : 183,187,200
Combo4 : 158,189,157

[HitObjects]
464,299,4190,6,0,P|480:237|465:174,1,130,2|4,0:0|0:3,0:0:0:0:
432,144,4828,1,0,0:0:0:0:
396,116,5041,1,4,0:3:0:0:
288,44,5466,1,2,0:0:0:0:
164,84,5892,1,4,0:3:0:0:
48,139,6317,2,0,P|47:172|54:204,1,65,4|0,0:3|0:0,0:0:0:0:
80,263,6743,2,0,P|134:230|198:235,1,130,2|2,0:0|0:0,0:0:0:0:
324,276,7594,6,0,P|387:280|442:248,1,130,4|0,0:3|0:0,0:0:0:0:
468,208,8232,1,2,0:0:0:0:
476,164,8445,1,4,0:3:0:0:
452,36,8870,1,4,0:3:0:0:
328,72,9296,1,4,0:3:0:0:
200,76,9721,2,0,P|139:98|77:83,2,130,4|2|4,0:3|0:0|0:3,0:0:0:0:
328,72,10998,6,0,P|340:135|328:198,1,130,4|0,0:3|0:0,0:0:0:0:
276,236,11636,2,0,P|213:219|150:233,1,130,2|0,0:0|0:0,0:0:0:0:
88,252,12275,2,0,L|76:122,1,130,4|4,0:3|0:3,0:0:0:0:
164,28,13126,2,0,P|194:39|226:38,1,65,4|0,0:3|0:0,0:0:0:0:
292,40,13551,2,0,B|336:40|336:40|368:64|368:64|414:64,1,130,2|0,0:0|0:0,0:0:0:0:
504,160,14402,6,0,P|519:222|506:285,1,130,4|0,0:3|0:0,0:0:0:0:
472,316,15041,1,2,0:0:0:0:
432,340,15253,2,0,L|302:329,1,130,4|0,0:3|0:0,0:0:0:0:
228,224,16104,2,0,L|98:213,2,130,4|4|4,0:3|0:3|0:3,0:0:0:0:
324,136,17381,1,4,0:3:0:0:
448,96,17807,6,0,P|455:127|453:159,2,65,0|0|8,0:0|0:0|0:0,0:0:0:0:
336,32,18658,2,0,B|285:32|285:32|253:48|253:48|209:48,1,130,2|8,0:0|0:0,0:0:0:0:
79,64,19509,2,0,P|72:128|87:190,1,130,0|8,0:0|0:0,0:0:0:0:
124,220,20147,1,2,0:0:0:0:
156,251,20360,2,0,P|218:235|281:249,1,130,0|8,0:0|0:0,0:0:0:0:
404,296,21211,6,2,P|387:233|400:170,1,130,2|8,0:0|0:0,0:0:0:0:
440,120,21849,2,0,L|310:131,1,130,2|2,0:0|0:0,0:0:0:0:
272,108,22487,1,8,0:0:0:0:
156,48,22913,1,0,0:0:0:0:
48,124,23338,2,0,P|41:188|55:251,1,130,8|2,0:0|0:0,0:0:0:0:
112,372,24190,1,8,0:0:0:0:
112,372,24615,6,0,P|169:343|232:352,1,130,2|8,0:0|0:0,0:0:0:0:
360,328,25466,2,0,P|376:265|359:203,1,130,0|8,0:0|0:0,0:0:0:0:
232,176,26317,2,0,P|307:78|426:109,1,260,2|0,0:0|0:0,0:0:0:0:
500,216,27594,1,8,0:0:0:0:
448,336,28019,6,0,B|400:320|400:320|376:340|324:336,1,130,4|8,0:0|0:0,0:0:0:0:
188,336,28870,2,0,B|136:340|112:320|112:320|64:336,1,130,2|8,0:0|0:0,0:0:0:0:
0,315,29509,2,0,P|-15:253|-6:189,1,130,2|2,0:0|0:0,0:0:0:0:
20,128,30147,2,0,P|79:152|141:137,1,130,8|2,0:0|0:0,0:0:0:0:
260,88,30998,2,0,P|291:95|323:91,1,65,8|0,0:0|0:0,0:0:0:0:
368,44,31424,6,0,L|352:173,1,130,2|8,0:0|0:0,0:0:0:0:
468,236,32275,2,0,L|483:106,2,130,2|8|2,0:0|0:0|0:0,0:0:0:0:
352,296,33551,2,0,P|322:285|290:283,1,65,8|0,0:0|0:0,0:0:0:0:
228,305,33977,2,0,P|236:240|219:178,1,130,2|8,0:0|0:0,0:0:0:0:
92,148,34828,6,0,P|164:48|284:72,1,260,4|2,0:0|0:0,0:0:0:0:
396,140,36104,2,0,P|403:171|400:203,1,65,8|2,0:0|0:0,0:0:0:0:
280,264,36743,2,0,P|272:232|275:200,1,65,2|8,0:0|0:0,0:0:0:0:
273,72,37381,1,2,0:0:0:0:
152,24,37807,1,8,0:0:0:0:
40,92,38232,6,0,L|55:221,1,130,2|8,0:0|0:0,0:0:0:0:
88,348,39083,2,0,B|136:348|152:328|164:308|209:308,1,130,2|8,0:0|0:0,0:0:0:0:
256,316,39721,1,0,0:0:0:0:
303,308,39934,2,0,B|348:308|360:328|376:348|424:348,1,130,2|8,0:0|0:0,0:0:0:0:
504,244,40785,2,0,P|516:180|500:117,1,130,2|8,0:0|0:0,0:0:0:0:
395,47,41636,6,0,P|338:19|274:24,1,130,2|8,0:0|0:0,0:0:0:0:
194,128,42487,2,0,P|251:156|316:152,2,130,2|8|0,0:0|0:0|0:0,0:0:0:0:
80,60,43764,1,8,0:0:0:0:
20,180,44190,1,2,0:0:0:0:
72,299,44615,2,0,P|101:287|133:282,1,65,8|0,0:0|0:0,0:0:0:0:
200,280,45041,6,0,P|220:218|259:166,1,130,2|8,0:0|0:0,0:0:0:0:
376,220,45892,2,0,P|355:281|316:333,2,130,2|8|2,0:0|0:0|0:0,0:0:0:0:
372,92,47168,1,8,0:0:0:0:
256,36,47594,1,0,0:0:0:0:
140,92,48019,1,8,0:0:0:0:
148,220,48445,6,0,P|256:159|364:220,2,260,2|4|4,0:0|0:3|0:3,0:0:0:0:
144,348,50572,1,4,0:3:0:0:
256,280,50998,1,4,0:3:0:0:
368,348,51424,1,4,0:3:0:0:
476,275,51849,6,2,P|515:155|459:42,1,260,4|0,0:0|0:0,0:0:0:0:
327,40,53126,2,0,P|270:68|207:59,1,130,8|0,0:0|0:0,0:0:0:0:
84,100,53977,2,0,L|98:163,1,65,8|2,0:0|0:0,0:0:0:0:
91,228,54402,2,0,P|142:189|206:196,1,130,0|8,0:0|0:0,0:0:0:0:
280,299,55253,6,2,P|331:186|265:80,1,260,4|2,0:0|0:0,0:0:0:0:
136,124,56530,2,0,P|76:148|12:144,2,130,8|2|8,0:0|0:0|0:0,0:0:0:0:
256,76,57807,2,0,P|315:51|379:55,1,130,2|8,0:0|0:0,0:0:0:0:
496,116,58658,6,0,B|488:184|520:184|509:243,1,130,4|8,0:0|0:0,0:0:0:0:
420,340,59509,2,2,P|365:307|301:313,1,130,2|8,0:0|0:0,0:0:0:0:
279,376,60147,2,0,P|285:279|251:188,1,195,2|8,0:0|0:0,0:0:0:0:
124,172,61211,2,0,P|103:110|105:46,1,130,0|8,0:0|0:0,0:0:0:0:
232,16,62062,6,0,P|285:51|349:49,1,130,4|8,0:0|0:0,0:0:0:0:
472,96,62913,2,0,P|480:159|455:219,1,130,2|8,0:0|0:0,0:0:0:0:
336,272,63764,2,2,P|237:194|117:230,1,260,2|0,0:0|0:0,0:0:0:0:
12,156,65041,2,0,P|1:127|0:95,1,65,8|0,0:0|0:0,0:0:0:0:
48,52,65466,6,2,P|107:76|170:63,1,130,4|8,0:0|0:0,0:0:0:0:
288,12,66317,2,0,B|320:36|336:60|336:60|397:56,1,130,2|8,0:0|0:0,0:0:0:0:
436,32,66955,1,2,0:0:0:0:
483,151,67381,6,0,P|479:184|487:215,1,65,0|8,0:0|0:0,0:0:0:0:
464,344,68019,2,0,P|405:317|344:333,1,130,2|8,0:0|0:0,0:0:0:0:
220,308,68870,2,0,B|200:258|220:210|256:190|294:169|318:129|304:78,2,260,4|2|0,0:0|0:0|0:0,0:0:0:0:
344,352,70998,1,8,0:0:0:0:
464,303,71424,2,0,P|480:241|464:180,1,130,2|8,0:0|0:0,0:0:0:0:
336,152,72275,6,0,P|319:89|335:27,2,130,4|8|2,0:0|0:0|0:0,0:0:0:0:
348,284,73551,1,8,0:0:0:0:
348,284,73764,2,0,B|296:260|256:288|256:288|212:316|164:288,1,195,2|8,0:0|0:0,0:0:0:0:
75,191,74828,2,0,P|79:159|75:127,2,65,0|0|8,0:0|0:0|0:0,0:0:0:0:
200,308,82487,6,0,B|236:307|256:335|256:335|276:307|312:307,2,130,2|8|4,0:0|0:0|0:3,0:0:0:0:
176,180,83764,1,8,0:0:0:0:
176,179,83977,2,0,P|209:124|220:60,1,130,2|0,0:0|0:0,0:0:0:0:
291,60,84615,2,0,P|302:124|335:179,2,130,10|4|8,0:0|0:3|0:0,0:0:0:0:
163,28,85892,6,0,P|104:52|40:44,2,130,4|8|2,0:3|0:0|0:0,0:0:0:0:
292,20,87168,1,8,0:0:0:0:
292,20,87381,2,0,P|306:82|289:145,2,130,2|0|2,0:0|0:0|0:0,0:0:0:0:
164,40,88658,1,0,0:0:0:0:
164,40,88870,2,0,P|171:71|168:103,1,65,8|0,0:0|0:0,0:0:0:0:
128,156,89296,6,0,L|257:148,1,130,4|8,0:3|0:0,0:0:0:0:
368,84,90147,1,4,0:3:0:0:
464,168,90572,1,8,0:0:0:0:
464,168,90785,2,0,P|479:230|472:294,1,130,2|0,0:0|0:0,0:0:0:0:
418,332,91424,2,2,B|370:352|320:340|304:292|292:244|244:224|198:244,1,260,8|8,0:0|0:0,0:0:0:0:
71,223,92700,6,0,P|58:160|71:97,1,130,4|8,0:3|0:0,0:0:0:0:
171,15,93551,2,0,P|228:46|292:39,1,130,4|8,0:3|0:0,0:0:0:0:
420,20,94402,2,0,P|407:83|431:142,1,130,4|8,0:3|0:0,0:0:0:0:
459,267,95253,2,0,P|402:238|339:247,1,130,2|8,0:0|0:0,0:0:0:0:
224,312,96104,6,0,B|190:347|146:347|146:347|104:347,1,130,0|8,0:0|0:0,0:0:0:0:
8,260,96955,2,0,B|41:224|85:224|85:224|127:224,1,130,2|8,0:0|0:0,0:0:0:0:
256,196,97807,2,0,P|284:137|292:73,1,130,2|8,0:0|0:0,0:0:0:0:
412,24,98658,1,0,0:0:0:0:
508,112,99083,2,0,L|504:176,1,65,8|0,0:0|0:0,0:0:0:0:
456,220,99509,6,0,P|398:191|334:200,1,130,2|8,0:0|0:0,0:0:0:0:
212,244,100360,2,0,P|175:296|115:319,1,130,2|8,0:0|0:0,0:0:0:0:
56,292,100998,1,0,0:0:0:0:
44,228,101211,2,0,P|80:175|140:152,1,130,2|8,0:0|0:0,0:0:0:0:
256,92,102062,1,2,0:0:0:0:
372,148,102487,1,8,0:0:0:0:
412,272,102913,6,0,B|352:236|276:264|256:334|256:334|236:264|160:236|100:272,1,390,2|8,0:0|0:0,0:0:0:0:
256,192,104402,12,2,105892,0:0:0:0:
204,227,106317,6,0,B|204:271|204:271|204:315|256:368|308:315|308:271|308:271|308:227,1,260,4|0,0:0|0:0,0:0:0:0:
368,112,107594,1,8,0:0:0:0:
256,48,108019,1,0,0:0:0:0:
144,112,108445,2,0,P|113:123|81:124,1,65,8|2,0:0|0:0,0:0:0:0:
24,92,108870,2,0,L|39:221,1,130,0|8,0:0|0:0,0:0:0:0:
140,304,109721,6,2,B|188:280|236:292|212:384|256:315|300:384|276:292|324:280|372:304,1,260,2|2,0:0|0:0,0:0:0:0:
488,240,110998,1,8,0:0:0:0:
488,240,111211,2,0,P|468:179|468:115,1,130,2|2,0:0|0:0,0:0:0:0:
500,56,111849,2,0,L|370:71,1,130,8|2,0:0|0:0,0:0:0:0:
244,52,112700,1,8,0:0:0:0:
115,36,113126,6,0,P|104:99|119:162,1,130,4|8,0:0|0:0,0:0:0:0:
220,243,113977,2,0,P|279:220|341:235,1,130,2|8,0:0|0:0,0:0:0:0:
408,240,114615,2,2,P|433:147|405:54,1,195,2|8,0:0|0:0,0:0:0:0:
276,28,115679,1,0,0:0:0:0:
276,28,115892,2,0,P|253:49|222:57,1,65,2|8,0:0|0:0,0:0:0:0:
87,64,116530,6,0,P|80:127|101:188,1,130,2|8,0:0|0:0,0:0:0:0:
228,220,117381,2,0,L|357:209,1,130,2|8,0:0|0:0,0:0:0:0:
440,308,118232,2,2,L|181:331,1,260,2|0,0:0|0:0,0:0:0:0:
52,292,119509,2,0,P|47:259|52:227,1,65,8|0,0:0|0:0,0:0:0:0:
68,164,119934,6,0,P|126:191|189:183,1,130,4|8,0:0|0:0,0:0:0:0:
322,183,120785,2,0,P|385:191|444:164,2,130,0|8|0,0:0|0:0|0:0,0:0:0:0:
252,72,122062,2,0,B|224:92|224:92|193:92,1,65,8|2,0:0|0:0,0:0:0:0:
144,47,122487,2,0,P|155:111|144:175,1,130,0|8,0:0|0:0,0:0:0:0:
148,308,123338,6,0,B|216:308|216:308|256:261|256:261|296:308|296:308|364:308,2,260,4|2|0,0:0|0:0|0:0,0:0:0:0:
32,248,125466,1,8,0:0:0:0:
24,119,125892,2,0,P|61:67|119:41,1,130,2|8,0:0|0:0,0:0:0:0:
248,56,126743,6,0,P|301:91|365:95,1,130,4|8,0:0|0:0,0:0:0:0:
496,108,127594,2,0,P|512:170|500:233,1,130,2|8,0:0|0:0,0:0:0:0:
452,276,128232,2,2,P|398:240|334:243,1,130,2|0,0:0|0:0,0:0:0:0:
304,280,128870,1,8,0:0:0:0:
176,292,129296,2,0,L|168:228,1,65,0|0,0:0|0:0,0:0:0:0:
192,188,129721,1,8,0:0:0:0:
256,76,130147,5,4,0:0:0:0:
156,240,135892,6,0,P|185:253|217:251,1,65,2|0,0:0|0:0,0:0:0:0:
336,196,136530,1,8,0:0:0:0:
460,236,136955,2,0,P|477:298|465:361,2,130,2|8|0,0:0|0:0|0:0,0:0:0:0:
360,160,138232,1,8,0:0:0:0:
360,160,138658,6,0,B|312:112|312:112|312:49,1,130,2|8,0:0|0:0,0:0:0:0:
256,16,139296,1,0,0:0:0:0:
200,49,139509,2,0,B|200:112|200:112|152:160,1,130,2|8,0:0|0:0,0:0:0:0:
149,290,140360,2,0,B|221:306|256:238|256:238|291:306|363:290,2,260,2|2|2,0:0|0:0|0:0,0:0:0:0:
76,184,142487,2,0,P|63:120|74:56,1,130,8|0,0:0|0:0,0:0:0:0:
200,28,143338,2,0,P|230:39|262:36,1,65,8|0,0:0|0:0,0:0:0:0:
319,4,143764,6,0,P|312:68|326:131,1,130,4|8,0:0|0:0,0:0:0:0:
299,191,144402,2,0,P|237:175|175:192,2,130,2|2|2,0:0|0:0|0:0,0:0:0:0:
356,224,145466,2,0,P|418:240|480:223,1,130,0|8,0:0|0:0,0:0:0:0:
480,92,146317,2,0,P|417:76|355:93,1,130,2|8,0:0|0:0,0:0:0:0:
239,148,147168,6,0,P|180:172|116:167,1,130,4|8,0:0|0:0,0:0:0:0:
76,116,147807,2,0,L|92:244,2,130,2|2|2,0:0|0:0|0:0,0:0:0:0:
108,84,148870,1,0,0:0:0:0:
224,28,149296,2,0,P|283:52|346:41,1,130,8|0,0:0|0:0,0:0:0:0:
472,68,150147,1,8,0:0:0:0:
472,68,150360,1,8,0:0:0:0:
472,68,150572,6,0,P|520:184|474:303,2,260,4|2|2,0:0|0:0|0:0,0:0:0:0:
352,20,152700,1,8,0:0:0:0:
352,20,152913,2,0,P|320:40|292:40,1,65,2|0,0:0|0:0,0:0:0:0:
164,24,153551,1,8,0:0:0:0:
40,68,153977,6,0,P|-8:184|37:303,2,260,2|2|2,0:0|0:0|0:0,0:0:0:0:
164,28,156104,1,8,0:0:0:0:
256,120,156530,2,0,P|287:127|319:125,2,65,0|8|8,0:0|0:0|0:0,0:0:0:0:
140,180,157381,6,0,P|152:243|136:306,1,130,4|8,0:0|0:0,0:0:0:0:
28,236,158232,2,0,P|15:172|31:109,1,130,2|8,0:0|0:0,0:0:0:0:
60,52,158870,2,0,P|113:86|177:81,1,130,2|2,0:0|0:0,0:0:0:0:
216,56,159509,1,8,0:0:0:0:
340,16,159934,1,0,0:0:0:0:
340,16,160147,2,0,P|365:36|396:41,1,65,2|8,0:0|0:0,0:0:0:0:
483,135,160785,6,0,P|500:198|487:261,1,130,2|8,0:0|0:0,0:0:0:0:
372,320,161636,1,2,0:0:0:0:
256,264,162062,1,8,0:0:0:0:
256,264,162275,1,4,0:0:0:0:
256,192,162381,12,0,165892,0:0:0:0:
