osu file format v13

[General]
AudioFilename: La Casa.mp3
AudioLeadIn: 0
PreviewTime: 214009
Countdown: 0
SampleSet: Soft
StackLeniency: 0.7
Mode: 0
LetterboxInBreaks: 0
WidescreenStoryboard: 0

[Editor]
DistanceSpacing: 1
BeatDivisor: 4
GridSize: 4
TimelineZoom: 1

[Metadata]
Title:La Casa
TitleUnicode:La Casa
Artist:Caramelos de Cianuro
ArtistUnicode:Caramelos de Cianuro
Creator:mancuso_JM_
Version:Intermedio
Source:
Tags:cdc mancusojuanmattos Xanandra
BeatmapID:539395
BeatmapSetID:203589

[Difficulty]
HPDrainRate:4
CircleSize:3.5
OverallDifficulty:4
ApproachRate:5
SliderMultiplier:1.4
SliderTickRate:2

[Events]
//Background and Video events
0,0,"La Casa.jpg",0,0
Video,-3520,"La Casa vid.avi"
//Break Periods
2,107620,124198
2,196509,212809
//Storyboard Layer 0 (Background)
//Storyboard Layer 1 (Fail)
//Storyboard Layer 2 (Pass)
//Storyboard Layer 3 (Foreground)
//Storyboard Sound Samples

[TimingPoints]
18732,555.555555555556,4,2,1,75,1,0
19600,-100,4,2,1,90,0,0
20120,-100,4,2,1,75,0,0
24044,-100,4,2,1,100,0,0
24565,-100,4,2,1,75,0,0
28488,-100,4,2,1,90,0,0
29009,-100,4,2,1,75,0,0
36232,-100,4,2,1,55,0,0
36509,-100,4,2,1,75,0,0
40676,-100,4,2,1,55,0,0
40954,-100,4,2,1,65,0,0
41232,-100,4,2,1,75,0,0
45398,-100,4,2,1,65,0,0
45676,-100,4,2,1,50,0,0
45954,-100,4,2,1,75,0,0
54009,-100,4,2,1,55,0,0
54287,-100,4,2,1,65,0,0
54565,-100,4,2,1,50,0,0
54843,-100,4,2,1,75,0,0
58732,-100,4,2,1,65,0,0
59009,-100,4,2,1,75,0,0
63176,-100,4,2,1,65,0,0
63454,-100,4,2,1,75,0,0
70954,-100,4,2,1,55,0,0
71232,-100,4,2,1,75,0,0
72065,-100,4,2,1,75,0,1
72204,-100,4,2,1,75,0,0
80676,-100,4,2,1,30,0,0
80954,-100,4,2,1,60,0,0
81093,-100,4,2,1,75,0,0
82898,-100,4,2,1,30,0,0
83176,-100,4,2,1,60,0,0
83315,-100,4,2,1,75,0,0
88732,-100,4,2,1,60,0,0
89009,-100,4,2,1,75,0,0
89565,-100,4,2,1,60,0,0
89843,-100,4,2,1,75,0,0
98454,-100,4,2,1,30,0,0
98732,-100,4,2,1,60,0,0
98870,-100,4,2,1,75,0,0
100676,-100,4,2,1,30,0,0
100954,-100,4,2,1,60,0,0
101232,-100,4,2,1,75,0,0
105398,-100,4,2,1,50,0,0
105537,-100,4,2,1,75,0,0
107343,-100,4,2,1,65,0,0
107620,-100,4,2,1,75,0,0
124287,-100,4,2,1,65,0,0
124565,-100,4,2,1,75,0,0
131787,-100,4,2,1,55,0,0
132065,-100,4,2,1,75,0,0
134287,-100,4,2,1,65,0,0
134565,-100,4,2,1,50,0,0
134843,-100,4,2,1,75,0,0
142065,-100,4,2,1,50,0,0
142343,-100,4,2,1,75,0,0
142898,-100,4,2,1,65,0,0
143176,-100,4,2,1,75,0,0
147620,-100,4,2,1,65,0,0
147898,-100,4,2,1,75,0,0
152065,-100,4,2,1,65,0,0
152343,-100,4,2,1,75,0,0
156787,-100,4,2,1,95,0,0
157620,-100,4,2,1,75,0,0
160676,-100,4,2,1,65,0,1
161093,-100,4,2,1,75,0,0
169565,-100,4,2,1,30,0,0
169843,-100,4,2,1,60,0,0
169982,-100,4,2,1,75,0,0
171787,-100,4,2,1,30,0,0
172065,-100,4,2,1,60,0,0
172204,-100,4,2,1,75,0,0
177620,-100,4,2,1,60,0,0
177898,-100,4,2,1,75,0,0
178454,-100,4,2,1,60,0,0
178732,-100,4,2,1,75,0,1
178870,-100,4,2,1,75,0,0
187343,-100,4,2,1,30,0,0
187620,-100,4,2,1,60,0,0
187759,-100,4,2,1,75,0,0
189565,-100,4,2,1,30,0,0
189843,-100,4,2,1,60,0,0
190120,-100,4,2,1,75,0,0
194287,-100,4,2,1,50,0,0
213176,-100,4,2,1,75,0,0
213454,-100,4,2,1,60,0,0
213732,-100,4,2,1,75,0,0
214009,-100,4,2,1,75,0,1
214287,-100,4,2,1,75,0,0
223176,-100,4,2,1,60,0,0
223315,-100,4,2,1,75,0,0
225398,-100,4,2,1,60,0,0
225537,-100,4,2,1,75,0,0
230120,-100,4,2,1,55,0,0
230398,-100,4,2,1,60,0,0
230676,-100,4,2,1,75,0,0
231787,-100,4,2,1,60,0,1
240954,-100,4,2,1,60,0,1
241093,-100,4,2,1,75,0,1
242898,-100,4,2,1,60,0,1
243315,-100,4,2,1,75,0,1
247898,-100,4,2,1,60,0,1
248037,-100,4,2,1,75,0,1
249565,-100,4,2,1,60,0,1
249843,-100,4,2,1,75,0,0
249982,-100,4,2,1,40,0,0

[Colours]
Combo1 : 255,181,106
Combo2 : 255,255,91
Combo3 : 111,255,255

[HitObjects]
173,346,18454,6,0,P|217:359|262:391,2,70,0|0|2,0:0|0:0|0:0,0:0:0:0:
100,226,19565,2,0,P|148:130|153:17,1,210,2|8,0:0|0:0,0:0:0:0:
292,60,20954,6,0,L|383:53,2,70,0|2|8,0:0|0:0|0:0,0:0:0:0:
262,89,21787,2,0,P|218:139|136:168,1,140,2|2,0:0|0:0,0:0:0:0:
75,49,22898,6,0,P|40:37|11:10,2,70,0|0|2,0:0|0:0|0:0,0:0:0:0:
214,27,24009,2,0,P|313:60|395:136,1,210,2|8,0:0|0:0,0:0:0:0:
458,253,25398,6,0,P|485:287|524:301,2,70,0|2|8,0:0|0:0|0:0,0:0:0:0:
417,243,26232,2,0,L|202:255,1,210,2|8,0:0|0:0,0:0:0:0:
109,156,27620,5,0,0:0:0:0:
71,173,27898,2,0,P|39:259|55:328,1,140,2|2,0:0|0:0,0:0:0:0:
246,370,29287,6,0,L|417:354,1,140,8|2,0:0|0:0,0:0:0:0:
416,327,30120,2,0,P|431:275|467:246,2,70,2|8|2,0:0|0:0|0:0,0:0:0:0:
232,226,31509,6,0,P|206:172|218:71,1,140,8|0,0:0|0:0,0:0:0:0:
200,52,32343,2,0,P|126:10|66:19,1,140,2|2,0:0|0:0,0:0:0:0:
118,292,34009,6,0,P|150:269|184:254,3,70,0|2|2|8,0:0|0:0|0:0|0:0,0:0:0:0:
196,219,35120,2,0,P|213:121|293:41,1,210,2|8,0:0|0:0,0:0:0:0:
419,73,36509,5,0,0:0:0:0:
475,201,37065,1,8,0:0:0:0:
358,278,37620,1,0,0:0:0:0:
323,301,37898,1,2,0:0:0:0:
288,325,38176,2,0,L|119:317,1,140,8|0,0:0|0:0,0:0:0:0:
12,353,39287,5,8,0:0:0:0:
34,214,39843,1,0,0:0:0:0:
69,191,40120,1,2,0:0:0:0:
104,167,40399,2,0,L|273:175,1,140,8|4,0:0|0:3,0:0:0:0:
307,298,41509,5,8,0:0:0:0:
408,201,42065,1,0,0:0:0:0:
446,183,42342,1,2,0:0:0:0:
483,163,42620,2,0,P|483:84|451:0,1,140,8|0,0:0|0:0,0:0:0:0:
347,102,43732,5,8,0:0:0:0:
217,48,44287,1,0,0:0:0:0:
179,66,44565,1,2,0:0:0:0:
142,86,44842,2,0,P|142:165|174:249,1,140,8|4,0:0|0:3,0:0:0:0:
75,335,45954,5,8,0:0:0:0:
113,317,46232,2,0,P|221:321|325:381,1,210,2|8,0:0|0:0,0:0:0:0:
340,338,47343,6,0,P|353:269|308:120,1,210,2|8,0:0|0:0,0:0:0:0:
287,109,48454,2,0,P|403:92|468:19,1,210,2|8,0:0|0:0,0:0:0:0:
505,23,49565,5,2,0:0:0:0:
501,162,50120,1,2,0:0:0:0:
387,244,50676,1,2,0:0:0:0:
256,192,51232,1,2,0:0:0:0:
125,140,51787,5,2,0:0:0:0:
83,131,52065,2,0,P|22:179|2:244,1,140,4|8,0:3|0:0,0:0:0:0:
32,265,52898,2,0,P|131:292|189:383,1,210,2|8,0:0|0:0,0:0:0:0:
317,325,54287,6,0,P|352:335|397:336,2,70,4|4|8,0:3|0:3|0:0,0:0:0:0:
200,247,55398,2,0,P|165:237|120:236,2,70,0|2|8,0:0|0:0|0:0,0:0:0:0:
326,187,56509,6,0,P|336:151|337:107,2,70,0|2|8,0:0|0:0|0:0,0:0:0:0:
206,113,57620,1,0,0:0:0:0:
191,73,57898,2,0,P|132:25|45:38,1,140,2|2,0:0|0:0,0:0:0:0:
32,43,58732,1,4,0:3:0:0:
54,180,59287,6,0,L|34:336,1,140,8|0,0:0|0:0,0:0:0:0:
162,379,60398,2,0,L|182:223,1,140,8|2,0:0|0:0,0:0:0:0:
154,102,61509,5,8,0:0:0:0:
183,72,61787,1,0,0:0:0:0:
211,40,62065,2,0,P|272:43|354:27,1,140,2|8,0:0|0:0,0:0:0:0:
489,32,63176,1,4,0:3:0:0:
425,152,63732,6,0,P|431:213|495:294,1,140,8|0,0:0|0:0,0:0:0:0:
347,345,64843,1,8,0:0:0:0:
313,371,65120,2,0,L|142:362,1,140,2|2,0:0|0:0,0:0:0:0:
99,244,66232,5,0,0:0:0:0:
130,216,66509,2,0,L|301:225,1,140,2|8,0:0|0:0,0:0:0:0:
294,189,67343,2,0,L|465:198,1,140,2|2,0:0|0:0,0:0:0:0:
415,57,68454,5,0,0:0:0:0:
380,80,68732,2,0,P|259:63|172:-10,1,210,2|2,0:0|0:0,0:0:0:0:
123,314,70954,6,0,P|76:329|42:346,2,70,4|4|8,0:3|0:3|0:0,0:0:0:0:
164,321,71787,2,0,P|224:352|309:359,1,140,2|0,0:0|0:0,0:0:0:0:
406,273,72898,6,0,P|418:195|458:113,1,140,2|0,0:0|0:0,0:0:0:0:
447,97,73732,1,8,0:0:0:0:
406,85,74009,2,0,P|336:94|272:121,1,140,2|0,0:0|0:0,0:0:0:0:
234,101,74843,6,0,P|217:65|186:32,1,70,10|2,0:0|0:0,0:0:0:0:
139,169,75676,2,0,P|156:205|187:238,1,70,2|8,0:0|0:0,0:0:0:0:
217,225,76232,2,0,P|260:279|289:342,1,140,2|0,0:0|0:0,0:0:0:0:
428,368,77343,2,0,P|468:311|493:246,1,140,2|0,0:0|0:0,0:0:0:0:
428,122,78454,6,0,P|359:108|289:113,1,140,2|2,0:0|0:0,0:0:0:0:
152,130,79565,1,0,0:0:0:0:
164,169,79843,1,2,0:0:0:0:
178,208,80120,2,0,L|171:358,1,140,0|4,0:0|0:0,0:0:0:0:
137,373,80954,1,4,0:0:0:0:
318,267,81787,6,0,P|380:311|418:370,1,140,2|2,0:0|0:0,0:0:0:0:
456,358,82620,2,0,P|479:321|484:279,2,70,8|4|4,0:0|0:0|0:0,0:0:0:0:
369,166,84009,6,0,P|425:101|491:71,1,140,2|0,0:0|0:0,0:0:0:0:
451,39,84843,2,0,P|370:29|300:53,1,140,8|0,0:0|0:0,0:0:0:0:
283,72,85676,6,0,P|214:92|113:71,1,140,2|0,0:0|0:0,0:0:0:0:
110,105,86509,2,0,P|93:207|112:258,1,140,2|8,0:0|0:0,0:0:0:0:
125,275,87343,2,0,L|267:287,1,140,2|0,0:0|0:0,0:0:0:0:
312,96,88732,6,0,P|359:81|393:64,2,70,4|4|8,0:3|0:3|0:0,0:0:0:0:
296,57,89565,2,0,P|236:26|151:19,1,140,2|0,0:0|0:0,0:0:0:0:
58,110,90676,6,0,P|46:188|6:270,1,140,2|0,0:0|0:0,0:0:0:0:
24,286,91510,1,8,0:0:0:0:
58,298,91787,2,0,P|128:289|192:262,1,140,2|0,0:0|0:0,0:0:0:0:
233,259,92620,6,0,P|250:295|281:328,1,70,10|2,0:0|0:0,0:0:0:0:
373,215,93454,2,0,P|356:179|325:146,1,70,2|8,0:0|0:0,0:0:0:0:
295,159,94010,2,0,P|252:105|223:42,1,140,2|2,0:0|0:0,0:0:0:0:
84,16,95121,2,0,P|44:73|19:138,1,140,2|2,0:0|0:0,0:0:0:0:
84,262,96232,6,0,P|153:276|223:271,1,140,2|0,0:0|0:0,0:0:0:0:
360,254,97343,1,2,0:0:0:0:
348,215,97621,1,0,0:0:0:0:
334,176,97898,2,0,L|341:26,1,140,2|4,0:0|0:0,0:0:0:0:
375,11,98732,1,4,0:0:0:0:
194,117,99565,6,0,P|132:73|94:14,1,140,2|2,0:0|0:0,0:0:0:0:
56,26,100398,2,0,P|33:63|28:105,2,70,8|4|4,0:0|0:0|0:0,0:0:0:0:
143,218,101787,6,0,P|87:283|21:313,1,140,2|0,0:0|0:0,0:0:0:0:
61,345,102621,2,0,P|142:355|212:331,1,140,8|0,0:0|0:0,0:0:0:0:
229,312,103454,6,0,P|298:292|399:313,1,140,2|0,0:0|0:0,0:0:0:0:
394,268,104287,2,0,P|402:217|393:191,1,70,2|0,0:0|0:0,0:0:0:0:
377,163,104843,2,0,P|361:70|378:24,1,140,10|4,0:0|0:3,0:0:0:0:
419,312,125398,5,0,0:0:0:0:
475,184,125954,1,8,0:0:0:0:
358,107,126509,1,0,0:0:0:0:
323,84,126787,1,2,0:0:0:0:
288,60,127065,2,0,L|119:68,1,140,8|0,0:0|0:0,0:0:0:0:
12,32,128176,5,8,0:0:0:0:
34,171,128732,1,0,0:0:0:0:
69,194,129009,1,2,0:0:0:0:
104,218,129288,2,0,L|273:210,1,140,8|0,0:0|0:0,0:0:0:0:
307,87,130398,5,8,0:0:0:0:
408,184,130954,1,0,0:0:0:0:
446,202,131231,1,2,0:0:0:0:
483,222,131509,2,0,P|483:301|451:385,1,140,8|0,0:0|0:0,0:0:0:0:
347,283,132621,5,8,0:0:0:0:
217,337,133176,1,0,0:0:0:0:
179,319,133453,1,2,0:0:0:0:
142,299,133731,2,0,P|142:220|174:136,1,140,8|4,0:0|0:3,0:0:0:0:
75,50,134843,5,8,0:0:0:0:
113,68,135121,2,0,P|221:64|325:4,1,210,2|8,0:0|0:0,0:0:0:0:
340,47,136232,6,0,P|353:116|308:265,1,210,2|8,0:0|0:0,0:0:0:0:
287,276,137343,2,0,P|403:293|468:366,1,210,2|8,0:0|0:0,0:0:0:0:
505,362,138454,5,2,0:0:0:0:
501,223,139009,1,2,0:0:0:0:
387,141,139565,1,2,0:0:0:0:
256,193,140120,1,2,0:0:0:0:
141,272,140676,5,2,0:0:0:0:
2,251,141232,2,0,P|27:213|27:172,1,70,0|8,0:0|0:0,0:0:0:0:
43,153,141787,2,0,P|78:56|174:6,1,210,0|8,0:0|0:0,0:0:0:0:
303,47,143176,6,0,P|338:37|383:36,2,70,4|4|8,0:3|0:3|0:0,0:0:0:0:
200,138,144287,2,0,P|165:148|120:149,2,70,2|0|8,0:0|0:0|0:0,0:0:0:0:
336,171,145398,6,0,P|339:205|348:239,2,70,2|0|8,0:0|0:0|0:0,0:0:0:0:
276,297,146509,2,0,P|241:307|196:308,1,70,2|0,0:0|0:0,0:0:0:0:
166,303,147065,2,0,P|91:303|15:336,1,140,8|4,0:0|3:0,0:0:0:0:
46,186,148176,6,0,L|26:30,1,140,8|0,0:0|0:0,0:0:0:0:
162,6,149287,2,0,L|182:162,1,140,8|2,0:0|0:0,0:0:0:0:
154,283,150398,5,8,0:0:0:0:
183,313,150676,1,0,0:0:0:0:
211,345,150954,2,0,P|272:342|354:358,1,140,2|8,0:0|0:0,0:0:0:0:
490,352,152065,1,4,0:3:0:0:
425,233,152621,6,0,P|431:172|495:91,1,140,8|0,0:0|0:0,0:0:0:0:
345,42,153732,1,8,0:0:0:0:
313,14,154009,2,0,L|142:23,1,140,2|2,0:0|0:0,0:0:0:0:
99,141,155121,5,0,0:0:0:0:
130,169,155398,2,0,L|301:160,1,140,2|8,0:0|0:0,0:0:0:0:
294,196,156232,2,0,L|465:187,1,140,2|2,0:0|0:0,0:0:0:0:
415,328,157343,5,0,0:0:0:0:
380,305,157621,2,0,P|259:322|172:395,1,210,2|2,0:0|0:0,0:0:0:0:
123,71,159843,6,0,P|76:56|42:39,2,70,4|4|8,0:3|0:3|0:0,0:0:0:0:
164,64,160676,2,0,P|224:33|309:26,1,140,2|0,0:0|0:0,0:0:0:0:
406,112,161787,6,0,P|418:190|458:272,1,140,2|0,0:0|0:0,0:0:0:0:
447,288,162621,1,8,0:0:0:0:
406,300,162898,2,0,P|336:291|272:264,1,140,2|0,0:0|0:0,0:0:0:0:
234,284,163732,6,0,P|217:320|186:353,1,70,10|2,0:0|0:0,0:0:0:0:
139,216,164565,2,0,P|156:180|187:147,1,70,2|8,0:0|0:0,0:0:0:0:
217,160,165121,2,0,P|260:106|289:43,1,140,2|2,0:0|0:0,0:0:0:0:
428,17,166232,2,0,P|468:74|493:139,1,140,2|0,0:0|0:0,0:0:0:0:
428,263,167343,6,0,P|359:277|289:272,1,140,2|2,0:0|0:0,0:0:0:0:
152,255,168454,1,0,0:0:0:0:
164,216,168732,1,2,0:0:0:0:
178,177,169009,2,0,L|171:27,1,140,0|4,0:0|0:0,0:0:0:0:
137,12,169843,1,4,0:0:0:0:
318,118,170676,6,0,P|380:74|418:15,1,140,2|0,0:0|0:0,0:0:0:0:
456,27,171509,2,0,P|479:64|484:106,2,70,8|4|4,0:0|0:0|0:0,0:0:0:0:
369,219,172898,6,0,P|425:284|491:314,1,140,2|0,0:0|0:0,0:0:0:0:
451,346,173732,2,0,P|370:356|300:332,1,140,10|0,0:0|0:0,0:0:0:0:
283,313,174565,6,0,P|214:293|113:314,1,140,2|0,0:0|0:0,0:0:0:0:
110,280,175398,2,0,P|93:178|112:127,1,140,2|8,0:0|0:0,0:0:0:0:
125,109,176232,2,0,L|267:97,1,140,2|0,0:0|0:0,0:0:0:0:
312,288,177621,6,0,P|359:303|393:320,2,70,4|4|8,0:3|0:3|0:0,0:0:0:0:
296,327,178454,2,0,P|236:358|151:365,1,140,2|0,0:0|0:0,0:0:0:0:
58,274,179565,6,0,P|46:196|6:114,1,140,2|0,0:0|0:0,0:0:0:0:
24,98,180399,1,8,0:0:0:0:
58,86,180676,2,0,P|128:95|192:122,1,140,2|0,0:0|0:0,0:0:0:0:
233,125,181509,6,0,P|250:89|281:56,1,70,10|2,0:0|0:0,0:0:0:0:
373,170,182343,2,0,P|356:206|325:239,1,70,2|8,0:0|0:0,0:0:0:0:
295,226,182899,2,0,P|252:280|223:343,1,140,2|2,0:0|0:0,0:0:0:0:
84,369,184010,6,0,P|44:312|19:247,1,140,2|2,0:0|0:0,0:0:0:0:
84,123,185121,2,0,P|153:109|223:114,1,140,2|2,0:0|0:0,0:0:0:0:
360,131,186232,5,0,0:0:0:0:
348,170,186510,1,2,0:0:0:0:
334,209,186787,2,0,L|341:359,1,140,0|4,0:0|0:0,0:0:0:0:
375,374,187621,1,4,0:0:0:0:
194,268,188454,6,0,P|132:312|94:371,1,140,2|0,0:0|0:0,0:0:0:0:
56,359,189287,2,0,P|33:322|28:280,2,70,8|4|4,0:0|0:0|0:0,0:0:0:0:
143,167,190676,6,0,P|87:102|21:72,1,140,2|0,0:0|0:0,0:0:0:0:
61,40,191510,2,0,P|142:30|212:54,1,140,8|0,0:0|0:0,0:0:0:0:
229,73,192343,6,0,P|298:93|399:72,1,140,2|0,0:0|0:0,0:0:0:0:
394,117,193176,2,0,P|402:168|393:194,1,70,2|0,0:0|0:0,0:0:0:0:
377,222,193732,2,0,P|361:315|378:361,1,140,10|4,0:0|0:3,0:0:0:0:
266,116,214009,6,0,P|208:155|110:147,1,140,2|0,0:0|0:0,0:0:0:0:
0,175,215120,2,0,P|63:205|105:294,1,140,2|0,0:0|0:0,0:0:0:0:
183,376,216232,2,0,P|179:306|235:225,1,140,2|0,0:0|0:0,0:0:0:0:
123,136,217343,1,2,0:0:0:0:
224,38,217898,5,2,0:0:0:0:
251,69,218176,1,8,0:0:0:0:
278,100,218454,2,0,L|437:89,1,140,2|0,0:0|0:0,0:0:0:0:
511,193,219565,2,0,L|352:204,1,140,2|0,0:0|0:0,0:0:0:0:
323,334,220676,2,0,L|482:323,2,140,2|0|2,0:0|0:0|0:0,0:0:0:0:
186,365,222343,5,0,0:0:0:0:
71,286,222898,2,0,P|111:173|206:112,1,210,2|8,0:0|0:0,0:0:0:0:
382,60,224565,1,2,0:0:0:0:
365,98,224843,1,8,0:0:0:0:
347,136,225120,2,0,P|234:96|173:1,1,210,2|8,0:0|0:0,0:0:0:0:
33,215,227065,5,8,0:0:0:0:
74,209,227343,2,0,P|137:244|168:310,1,140,2|0,0:0|0:0,0:0:0:0:
189,338,228176,2,0,P|248:367|339:348,1,140,8|0,0:0|0:0,0:0:0:0:
349,328,229009,1,2,0:0:0:0:
292,201,229565,1,0,0:0:0:0:
320,169,229843,2,0,L|479:177,1,140,2|0,0:0|0:0,0:0:0:0:
487,143,230676,2,0,P|482:59|433:26,1,140,2|0,0:0|0:0,0:0:0:0:
305,55,231787,6,0,L|146:47,1,140,2|0,0:0|0:0,0:0:0:0:
52,129,232898,2,0,L|44:288,1,140,2|0,0:0|0:0,0:0:0:0:
145,367,234009,2,0,L|304:375,1,140,2|0,0:0|0:0,0:0:0:0:
396,288,235120,2,0,L|404:129,1,140,2|0,0:0|0:0,0:0:0:0:
382,111,235954,1,8,0:0:0:0:
357,76,236232,6,0,P|295:47|225:38,1,140,2|0,0:0|0:0,0:0:0:0:
125,136,237343,2,0,P|131:205|158:269,1,140,2|0,0:0|0:0,0:0:0:0:
293,308,238454,2,0,P|351:268|393:212,2,140,2|0|2,0:0|0:0|0:0,0:0:0:0:
159,345,240120,5,0,0:0:0:0:
164,204,240676,2,0,P|100:119|1:78,1,210,2|8,0:0|0:0,0:0:0:0:
208,14,242343,1,2,0:0:0:0:
225,52,242620,1,8,0:0:0:0:
239,91,242898,2,0,L|474:76,1,210,2|8,0:0|0:0,0:0:0:0:
312,322,244843,5,8,0:0:0:0:
314,280,245120,2,0,P|274:227|197:208,1,140,2|0,0:0|0:0,0:0:0:0:
164,201,245954,2,0,P|101:157|85:83,1,140,8|0,0:0|0:0,0:0:0:0:
60,64,246787,1,2,0:0:0:0:
200,48,247343,2,0,P|230:17|260:1,2,70,0|2|8,0:0|0:0|0:0,0:0:0:0:
199,89,248176,2,0,P|263:148|283:222,1,140,2|8,0:0|0:0,0:0:0:0:
256,192,249843,12,8,254287,0:3:0:0:
