osu file format v14

[General]
AudioFilename: La Casa.mp3
AudioLeadIn: 0
PreviewTime: 214009
Countdown: 0
SampleSet: Soft
StackLeniency: 0.7
Mode: 0
LetterboxInBreaks: 0
WidescreenStoryboard: 0

[Editor]
DistanceSpacing: 1
BeatDivisor: 4
GridSize: 4
TimelineZoom: 1

[Metadata]
Title:La Casa
TitleUnicode:La Casa
Artist:Caramelos de Cianuro
ArtistUnicode:Caramelos de Cianuro
Creator:mancuso_JM_
Version:Facil
Source:
Tags:cdc mancusojuanmattos Xanandra
BeatmapID:481080
BeatmapSetID:203589

[Difficulty]
HPDrainRate:2
CircleSize:3
OverallDifficulty:2
ApproachRate:3
SliderMultiplier:1.2
SliderTickRate:2

[Events]
//Background and Video events
0,0,"La Casa.jpg",0,0
Video,-3520,"La Casa vid.avi"
//Break Periods
2,107620,123958
2,196509,212569
//Storyboard Layer 0 (Background)
//Storyboard Layer 1 (Fail)
//Storyboard Layer 2 (Pass)
//Storyboard Layer 3 (Foreground)
//Storyboard Sound Samples

[TimingPoints]
18732,555.555555555556,4,2,1,75,1,0
45398,-100,4,2,1,65,0,0
45537,-100,4,2,1,75,0,0
54287,-100,4,2,1,65,0,0
54426,-100,4,2,1,75,0,0
70954,-100,4,2,1,55,0,0
71232,-100,4,2,1,75,0,0
72065,-100,4,2,1,75,0,1
72204,-100,4,2,1,75,0,0
80954,-100,4,2,1,60,0,0
81093,-100,4,2,1,75,0,0
83176,-100,4,2,1,60,0,0
83315,-100,4,2,1,75,0,0
88732,-100,4,2,1,60,0,0
88870,-100,4,2,1,75,0,0
98732,-100,4,2,1,60,0,0
98870,-100,4,2,1,75,0,0
100954,-100,4,2,1,60,0,0
101232,-100,4,2,1,75,0,0
103176,-100,4,2,1,65,0,0
103315,-100,4,2,1,75,0,0
105398,-100,4,2,1,50,0,0
105537,-100,4,2,1,75,0,0
134287,-100,4,2,1,65,0,0
134426,-100,4,2,1,75,0,0
143176,-100,4,2,1,65,0,0
143315,-100,4,2,1,75,0,0
152065,-100,4,2,1,65,0,0
152204,-100,4,2,1,75,0,0
156787,-100,4,2,1,95,0,0
157620,-100,4,2,1,75,0,0
160954,-100,4,2,1,75,0,1
161093,-100,4,2,1,75,0,0
169843,-100,4,2,1,60,0,0
169982,-100,4,2,1,75,0,0
172065,-100,4,2,1,60,0,0
172204,-100,4,2,1,75,0,0
177620,-100,4,2,1,60,0,0
177759,-100,4,2,1,75,0,0
178732,-100,4,2,1,75,0,1
178870,-100,4,2,1,75,0,0
187620,-100,4,2,1,60,0,0
187759,-100,4,2,1,75,0,0
189843,-100,4,2,1,60,0,0
189982,-100,4,2,1,75,0,0
192065,-100,4,2,1,65,0,0
192204,-100,4,2,1,75,0,0
194287,-100,4,2,1,50,0,0
214009,-100,4,2,1,75,0,1
214287,-100,4,2,1,75,0,0
223176,-100,4,2,1,60,0,0
223315,-100,4,2,1,75,0,0
225398,-100,4,2,1,60,0,0
225537,-100,4,2,1,75,0,0
229843,-100,4,2,1,60,0,0
230676,-100,4,2,1,75,0,0
232065,-100,4,2,1,75,0,1
240954,-100,4,2,1,60,0,1
241093,-100,4,2,1,75,0,1
243176,-100,4,2,1,60,0,1
243315,-100,4,2,1,75,0,1
247898,-100,4,2,1,60,0,1
248037,-100,4,2,1,75,0,1
249843,-100,4,2,1,40,0,0

[Colours]
Combo1 : 255,181,106
Combo2 : 255,255,91
Combo3 : 111,255,255

[HitObjects]
166,294,18732,6,0,B|262:270|254:322|342:294,2,180,0|2|8,0:0|0:0|0:0,0:0:0:0:
56,248,20954,2,0,L|36:69,2,180,0|2|8,0:0|0:0|0:0,0:0:0:0:
152,324,23176,6,0,P|232:358|318:327,2,180,0|2|8,0:0|0:0|0:0,0:0:0:0:
236,239,25398,2,0,P|155:206|73:239,2,180,0|2|8,0:0|0:0|0:0,0:0:0:0:
346,194,27620,6,0,L|328:14,2,180,0|2|8,0:0|0:0|0:0,0:0:0:0:
468,188,29843,2,0,L|485:367,2,180,0|2|8,0:0|0:0|0:0,0:0:0:0:
388,92,32065,6,0,P|309:132|225:108,2,180,0|2|8,0:0|0:0|0:0,0:0:0:0:
504,96,34287,2,0,L|492:275,2,180,2|2|8,0:0|0:0|0:0,0:0:0:0:
404,28,36509,5,0,0:0:0:0:
292,72,37065,1,8,0:0:0:0:
187,132,37620,2,0,P|166:218|195:302,2,180,2|2|8,0:0|0:0|0:0,0:0:0:0:
256,32,39843,1,2,0:0:0:0:
324,132,40398,1,8,0:0:0:0:
376,240,40954,6,0,P|341:288|318:344,1,120,2|8,0:0|0:0,0:0:0:0:
193,344,42065,2,0,P|170:288|136:240,1,120,2|8,0:0|0:0,0:0:0:0:
28,188,43176,1,0,0:0:0:0:
112,103,43732,2,0,P|198:28|310:58,1,240,8|8,0:0|0:0,0:0:0:0:
324,176,45398,6,0,P|252:226|165:213,2,180,4|2|8,0:3|0:0|0:0,0:0:0:0:
436,132,47620,2,0,B|430:190|463:219|495:250|492:300,2,180,2|2|8,0:0|0:0|0:0,0:0:0:0:
341,54,49843,6,0,P|290:82|231:76,1,120,2|8,0:0|0:0,0:0:0:0:
110,83,50954,2,0,P|101:142|118:199,1,120,2|8,0:0|0:0,0:0:0:0:
160,312,52065,2,0,B|228:300|256:248|256:248|284:300|352:312,1,240,4|0,0:3|0:0,0:0:0:0:
456,252,53732,1,8,0:0:0:0:
476,131,54287,6,0,P|505:80|508:20,2,120,4|8|0,0:3|0:0|0:0,0:0:0:0:
360,168,55954,1,8,0:0:0:0:
256,224,56509,2,0,P|226:275|223:335,2,120,2|8|0,0:0|0:0|0:0,0:0:0:0:
360,168,58176,1,8,0:0:0:0:
348,48,58732,6,0,B|308:68|308:68|268:68|268:68|236:83,1,120,2|8,0:0|0:0,0:0:0:0:
120,116,59843,2,0,P|93:62|46:25,2,120,2|8|2,0:0|0:0|0:0,0:0:0:0:
100,236,61509,1,8,0:0:0:0:
160,339,62065,2,0,P|201:297|219:240,1,120,2|8,0:0|0:0,0:0:0:0:
256,124,63176,6,0,P|312:108|369:126,1,120,2|8,0:0|0:0,0:0:0:0:
488,148,64287,2,0,P|504:92|485:35,2,120,0|8|2,0:0|0:0|0:0,0:0:0:0:
404,236,65954,1,8,0:0:0:0:
303,303,66509,2,0,P|231:255|148:280,1,180,2|2,0:0|0:0,0:0:0:0:
32,256,67898,6,0,P|11:169|40:85,1,180,2|0,0:0|0:0,0:0:0:0:
152,36,69287,1,8,0:0:0:0:
268,60,69843,2,0,B|328:48|328:88|384:69,1,120,2|8,0:0|0:0,0:0:0:0:
496,120,70954,2,0,L|502:179,2,60,4|4|8,0:3|0:3|0:0,0:0:0:0:
428,20,72065,6,0,B|388:20|388:20|356:44|356:44|316:44,1,120,4|8,0:0|0:0,0:0:0:0:
196,44,73176,2,0,B|156:44|156:44|124:20|124:20|84:20,2,120,2|8|2,0:0|0:0|0:0,0:0:0:0:
256,148,74843,2,0,L|256:208,1,60,8|2,0:0|0:0,0:0:0:0:
179,300,75676,6,0,P|256:259|332:300,1,180,2|0,0:0|0:0,0:0:0:0:
444,348,77065,1,8,0:0:0:0:
496,239,77620,2,0,P|508:181|495:123,1,120,2|8,0:0|0:0,0:0:0:0:
400,52,78732,2,0,P|347:80|289:73,1,120,2|8,0:0|0:0,0:0:0:0:
168,64,79843,2,0,P|184:121|177:180,1,120,2|8,0:0|0:0,0:0:0:0:
157,299,80954,6,0,B|206:285|226:313|226:313|256:280|256:280|286:313|286:313|306:285|355:299,1,240,4|2,0:0|0:0,0:0:0:0:
460,348,82620,1,8,0:0:0:0:
424,232,83176,2,0,L|392:54,2,180,4|2|8,0:0|0:0|0:0,0:0:0:0:
312,280,85398,6,0,P|264:244|205:234,1,120,2|8,0:0|0:0,0:0:0:0:
88,208,86509,2,0,P|64:122|93:39,2,180,2|2|8,0:0|0:0|0:0,0:0:0:0:
204,244,88732,2,0,P|250:207|309:202,1,120,4|8,0:3|0:0,0:0:0:0:
356,312,89843,6,0,P|309:348|250:353,1,120,4|8,0:0|0:0,0:0:0:0:
148,292,90954,2,0,B|132:232|88:232|40:232|26:169,2,180,0|2|8,0:0|0:0|0:0,0:0:0:0:
260,335,93176,2,0,P|313:311|371:324,1,120,0|8,0:0|0:0,0:0:0:0:
480,272,94287,6,0,P|463:214|471:155,1,120,2|8,0:0|0:0,0:0:0:0:
509,41,95398,2,0,B|447:20|393:65|393:65|340:45,2,180,2|2|8,0:0|0:0|0:0,0:0:0:0:
472,155,97620,2,0,P|484:213|471:271,1,120,2|8,0:0|0:0,0:0:0:0:
368,336,98732,6,0,B|280:364|280:304|192:334,2,180,4|2|8,0:0|0:0|0:0,0:0:0:0:
468,276,100954,2,0,P|495:192|468:108,2,180,4|2|8,0:0|0:0|0:0,0:0:0:0:
356,332,103176,5,4,0:3:0:0:
324,216,103732,2,0,B|276:196|260:160|256:125|256:125|252:160|236:196|188:216,1,240,8|8,0:0|0:0,0:0:0:0:
156,332,105398,1,4,0:3:0:0:
81,325,125398,6,0,P|138:341|197:332,1,120,0|8,0:0|0:0,0:0:0:0:
316,332,126509,2,0,P|375:341|432:325,1,120,0|8,0:0|0:0,0:0:0:0:
496,224,127620,2,0,P|505:165|488:107,2,120,2|8|0,0:0|0:0|0:0,0:0:0:0:
432,324,129287,1,8,0:0:0:0:
315,351,129843,6,0,P|260:331|202:342,1,120,2|8,0:0|0:0,0:0:0:0:
84,324,130954,2,0,P|54:240|77:154,2,180,2|2|8,0:0|0:0|0:0,0:0:0:0:
200,355,133176,2,0,P|255:336|314:345,1,120,2|8,0:0|0:0,0:0:0:0:
416,280,134287,6,0,P|437:193|408:109,2,180,4|2|8,0:3|0:0|0:0,0:0:0:0:
308,332,136509,2,0,B|244:324|228:276|228:276|152:288,2,180,2|2|8,0:0|0:0|0:0,0:0:0:0:
428,336,138732,6,0,P|413:279|424:221,1,120,2|8,0:0|0:0,0:0:0:0:
500,130,139843,2,0,P|510:72|494:14,1,120,2|8,0:0|0:0,0:0:0:0:
392,76,140954,2,0,P|308:47|225:79,2,180,2|2|8,0:0|0:0|0:0,0:0:0:0:
464,172,143176,5,4,0:3:0:0:
436,288,143732,2,0,P|378:304|320:292,1,120,8|2,0:0|0:0,0:0:0:0:
256,192,144843,1,8,0:0:0:0:
191,292,145398,2,0,P|133:304|76:288,2,120,2|8|2,0:0|0:0|0:0,0:0:0:0:
256,192,147065,1,8,0:0:0:0:
316,88,147620,6,0,P|371:108|429:97,2,120,2|8|2,0:0|0:0|0:0,0:0:0:0:
196,88,149287,2,0,P|140:108|82:97,2,120,8|2|8,0:0|0:0|0:0,0:0:0:0:
304,32,150954,1,2,0:0:0:0:
424,20,151509,1,8,0:0:0:0:
444,135,152065,6,0,P|432:194|448:251,1,120,4|8,0:3|0:0,0:0:0:0:
392,356,153176,2,0,P|317:313|231:334,2,180,2|2|8,0:0|0:0|0:0,0:0:0:0:
496,296,155398,2,0,P|514:208|490:123,1,180,2|2,0:0|0:0,0:0:0:0:
396,48,156787,6,0,P|368:58|338:56,1,60,2|8,0:0|0:0,0:0:0:0:
224,24,157620,2,0,L|247:202,2,180,2|2|8,0:0|0:0|0:0,0:0:0:0:
120,84,159843,2,0,L|128:143,2,60,8|0|8,0:0|0:0|0:0,0:0:0:0:
0,76,160954,6,0,L|17:194,1,120,4|8,0:0|0:0,0:0:0:0:
76,299,162065,2,0,P|132:281|188:297,1,120,2|8,0:0|0:0,0:0:0:0:
296,356,163176,1,2,0:0:0:0:
272,236,163732,2,0,L|258:178,1,60,8|2,0:0|0:0,0:0:0:0:
328,80,164565,6,0,L|371:254,1,180,2|2,0:0|0:0,0:0:0:0:
444,352,165954,1,8,0:0:0:0:
496,244,166509,2,0,L|452:69,2,180,2|2|8,0:0|0:0|0:0,0:0:0:0:
443,352,168732,2,0,P|387:367|331:347,1,120,2|8,0:0|0:0,0:0:0:0:
263,248,169843,6,0,P|185:332|72:314,1,240,4|0,0:0|0:0,0:0:0:0:
148,220,171509,1,8,0:0:0:0:
199,114,172065,2,0,P|108:106|45:164,2,180,4|2|8,0:0|0:0|0:0,0:0:0:0:
244,223,174287,6,0,P|289:186|315:132,1,120,0|8,0:0|0:0,0:0:0:0:
392,39,175398,2,0,P|417:124|486:181,2,180,2|2|8,0:0|0:0|0:0,0:0:0:0:
275,16,177620,2,0,P|276:75|291:133,1,120,4|8,0:3|0:0,0:0:0:0:
316,252,178732,6,0,P|362:214|420:200,1,120,4|8,0:0|0:0,0:0:0:0:
480,304,179843,2,0,P|433:341|375:355,1,120,2|8,0:0|0:0,0:0:0:0:
260,332,180954,2,0,P|184:288|99:311,2,180,2|2|8,0:0|0:0|0:0,0:0:0:0:
380,335,183176,6,0,P|419:291|441:235,1,120,2|8,0:0|0:0,0:0:0:0:
408,120,184287,2,0,B|316:100|316:160|233:140,2,180,2|2|8,0:0|0:0|0:0,0:0:0:0:
496,204,186509,2,0,L|476:322,1,120,2|8,0:0|0:0,0:0:0:0:
359,351,187620,6,4,P|288:302|202:319,2,180,4|2|8,0:0|0:0|0:0,0:0:0:0:
472,312,189843,2,0,B|462:259|495:231|524:202|509:141,2,180,4|2|8,0:0|0:0|0:0,0:0:0:0:
356,340,192065,5,4,0:3:0:0:
352,220,192620,2,0,P|256:159|160:220,1,240,8|8,0:0|0:0,0:0:0:0:
156,340,194287,1,4,0:3:0:0:
195,111,214009,6,0,P|148:76|90:60,2,120,2|0|2,0:0|0:0|0:0,0:0:0:0:
316,111,215676,2,0,P|363:76|421:60,2,120,0|2|0,0:0|0:0|0:0,0:0:0:0:
332,229,217343,2,0,P|255:270|179:229,1,180,2|8,0:0|0:0,0:0:0:0:
124,124,218732,6,0,P|93:73|44:39,2,120,2|8|2,0:0|0:0|0:0,0:0:0:0:
140,244,220398,1,8,0:0:0:0:
188,352,220954,2,0,B|236:332|252:296|256:261|256:261|260:296|276:332|324:352,1,240,2|0,0:0|0:0,0:0:0:0:
372,244,222620,1,8,0:0:0:0:
476,188,223176,6,0,L|449:70,1,120,4|8,0:0|0:0,0:0:0:0:
212,36,224843,1,8,0:0:0:0:
92,40,225398,2,0,L|118:157,1,120,4|8,0:0|0:0,0:0:0:0:
180,260,226509,6,0,P|256:219|332:260,2,180,2|2|8,0:0|0:0|0:0,0:0:0:0:
59,239,228732,2,0,P|43:182|54:124,1,120,0|8,0:0|0:0,0:0:0:0:
136,36,229843,2,0,P|191:57|250:48,1,120,4|4,0:3|0:3,0:0:0:0:
372,56,230954,2,0,L|381:115,2,60,8|0|8,0:0|0:0|0:0,0:0:0:0:
256,36,232065,6,0,L|274:154,2,120,6|8|2,0:0|0:0|0:0,0:0:0:0:
136,16,233732,1,8,0:0:0:0:
47,104,234287,2,0,P|27:190|55:275,2,180,2|2|8,0:0|0:0|0:0,0:0:0:0:
156,48,236509,6,0,P|211:68|271:64,1,120,2|8,0:0|0:0,0:0:0:0:
392,80,237620,2,0,P|407:137|396:195,1,120,2|8,0:0|0:0,0:0:0:0:
311,279,238732,2,0,P|260:251|201:255,2,120,2|8|0,0:0|0:0|0:0,0:0:0:0:
404,356,240398,1,8,0:0:0:0:
424,236,240954,6,8,L|408:117,1,120,4|8,0:0|0:0,0:0:0:0:
172,68,242620,1,8,0:0:0:0:
88,148,243176,2,8,L|103:266,1,120,4|8,0:0|0:0,0:0:0:0:
180,360,244287,6,0,P|256:319|332:360,2,180,2|2|8,0:0|0:0|0:0,0:0:0:0:
108,263,246509,2,0,P|154:224|209:204,1,120,0|8,0:0|0:0,0:0:0:0:
315,148,247620,2,0,P|332:123|342:94,2,60,0|8|0,0:0|0:0|0:0,0:0:0:0:
204,188,248732,2,0,P|187:212|177:241,2,60,8|0|8,0:0|0:0|0:0,0:0:0:0:
256,192,249843,12,4,254287,0:3:0:0:
