osu file format v13

[General]
AudioFilename: La Casa.mp3
AudioLeadIn: 0
PreviewTime: 214009
Countdown: 0
SampleSet: Soft
StackLeniency: 0.7
Mode: 0
LetterboxInBreaks: 0
WidescreenStoryboard: 0

[Editor]
DistanceSpacing: 1
BeatDivisor: 4
GridSize: 4
TimelineZoom: 1

[Metadata]
Title:La Casa
TitleUnicode:La Casa
Artist:Caramelos de Cianuro
ArtistUnicode:Caramelos de Cianuro
Creator:mancuso_JM_
Version:Dificil
Source:
Tags:cdc mancusojuanmattos Xanandra
BeatmapID:481079
BeatmapSetID:203589

[Difficulty]
HPDrainRate:6
CircleSize:4
OverallDifficulty:6
ApproachRate:7.5
SliderMultiplier:1.9
SliderTickRate:2

[Events]
//Background and Video events
0,0,"La Casa.jpg",0,0
Video,-3520,"La Casa vid.avi"
//Break Periods
2,107820,123462
2,196509,212065
//Storyboard Layer 0 (Background)
//Storyboard Layer 1 (Fail)
//Storyboard Layer 2 (Pass)
//Storyboard Layer 3 (Foreground)
//Storyboard Sound Samples

[TimingPoints]
18732,555.555555555556,4,2,1,75,1,0
19600,-100,4,2,1,90,0,0
20120,-100,4,2,1,75,0,0
24044,-100,4,2,1,100,0,0
24565,-100,4,2,1,75,0,0
28488,-100,4,2,1,90,0,0
29009,-100,4,2,1,75,0,0
36232,-100,4,2,1,55,0,0
36509,-100,4,2,1,75,0,0
40676,-100,4,2,1,55,0,0
40954,-100,4,2,1,65,0,0
41232,-100,4,2,1,75,0,0
45398,-100,4,2,1,65,0,0
45676,-100,4,2,1,50,0,0
45954,-100,4,2,1,75,0,0
54009,-100,4,2,1,55,0,0
54287,-100,4,2,1,65,0,0
54565,-100,4,2,1,50,0,0
54843,-100,4,2,1,75,0,0
58732,-100,4,2,1,65,0,0
59009,-100,4,2,1,75,0,0
63176,-100,4,2,1,65,0,0
63454,-100,4,2,1,75,0,0
70954,-100,4,2,1,55,0,0
71232,-100,4,2,1,75,0,0
72065,-100,4,2,1,75,0,1
72204,-100,4,2,1,75,0,0
80676,-100,4,2,1,30,0,0
80954,-100,4,2,1,60,0,0
81093,-100,4,2,1,75,0,0
82898,-100,4,2,1,30,0,0
83176,-100,4,2,1,60,0,0
83315,-100,4,2,1,75,0,0
88732,-100,4,2,1,60,0,0
89009,-100,4,2,1,75,0,0
89565,-100,4,2,1,60,0,0
89843,-100,4,2,1,75,0,0
98454,-100,4,2,1,30,0,0
98732,-100,4,2,1,60,0,0
98870,-100,4,2,1,75,0,0
100676,-100,4,2,1,30,0,0
100954,-100,4,2,1,60,0,0
101232,-100,4,2,1,75,0,0
105398,-100,4,2,1,50,0,0
105537,-100,4,2,1,75,0,0
107343,-100,4,2,1,65,0,0
107620,-100,4,2,1,75,0,0
124287,-100,4,2,1,65,0,0
124565,-100,4,2,1,75,0,0
131787,-100,4,2,1,55,0,0
132065,-100,4,2,1,75,0,0
134287,-100,4,2,1,65,0,0
134565,-100,4,2,1,50,0,0
134843,-100,4,2,1,75,0,0
142065,-100,4,2,1,50,0,0
142343,-100,4,2,1,75,0,0
142898,-100,4,2,1,65,0,0
143176,-100,4,2,1,75,0,0
147620,-100,4,2,1,65,0,0
147898,-100,4,2,1,75,0,0
152065,-100,4,2,1,65,0,0
152343,-100,4,2,1,75,0,0
156787,-100,4,2,1,95,0,0
157620,-100,4,2,1,75,0,0
160676,-100,4,2,1,65,0,0
160954,-100,4,2,1,75,0,1
161093,-100,4,2,1,75,0,0
169565,-100,4,2,1,30,0,0
169843,-100,4,2,1,60,0,0
169982,-100,4,2,1,75,0,0
171787,-100,4,2,1,30,0,0
172065,-100,4,2,1,60,0,0
172204,-100,4,2,1,75,0,0
177620,-100,4,2,1,60,0,0
177898,-100,4,2,1,75,0,0
178454,-100,4,2,1,60,0,0
178732,-100,4,2,1,75,0,1
178870,-100,4,2,1,75,0,0
187343,-100,4,2,1,30,0,0
187620,-100,4,2,1,60,0,0
187759,-100,4,2,1,75,0,0
189565,-100,4,2,1,30,0,0
189843,-100,4,2,1,60,0,0
190120,-100,4,2,1,75,0,0
194287,-100,4,2,1,50,0,0
213176,-100,4,2,1,75,0,0
213454,-100,4,2,1,60,0,0
213732,-100,4,2,1,75,0,0
214009,-100,4,2,1,75,0,1
214287,-100,4,2,1,75,0,0
223176,-100,4,2,1,60,0,0
223315,-100,4,2,1,75,0,0
225398,-100,4,2,1,60,0,0
225537,-100,4,2,1,75,0,0
230120,-100,4,2,1,55,0,0
230398,-100,4,2,1,60,0,0
230676,-100,4,2,1,75,0,0
231787,-100,4,2,1,60,0,0
232065,-100,4,2,1,75,0,1
240954,-100,4,2,1,60,0,1
241093,-100,4,2,1,75,0,1
242898,-100,4,2,1,60,0,1
243315,-100,4,2,1,75,0,1
247898,-100,4,2,1,60,0,1
248037,-100,4,2,1,75,0,1
249565,-100,4,2,1,60,0,1
249843,-100,4,2,1,75,0,0
249982,-100,4,2,1,40,0,0

[Colours]
Combo1 : 255,181,106
Combo2 : 255,255,91
Combo3 : 111,255,255

[HitObjects]
56,127,18732,5,0,0:0:0:0:
12,211,19009,1,2,0:0:0:0:
60,295,19287,1,8,0:0:0:0:
144,344,19565,2,2,P|216:285|308:295,1,190,2|0,0:0|0:0,0:0:0:0:
404,280,20398,2,0,P|415:234|412:186,1,95,8|0,0:0|0:0,0:0:0:0:
363,104,20954,6,0,P|319:120|272:116,1,95,0|2,0:0|0:0,0:0:0:0:
220,36,21509,1,8,0:0:0:0:
176,123,21787,2,2,P|156:215|186:304,1,190,2|2,0:0|0:0,0:0:0:0:
276,340,22620,2,0,L|370:328,1,95,8|0,0:0|0:0,0:0:0:0:
451,276,23176,6,0,P|460:229|449:183,1,95,0|2,0:0|0:0,0:0:0:0:
376,120,23732,1,8,0:0:0:0:
326,36,24009,2,2,B|276:56|256:97|256:97|236:56|186:37,1,190,2|0,0:0|0:0,0:0:0:0:
96,68,24843,2,0,P|107:113|99:160,1,95,8|0,0:0|0:0,0:0:0:0:
36,232,25398,6,0,P|28:278|39:324,2,95,0|2|8,0:0|0:0|0:0,0:0:0:0:
99,159,26232,2,2,P|181:204|270:179,1,190,2|0,0:0|0:0,0:0:0:0:
344,120,27065,1,8,0:0:0:0:
424,64,27343,1,2,0:0:0:0:
471,143,27620,6,0,P|483:189|479:236,1,95,0|2,0:0|0:0,0:0:0:0:
424,312,28176,1,8,0:0:0:0:
424,312,28454,2,2,P|340:271|252:299,1,190,2|0,0:0|0:0,0:0:0:0:
164,336,29287,1,8,0:0:0:0:
76,368,29565,1,0,0:0:0:0:
28,288,29843,6,0,P|19:241|27:194,1,95,2|2,0:0|0:0,0:0:0:0:
68,112,30398,1,8,0:0:0:0:
68,112,30676,2,2,P|151:154|240:128,1,190,2|0,0:0|0:0,0:0:0:0:
323,172,31509,2,0,P|318:218|330:264,1,95,8|0,0:0|0:0,0:0:0:0:
416,212,32065,6,0,P|421:165|409:119,1,95,0|2,0:0|0:0,0:0:0:0:
336,60,32620,1,8,0:0:0:0:
336,60,32898,2,2,B|244:76|244:8|156:20,1,190,2|0,0:0|0:0,0:0:0:0:
80,75,33732,2,0,P|71:122|84:168,1,95,8|0,0:0|0:0,0:0:0:0:
164,220,34287,6,0,L|258:216,1,95,2|2,0:0|0:0,0:0:0:0:
336,272,34843,1,8,0:0:0:0:
419,232,35120,2,2,P|447:143|412:56,1,190,2|0,0:0|0:0,0:0:0:0:
320,28,35954,1,8,0:0:0:0:
228,8,36232,1,2,0:3:0:0:
200,100,36509,5,0,0:0:0:0:
292,128,36787,1,0,0:0:0:0:
292,128,36926,1,0,0:0:0:0:
292,128,37065,2,0,P|280:198|299:266,1,142.5,8|0,0:0|0:0,0:0:0:0:
316,288,37620,2,0,L|221:284,1,95,2|0,0:0|0:0,0:0:0:0:
140,236,38176,2,0,P|94:247|48:238,1,95,8|0,0:0|0:0,0:0:0:0:
16,148,38732,5,0,0:0:0:0:
16,148,38870,2,0,P|12:100|25:55,1,95,2|0,0:0|0:0,0:0:0:0:
44,36,39287,2,0,P|87:55|134:52,1,95,8|0,0:0|0:0,0:0:0:0:
228,28,39843,1,0,0:0:0:0:
315,79,40120,2,0,P|327:125|322:172,1,95,2|8,0:0|0:0,0:0:0:0:
268,252,40676,1,2,0:0:0:0:
176,288,40954,5,4,0:3:0:0:
88,256,41232,2,0,P|80:209|87:162,1,95,2|8,0:0|0:0,0:0:0:0:
180,136,41787,2,0,P|187:89|179:42,2,95,2|0|2,0:0|0:0|0:0,0:0:0:0:
219,220,42620,2,0,P|296:168|386:188,1,190,8|0,0:0|0:0,0:0:0:0:
404,284,43454,2,0,P|327:335|237:315,2,190,2|2|2,0:0|0:0|0:0,0:0:0:0:
447,200,44843,2,0,P|455:153|448:106,1,95,8|0,0:0|0:0,0:0:0:0:
396,28,45398,5,4,0:3:0:0:
300,16,45676,1,4,0:3:0:0:
244,92,45954,1,8,0:0:0:0:
244,92,46232,2,0,P|156:67|92:132,1,190,2|0,0:0|0:0,0:0:0:0:
60,220,47065,1,8,0:0:0:0:
108,304,47343,2,2,B|156:284|200:316|200:316|240:344|288:321,1,190,2|0,0:0|0:0,0:0:0:0:
380,300,48176,1,8,0:0:0:0:
468,264,48454,2,2,P|491:173|463:83,1,190,2|2,0:0|0:0,0:0:0:0:
384,32,49287,1,8,0:0:0:0:
384,31,49565,6,0,P|302:77|212:57,1,190,2|2,0:0|0:0,0:0:0:0:
132,8,50398,1,8,0:0:0:0:
140,104,50676,2,0,B|162:152|140:196|140:196|118:238|140:287,2,190,2|2|2,0:0|0:0|0:0,0:0:0:0:
208,36,52065,2,0,P|250:56|297:60,1,95,4|0,0:3|0:0,0:0:0:0:
388,36,52620,1,8,0:0:0:0:
463,91,52898,2,0,P|495:179|472:270,1,190,2|0,0:0|0:0,0:0:0:0:
380,300,53732,1,8,0:0:0:0:
300,248,54009,1,2,0:3:0:0:
252,328,54287,5,4,0:3:0:0:
164,360,54565,1,4,0:3:0:0:
79,311,54843,2,0,P|63:218|79:125,1,190,8|0,0:0|0:0,0:0:0:0:
152,64,55676,1,2,0:0:0:0:
186,152,55954,2,0,B|236:171|256:212|256:212|276:171|326:151,1,190,8|0,0:0|0:0,0:0:0:0:
360,64,56787,1,2,0:0:0:0:
432,125,57065,2,0,P|448:218|432:311,1,190,8|0,0:0|0:0,0:0:0:0:
352,360,57898,2,0,P|273:312|184:338,1,190,2|2,0:0|0:0,0:0:0:0:
96,376,58732,5,4,0:3:0:0:
20,320,59009,1,2,0:0:0:0:
4,224,59287,2,0,P|12:177|3:130,1,95,8|2,0:0|0:0,0:0:0:0:
35,39,59843,2,0,P|78:61|125:64,1,95,0|2,0:0|0:0,0:0:0:0:
220,63,60398,2,0,P|212:110|219:157,1,95,8|0,0:0|0:0,0:0:0:0:
276,232,60954,6,0,L|465:220,1,190,2|8,0:0|0:0,0:0:0:0:
488,200,61648,1,0,0:0:0:0:
508,176,61787,1,0,0:0:0:0:
455,95,62065,2,0,P|409:107|364:94,1,95,2|0,0:0|0:0,0:0:0:0:
296,27,62620,2,0,P|258:56|212:60,1,95,8|0,0:0|0:0,0:0:0:0:
108,28,63176,5,4,0:3:0:0:
108,28,63732,2,0,P|116:75|109:122,1,95,8|0,0:0|0:0,0:0:0:0:
56,200,64287,2,0,P|48:246|56:293,2,95,0|2|8,0:0|0:0|0:0,0:0:0:0:
107,120,65120,2,0,P|185:71|269:108,1,190,2|2,0:0|0:0,0:0:0:0:
356,152,65954,1,8,0:0:0:0:
392,244,66232,1,0,0:0:0:0:
308,292,66509,2,0,L|213:288,2,95,2|0|8,0:0|0:0|0:0,0:0:0:0:
392,243,67343,6,0,P|416:153|384:65,2,190,2|2|0,0:0|0:0|0:0,0:0:0:0:
326,311,68732,2,0,B|276:331|256:372|256:372|236:331|186:312,1,190,2|8,0:0|0:0,0:0:0:0:
119,243,69565,2,2,P|95:153|127:65,1,190,2|2,0:0|0:0,0:0:0:0:
212,20,70398,2,0,P|256:36|303:32,1,95,8|0,0:0|0:0,0:0:0:0:
400,24,70954,5,4,0:3:0:0:
496,12,71232,1,4,0:3:0:0:
476,104,71509,1,8,0:0:0:0:
476,104,71648,1,8,0:0:0:0:
476,104,71787,1,0,0:0:0:0:
464,200,72065,6,0,P|393:257|305:233,1,190,4|8,0:0|0:0,0:0:0:0:
224,180,72898,1,2,0:0:0:0:
224,180,73037,1,0,0:0:0:0:
223,180,73176,2,0,P|243:136|249:89,2,95,2|0|8,0:0|0:0|0:0,0:0:0:0:
176,260,74009,2,2,P|256:304|336:260,1,190,2|0,0:0|0:0,0:0:0:0:
404,192,74843,1,10,0:0:0:0:
335,123,75120,2,0,P|255:80|176:124,1,190,2|2,0:0|0:0,0:0:0:0:
120,204,75954,2,0,P|93:244|59:277,1,95,8|0,0:0|0:0,0:0:0:0:
116,356,76509,6,0,P|152:324|196:308,1,95,2|0,0:0|0:0,0:0:0:0:
292,300,77065,1,8,0:0:0:0:
344,220,77343,2,2,B|416:220|416:220|484:220|508:160,1,190,2|0,0:0|0:0,0:0:0:0:
416,128,78176,1,8,0:0:0:0:
416,128,78454,2,0,B|343:128|343:128|276:128|252:188,2,190,2|2|0,0:0|0:0|0:0,0:0:0:0:
512,112,79843,2,0,P|520:65|509:19,1,95,2|0,0:0|0:0,0:0:0:0:
416,128,80398,2,0,P|407:174|420:219,1,95,8|4,0:0|0:0,0:0:0:0:
492,284,80954,6,0,P|423:224|335:248,1,190,4|8,0:0|0:0,0:0:0:0:
244,280,81787,2,2,P|312:340|401:317,1,190,2|2,0:0|0:0,0:0:0:0:
492,284,82620,2,0,P|484:237|490:190,1,95,8|4,0:0|0:0,0:0:0:0:
512,92,83176,6,0,B|460:116|424:80|424:80|384:40|337:59,1,190,4|8,0:0|0:0,0:0:0:0:
256,104,84009,2,0,L|256:294,1,190,2|0,0:0|0:0,0:0:0:0:
180,342,84843,2,0,P|256:294|332:342,1,190,8|0,0:0|0:0,0:0:0:0:
392,268,85676,2,0,P|335:191|304:102,1,190,2|0,0:0|0:0,0:0:0:0:
207,102,86509,2,0,P|176:191|120:268,1,190,2|8,0:0|0:0,0:0:0:0:
172,348,87343,2,0,B|232:360|256:320|256:320|280:360|340:348,1,190,2|0,0:0|0:0,0:0:0:0:
419,296,88176,2,0,P|445:255|479:223,1,95,8|0,0:0|0:0,0:0:0:0:
504,132,88732,5,4,0:3:0:0:
496,36,89009,1,2,0:0:0:0:
400,40,89287,1,8,0:0:0:0:
400,136,89565,1,4,0:3:0:0:
336,208,89843,6,0,P|256:252|176:208,1,190,4|8,0:0|0:0,0:0:0:0:
84,228,90676,2,0,L|94:274,2,47.5,2|0|0,0:0|0:0|0:0,0:0:0:0:
40,144,91232,1,2,0:0:0:0:
96,68,91509,1,8,0:0:0:0:
186,107,91787,2,2,B|236:126|256:167|256:167|276:126|326:106,1,190,2|0,0:0|0:0,0:0:0:0:
408,59,92620,2,0,P|417:106|409:152,1,95,10|2,0:0|0:0,0:0:0:0:
282,295,93454,2,0,L|187:284,1,95,2|8,0:0|0:0,0:0:0:0:
103,244,94009,6,0,P|75:151|94:59,1,190,2|2,0:0|0:0,0:0:0:0:
176,104,94843,1,8,0:0:0:0:
176,103,95120,2,0,P|168:150|180:196,1,95,2|0,0:0|0:0,0:0:0:0:
240,268,95676,2,0,P|280:243|326:247,1,95,2|8,0:0|0:0,0:0:0:0:
420,236,96232,2,0,P|443:145|420:54,1,190,2|2,0:0|0:0,0:0:0:0:
336,11,97065,2,0,P|292:29|245:24,1,95,8|0,0:0|0:0,0:0:0:0:
152,8,97620,1,2,0:0:0:0:
100,84,97898,2,0,L|158:264,1,190,2|4,0:0|0:0,0:0:0:0:
227,332,98732,6,0,P|307:284|398:304,1,190,4|8,0:0|0:0,0:0:0:0:
491,288,99565,2,2,P|511:196|485:105,1,190,2|2,0:0|0:0,0:0:0:0:
412,44,100398,1,8,0:0:0:0:
320,16,100676,1,4,0:0:0:0:
280,104,100954,5,4,0:0:0:0:
144,228,101509,1,8,0:0:0:0:
52,260,101787,2,0,P|116:323|206:304,1,190,2|0,0:0|0:0,0:0:0:0:
305,304,102620,2,0,P|395:323|460:260,1,190,8|0,0:0|0:0,0:0:0:0:
367,227,103454,2,0,P|322:144|307:51,1,190,2|0,0:0|0:0,0:0:0:0:
403,63,104287,2,0,P|415:110|437:152,1,95,2|0,0:0|0:0,0:0:0:0:
500,224,104843,1,10,0:0:0:0:
356,348,105398,6,0,P|277:298|188:323,1,190,4|8,0:3|0:0,0:0:0:0:
96,300,106232,2,0,L|76:206,1,95,0|8,0:0|0:0,0:0:0:0:
124,124,106787,1,0,0:0:0:0:
124,124,106926,1,8,0:0:0:0:
124,124,107065,1,8,0:0:0:0:
188,36,107343,1,4,0:3:0:0:
284,88,107620,5,4,0:0:0:0:
104,92,124287,5,4,0:3:0:0:
32,156,124565,1,0,0:0:0:0:
40,180,124704,1,8,0:0:0:0:
48,204,124843,1,8,0:0:0:0:
56,300,125120,1,4,0:3:0:0:
152,328,125398,5,0,0:0:0:0:
152,328,125537,2,0,P|200:325|243:305,1,95,2|0,0:0|0:0,0:0:0:0:
269,305,125954,2,0,P|312:325|360:328,1,95,8|0,0:0|0:0,0:0:0:0:
384,324,126370,1,0,0:0:0:0:
408,316,126509,1,0,0:0:0:0:
476,248,126787,1,0,0:0:0:0:
499,155,127065,2,0,P|509:109|498:63,1,95,8|0,0:0|0:0,0:0:0:0:
412,27,127620,6,0,P|344:90|253:75,1,190,2|8,0:0|0:0,0:0:0:0:
164,48,128454,1,0,0:0:0:0:
200,136,128732,2,0,P|218:179|227:226,1,95,2|0,0:0|0:0,0:0:0:0:
192,312,129287,1,8,0:0:0:0:
104,276,129565,1,2,0:0:0:0:
56,356,129843,5,0,0:0:0:0:
12,272,130120,2,0,P|3:225|8:178,1,95,2|8,0:0|0:0,0:0:0:0:
20,84,130676,2,0,P|64:100|111:96,1,95,2|0,0:0|0:0,0:0:0:0:
200,60,131232,2,0,P|191:106|203:151,1,95,2|8,0:0|0:0,0:0:0:0:
260,228,131787,1,4,0:3:0:0:
260,228,132065,6,0,P|342:183|430:211,1,190,4|8,0:3|0:0,0:0:0:0:
440,308,132898,2,0,P|358:352|270:324,1,190,2|2,0:0|0:0,0:0:0:0:
260,228,133732,2,0,P|268:181|260:134,1,95,8|2,0:0|0:0,0:0:0:0:
192,72,134287,5,4,0:3:0:0:
104,36,134565,1,4,0:3:0:0:
48,112,134843,1,8,0:0:0:0:
88,200,135120,2,2,B|106:251|164:244|164:244|148:297|177:332,1,190,2|0,0:0|0:0,0:0:0:0:
256,276,135954,1,8,0:0:0:0:
334,332,136232,2,0,B|364:297|348:244|348:244|406:251|424:200,1,190,2|2,0:0|0:0,0:0:0:0:
406,106,137065,1,8,0:0:0:0:
332,46,137343,2,2,P|256:95|180:46,1,190,2|0,0:0|0:0,0:0:0:0:
92,82,138176,2,0,P|116:122|129:168,1,95,8|0,0:0|0:0,0:0:0:0:
169,254,138732,6,0,B|217:226|255:266|255:266|297:306|340:274,1,190,2|8,0:0|0:0,0:0:0:0:
423,228,139565,2,0,P|444:185|451:138,1,95,2|0,0:0|0:0,0:0:0:0:
364,104,140120,2,0,P|341:62|307:29,1,95,2|8,0:0|0:0,0:0:0:0:
216,47,140676,2,0,P|143:105|54:85,1,190,2|2,0:0|0:0,0:0:0:0:
0,159,141509,2,0,P|12:205|6:252,1,95,8|0,0:0|0:0,0:0:0:0:
56,336,142065,2,0,P|101:323|148:329,1,95,4|0,0:3|0:0,0:0:0:0:
244,344,142620,1,8,0:0:0:0:
332,380,142898,1,4,0:3:0:0:
380,296,143176,5,0,0:0:0:0:
292,256,143454,1,0,0:0:0:0:
292,256,143593,1,0,0:0:0:0:
292,256,143732,2,0,P|274:187|282:116,1,142.5,8|0,0:0|0:0,0:0:0:0:
291,95,144287,2,0,L|386:95,1,95,2|0,0:0|0:0,0:0:0:0:
480,111,144843,2,0,P|467:181|488:249,1,142.5,8|0,0:0|0:0,0:0:0:0:
500,268,145398,6,0,L|405:264,1,95,2|0,0:0|0:0,0:0:0:0:
312,239,145954,2,0,P|253:277|185:263,1,142.5,8|0,0:0|0:0,0:0:0:0:
168,247,146509,2,0,P|160:201|146:155,1,95,2|0,0:0|0:0,0:0:0:0:
30,43,147065,2,0,P|38:90|52:136,1,95,8|2,0:0|0:0,0:0:0:0:
146,156,147620,5,4,0:3:0:0:
216,88,147898,1,2,0:0:0:0:
292,32,148176,2,0,L|386:43,1,95,8|2,0:0|0:0,0:0:0:0:
460,104,148732,1,0,0:0:0:0:
447,196,149009,2,0,P|434:241|445:287,1,95,2|8,0:0|0:0,0:0:0:0:
507,359,149565,1,0,0:0:0:0:
507,359,149843,6,0,P|443:293|354:312,1,190,2|8,0:0|0:0,0:0:0:0:
336,328,150537,1,0,0:0:0:0:
320,344,150676,1,0,0:0:0:0:
228,372,150954,2,0,L|133:368,1,95,2|0,0:0|0:0,0:0:0:0:
76,292,151509,2,0,P|68:245|80:199,1,95,8|2,0:0|0:0,0:0:0:0:
120,84,152065,5,4,0:3:0:0:
120,84,152620,1,8,0:0:0:0:
196,28,152898,1,2,0:0:0:0:
263,95,153176,2,0,P|308:112|355:111,1,95,0|2,0:0|0:0,0:0:0:0:
452,112,153732,1,8,0:0:0:0:
452,111,154009,2,0,P|484:200|464:291,1,190,2|2,0:0|0:0,0:0:0:0:
380,336,154843,2,0,L|286:322,1,95,8|0,0:0|0:0,0:0:0:0:
227,247,155398,2,0,P|191:217|148:198,1,95,2|0,0:0|0:0,0:0:0:0:
60,160,155954,1,8,0:0:0:0:
52,63,156232,6,0,P|133:23|207:75,1,190,2|2,0:0|0:0,0:0:0:0:
304,75,157065,2,0,P|378:23|460:64,1,190,10|0,0:0|0:0,0:0:0:0:
480,156,157898,1,2,0:0:0:0:
424,232,158176,1,8,0:0:0:0:
344,283,158454,2,0,B|284:283|284:283|228:328|228:328|169:327,1,190,2|2,0:0|0:0,0:0:0:0:
80,296,159287,2,0,P|67:250|72:203,1,95,8|0,0:0|0:0,0:0:0:0:
120,120,159843,5,8,0:0:0:0:
180,48,160120,1,0,0:0:0:0:
180,48,160259,1,8,0:0:0:0:
180,48,160398,1,8,0:0:0:0:
244,116,160676,1,4,0:3:0:0:
177,209,160954,6,0,P|268:227|341:171,1,190,4|8,0:0|0:0,0:0:0:0:
432,196,161787,1,2,0:0:0:0:
432,196,161926,1,0,0:0:0:0:
432,196,162065,2,0,P|423:243|435:288,1,95,2|0,0:0|0:0,0:0:0:0:
488,368,162620,1,8,0:0:0:0:
392,356,162898,2,2,B|340:372|306:333|306:333|268:292|219:316,1,190,2|0,0:0|0:0,0:0:0:0:
136,360,163732,1,10,0:0:0:0:
40,336,164009,1,2,0:0:0:0:
11,152,164565,2,0,P|56:135|91:104,1,95,2|8,0:0|0:0,0:0:0:0:
135,19,165120,6,0,P|214:69|302:43,1,190,2|2,0:0|0:0,0:0:0:0:
392,12,165954,1,8,0:0:0:0:
468,68,166232,2,0,L|452:161,1,95,2|0,0:0|0:0,0:0:0:0:
412,248,166787,1,2,0:0:0:0:
340,312,167065,1,8,0:0:0:0:
256,356,167343,2,0,P|181:303|96:335,1,190,2|2,0:0|0:0,0:0:0:0:
8,308,168176,2,0,P|0:261|5:214,1,95,8|0,0:0|0:0,0:0:0:0:
72,144,168732,1,2,0:0:0:0:
167,132,169009,2,0,P|256:102|306:23,1,190,2|4,0:0|0:0,0:0:0:0:
205,23,169843,6,0,P|255:102|344:132,1,190,4|8,0:0|0:0,0:0:0:0:
424,84,170676,2,2,B|446:132|424:176|424:176|402:218|424:267,1,190,2|0,0:0|0:0,0:0:0:0:
352,328,171509,2,0,P|307:311|261:315,1,95,8|4,0:0|0:0,0:0:0:0:
168,335,172065,6,0,P|84:373|8:324,1,190,4|8,0:0|0:0,0:0:0:0:
12,228,172898,2,0,P|94:190|171:239,1,190,2|0,0:0|0:0,0:0:0:0:
88,288,173732,2,0,P|91:194|143:115,1,190,10|0,0:0|0:0,0:0:0:0:
184,32,174565,2,0,B|232:56|256:92|256:92|280:56|328:32,1,190,2|0,0:0|0:0,0:0:0:0:
368,115,175398,2,0,P|420:194|423:288,1,190,2|8,0:0|0:0,0:0:0:0:
340,239,176232,2,0,P|417:190|500:228,1,190,2|0,0:0|0:0,0:0:0:0:
472,316,177065,2,0,P|428:334|383:323,1,95,8|0,0:0|0:0,0:0:0:0:
340,240,177620,5,4,0:3:0:0:
304,152,177898,1,2,0:0:0:0:
208,152,178176,1,8,0:0:0:0:
172,240,178454,1,4,0:3:0:0:
172,332,178732,6,0,B|256:376|256:376|340:332,1,190,4|8,0:0|0:0,0:0:0:0:
444,280,179565,1,2,0:0:0:0:
444,280,179704,1,0,0:0:0:0:
444,280,179843,2,0,L|459:186,1,95,2|0,0:0|0:0,0:0:0:0:
412,104,180398,1,8,0:0:0:0:
336,48,180676,2,2,P|256:91|177:48,1,190,2|0,0:0|0:0,0:0:0:0:
80,60,181509,2,0,L|91:154,1,95,10|2,0:0|0:0,0:0:0:0:
144,336,182343,2,0,L|240:324,1,95,2|8,0:0|0:0,0:0:0:0:
328,288,182898,6,0,B|350:239|328:197|328:197|306:153|328:105,1,190,2|2,0:0|0:0,0:0:0:0:
408,156,183732,1,8,0:0:0:0:
408,156,184009,2,0,P|424:200|426:247,1,95,2|0,0:0|0:0,0:0:0:0:
344,304,184565,1,2,0:0:0:0:
256,344,184843,1,8,0:0:0:0:
167,303,185120,2,0,P|119:223|115:129,1,190,2|2,0:0|0:0,0:0:0:0:
156,40,185954,1,8,0:0:0:0:
248,12,186232,1,0,0:0:0:0:
296,92,186509,1,2,0:0:0:0:
260,181,186787,2,0,P|351:169|390:87,1,190,2|4,0:0|0:0,0:0:0:0:
296,92,187620,6,0,P|350:168|367:261,1,190,4|8,0:0|0:0,0:0:0:0:
332,352,188454,2,2,B|256:295|256:295|180:352,1,190,2|2,0:0|0:0,0:0:0:0:
88,328,189287,2,0,L|69:234,1,95,8|4,0:0|0:0,0:0:0:0:
112,148,189843,5,4,0:0:0:0:
272,48,190398,1,8,0:0:0:0:
364,72,190676,2,0,P|343:163|372:253,1,190,2|0,0:0|0:0,0:0:0:0:
459,284,191509,2,0,P|390:344|303:316,1,190,8|0,0:0|0:0,0:0:0:0:
208,316,192343,2,0,P|120:343|49:287,1,190,2|0,0:0|0:0,0:0:0:0:
140,248,193176,2,0,L|172:148,1,95,2|0,0:0|0:0,0:0:0:0:
256,120,193732,1,10,0:0:0:0:
272,112,194287,5,4,0:3:0:0:
60,116,213176,6,0,L|83:208,1,95,8|4,0:0|0:3,0:0:0:0:
168,252,213732,1,8,0:0:0:0:
188,264,213870,1,8,0:0:0:0:
208,276,214009,6,0,L|169:89,1,190,2|2,0:0|0:0,0:0:0:0:
244,28,214843,1,8,0:0:0:0:
340,32,215120,2,0,L|378:218,1,190,2|2,0:0|0:0,0:0:0:0:
408,312,215954,1,8,0:0:0:0:
324,268,216232,2,0,B|261:236|261:236|213:284|151:254,2,190,2|2|2,0:0|0:0|0:0,0:0:0:0:
408,312,217620,1,0,0:0:0:0:
464,232,217898,2,0,L|475:137,1,95,2|8,0:0|0:0,0:0:0:0:
452,44,218454,1,2,0:0:0:0:
376,100,218732,6,0,L|364:194,1,95,0|2,0:0|0:0,0:0:0:0:
288,248,219287,1,8,0:0:0:0:
288,248,219565,2,0,P|230:177|140:188,1,190,2|2,0:0|0:0,0:0:0:0:
196,264,220398,1,8,0:0:0:0:
252,340,220676,2,0,P|162:351|105:280,2,190,2|2|2,0:0|0:0|0:0,0:0:0:0:
324,280,222065,1,0,0:0:0:0:
399,224,222343,2,0,P|408:177|396:131,1,95,2|8,0:0|0:0,0:0:0:0:
332,60,222898,1,0,0:0:0:0:
332,60,223176,6,0,B|288:80|256:116|256:116|224:80|180:60,2,190,4|8|0,0:0|0:0|0:0,0:0:0:0:
412,112,224565,1,2,0:0:0:0:
452,196,224843,2,0,L|416:292,1,95,8|0,0:0|0:0,0:0:0:0:
332,324,225398,2,0,B|288:304|256:268|256:268|224:304|180:324,2,190,4|8|0,0:0|0:0|0:0,0:0:0:0:
416,276,226787,1,2,0:0:0:0:
464,192,227065,1,8,0:0:0:0:
346,133,227343,6,0,P|256:107|206:28,1,190,2|0,0:0|0:0,0:0:0:0:
305,28,228176,2,0,P|255:107|166:133,1,190,8|0,0:0|0:0,0:0:0:0:
86,84,229009,2,0,B|62:132|84:176|84:176|106:218|82:266,1,190,2|0,0:0|0:0,0:0:0:0:
116,356,229843,2,0,L|209:340,1,95,2|8,0:0|0:0,0:0:0:0:
276,276,230398,1,4,0:3:0:0:
360,320,230676,1,0,0:0:0:0:
416,244,230954,5,8,0:0:0:0:
336,192,231232,1,0,0:0:0:0:
320,176,231370,1,8,0:0:0:0:
304,156,231509,2,0,L|280:248,1,95,8|4,0:0|0:3,0:0:0:0:
184,260,232065,6,0,L|231:76,1,190,4|8,0:0|0:0,0:0:0:0:
148,32,232898,2,0,L|101:216,1,190,2|2,0:0|0:0,0:0:0:0:
104,312,233732,1,8,0:0:0:0:
196,328,234009,2,0,B|243:304|281:345|281:345|315:384|367:368,2,190,2|2|2,0:0|0:0|0:0,0:0:0:0:
108,360,235398,1,0,0:0:0:0:
52,284,235676,2,0,P|32:240|23:194,1,95,2|8,0:0|0:0,0:0:0:0:
36,100,236232,6,0,B|92:100|128:144|128:144|206:114,2,190,2|2|2,0:0|0:0|0:0,0:0:0:0:
4,188,237620,2,0,L|22:281,1,95,0|2,0:0|0:0,0:0:0:0:
92,344,238176,1,8,0:0:0:0:
173,295,238454,2,0,P|256:255|339:295,2,190,2|2|2,0:0|0:0|0:0,0:0:0:0:
127,211,239843,2,0,P|166:184|211:168,1,95,0|0,0:0|0:0,0:0:0:0:
301,168,240398,2,0,P|345:184|385:211,1,95,8|0,0:0|0:0,0:0:0:0:
480,216,240954,6,0,L|456:27,2,190,4|8|0,0:0|0:0|0:0,0:0:0:0:
400,268,242343,1,2,0:0:0:0:
312,300,242620,1,8,0:0:0:0:
224,336,242898,1,4,0:3:0:0:
132,364,243176,2,0,L|108:175,2,190,4|8|0,0:0|0:0|0:0,0:0:0:0:
40,340,244565,2,0,L|27:245,1,95,2|8,0:0|0:0,0:0:0:0:
20,152,245120,6,0,P|68:74|159:75,1,190,2|0,0:0|0:0,0:0:0:0:
188,168,245954,2,0,B|236:184|256:230|256:230|276:184|324:168,1,190,8|0,0:0|0:0,0:0:0:0:
352,75,246787,2,0,P|443:74|492:152,1,190,2|0,0:0|0:0,0:0:0:0:
468,244,247620,1,2,0:0:0:0:
396,304,247898,2,0,L|301:292,1,95,8|0,0:3|0:0,0:0:0:0:
210,292,248454,2,0,L|116:304,1,95,0|8,0:0|0:0,0:0:0:0:
24,276,249009,1,0,0:0:0:0:
16,252,249148,1,8,0:0:0:0:
8,228,249287,1,8,0:0:0:0:
36,136,249565,1,4,0:3:0:0:
96,60,249843,5,4,0:0:0:0:
256,192,249982,12,8,254287,0:3:0:0:
