osu file format v14

[General]
AudioFilename: El Instante Paso.mp3
AudioLeadIn: 0
PreviewTime: 53098
Countdown: 0
SampleSet: Soft
StackLeniency: 0.7
Mode: 0
LetterboxInBreaks: 0
WidescreenStoryboard: 0

[Editor]
DistanceSpacing: 1
BeatDivisor: 4
GridSize: 4
TimelineZoom: 1

[Metadata]
Title:El Instante Paso
TitleUnicode:El Instante Pasó
Artist:Caramelos de Cianuro
ArtistUnicode:Caramelos de Cianuro
Creator:mancuso_JM_
Version:Facil
Source:
Tags:spanish español punk cdc Ocho 8 Pepsi Sonografica Traffic Records Alternative Alternativo Soft Rock Pop mancusojuanmattos
BeatmapID:2370690
BeatmapSetID:1135116

[Difficulty]
HPDrainRate:2
CircleSize:3
OverallDifficulty:2
ApproachRate:3
SliderMultiplier:1.3
SliderTickRate:1

[Events]
//Background and Video events
0,0,"Paso.jpg",0,0
//Break Periods
2,177814,192588
//Storyboard Layer 0 (Background)
//Storyboard Layer 1 (Fail)
//Storyboard Layer 2 (Pass)
//Storyboard Layer 3 (Foreground)
//Storyboard Sound Samples

[TimingPoints]
1028,565.984341099896,4,2,1,65,1,0
33289,-100,4,1,0,65,0,0
33324,-100,4,2,1,65,0,0
34421,-100,4,1,0,65,0,0
34456,-100,4,2,1,65,0,0
55362,-100,4,2,1,65,0,1
68946,-100,4,2,1,65,0,0
123280,-100,4,2,1,65,0,1
136298,-100,4,2,1,65,0,0
136864,-100,4,2,1,65,0,1
150447,-100,4,2,1,65,0,0
161201,-100,4,1,0,65,0,0
161236,-100,4,2,1,65,0,0
176058,-100,4,2,1,15,0,0
177615,-100,4,2,1,35,0,0
194594,-100,4,2,1,45,0,0
195160,-100,4,2,1,55,0,0
195726,-100,4,2,1,65,0,1
208744,-100,4,2,1,65,0,0
209310,-100,4,2,1,65,0,1
222893,-100,4,2,1,65,0,0
244967,-100,4,1,0,65,0,0
245002,-100,4,2,1,65,0,0
245533,-100,4,1,0,65,0,0
245568,-100,4,2,1,65,0,0
249495,-100,4,2,1,50,0,0
250061,-100,4,2,1,40,0,0
250627,-100,4,2,1,30,0,0
251193,-100,4,2,1,20,0,0
251759,-100,4,2,1,10,0,0

[Colours]
Combo1 : 255,174,94
Combo2 : 255,147,201
Combo3 : 89,164,255

[HitObjects]
67,76,1028,6,0,P|53:138|70:200,1,130,4|8,0:0|0:0,0:0:0:0:
164,288,2159,2,0,P|209:242|272:231,1,130,4|8,0:3|0:0,0:0:0:0:
400,260,3291,2,0,P|424:167|391:77,2,195,4|2|8,0:3|0:0|0:0,0:0:0:0:
292,336,5555,6,0,L|152:324,1,130,4|8,0:3|0:0,0:0:0:0:
136,196,6687,2,0,L|265:207,1,130,4|8,0:3|0:0,0:0:0:0:
320,92,7819,2,0,L|124:74,2,195,4|2|8,0:3|0:0|0:0,0:0:0:0:
436,152,10083,5,4,0:3:0:0:
312,192,10649,2,0,B|248:192|248:192|194:230,1,130,8|4,0:0|0:3,0:0:0:0:
104,324,11781,1,8,0:0:0:0:
28,220,12347,2,0,P|1:129|27:36,2,195,4|2|8,0:3|0:0|0:0,0:0:0:0:
104,324,14611,6,0,P|145:274|201:243,1,130,4|8,0:3|0:0,0:0:0:0:
312,176,15743,2,0,P|361:217|423:235,1,130,4|8,0:3|0:0,0:0:0:0:
421,363,16875,2,0,P|296:329|201:242,1,260,4|2,0:3|0:0,0:0:0:0:
172,124,18573,1,8,0:0:0:0:
256,24,19139,6,0,L|396:16,1,130,4|8,0:0|0:0,0:0:0:0:
456,124,20271,2,0,P|424:180|404:242,1,130,4|8,0:3|0:0,0:0:0:0:
274,242,21403,2,0,P|220:160|144:101,2,195,2|2|8,0:0|0:0|0:0,0:0:0:0:
344,352,23667,5,4,0:3:0:0:
405,237,24233,2,0,P|416:174|401:111,2,130,8|2|8,0:0|0:0|0:0,0:0:0:0:
344,352,25931,2,0,P|265:300|176:331,2,195,4|2|8,0:3|0:0|0:0,0:0:0:0:
460,296,28195,6,0,L|425:104,2,195,4|2|8,0:3|0:0|0:0,0:0:0:0:
348,364,30459,1,4,0:3:0:0:
228,312,31025,2,0,L|204:184,1,130,8|2,0:0|0:0,0:0:0:0:
88,124,32157,1,8,0:0:0:0:
168,24,32723,6,0,B|216:48|236:68|256:116|256:116|276:68|296:48|344:24,2,260,4|4|4,0:0|0:3|0:3,0:0:0:0:
47,76,35553,2,0,P|36:139|51:202,1,130,8|8,0:0|0:0,0:0:0:0:
152,284,36685,1,8,0:0:0:0:
256,364,37250,6,0,L|385:349,1,130,4|8,0:0|0:0,0:0:0:0:
396,220,38382,2,0,L|202:242,2,195,2|2|8,0:0|0:0|0:0,0:0:0:0:
340,104,40646,2,0,P|277:92|218:117,1,130,2|8,0:0|0:0,0:0:0:0:
244,244,41778,6,0,P|306:255|365:230,1,130,4|8,0:0|0:0,0:0:0:0:
340,104,42910,2,0,P|399:79|461:91,1,130,2|8,0:0|0:0,0:0:0:0:
500,216,44042,2,0,P|417:263|328:231,2,195,4|2|8,0:3|0:0|0:0,0:0:0:0:
492,89,46306,6,0,B|440:56|440:56|372:56,1,130,4|8,0:0|0:0,0:0:0:0:
247,100,47438,2,0,P|169:153|79:126,2,195,4|2|8,0:3|0:0|0:0,0:0:0:0:
376,100,49702,2,8,P|394:161|384:225,1,130,2|8,0:0|0:0,0:0:0:0:
256,252,50834,5,4,0:3:0:0:
140,312,51400,2,8,P|123:249|140:187,1,130,8|4,0:0|0:3,0:0:0:0:
236,100,52532,1,8,0:0:0:0:
360,60,53098,1,4,0:0:0:0:
360,60,55362,6,0,P|376:123|371:188,1,130,4|8,0:0|0:0,0:0:0:0:
292,292,56494,2,0,P|214:346|124:318,2,195,2|2|8,0:0|0:0|0:0,0:0:0:0:
284,161,58758,2,0,P|193:133|116:187,2,195,2|2|8,0:0|0:0|0:0,0:0:0:0:
412,149,61022,2,0,P|425:85|411:22,1,130,2|8,0:0|0:0,0:0:0:0:
296,81,62154,6,0,P|282:144|296:207,1,130,4|8,0:3|0:0,0:0:0:0:
408,277,63286,2,0,P|334:336|240:320,2,195,2|2|8,0:0|0:0|0:0,0:0:0:0:
492,180,65550,1,2,0:0:0:0:
348,52,66399,6,0,P|256:26|175:76,1,195,4|12,0:0|0:0,0:0:0:0:
212,332,68946,6,0,P|303:357|384:307,2,195,4|2|8,0:0|0:0|0:0,0:0:0:0:
140,224,71210,1,4,0:3:0:0:
220,120,71776,2,0,B|272:100|272:100|340:127,2,130,8|2|8,0:0|0:0|0:0,0:0:0:0:
184,244,73473,6,0,P|99:288|7:265,2,195,4|2|8,0:3|0:0|0:0,0:0:0:0:
84,143,75737,1,4,0:3:0:0:
12,36,76303,2,0,P|73:15|137:23,1,130,8|2,0:0|0:0,0:0:0:0:
84,143,77435,1,8,0:0:0:0:
184,244,78001,6,0,P|99:288|7:265,2,195,4|2|8,0:3|0:0|0:0,0:0:0:0:
256,136,80265,1,4,0:3:0:0:
340,36,80831,2,0,B|404:24|404:24|456:62,2,130,8|2|8,0:0|0:0|0:0,0:0:0:0:
256,136,82529,6,0,P|171:179|78:156,2,195,4|2|8,0:3|0:0|0:0,0:0:0:0:
356,52,84793,1,4,0:3:0:0:
340,180,85359,2,0,P|328:245|336:309,1,130,8|2,0:0|0:0,0:0:0:0:
448,372,86491,1,8,0:0:0:0:
496,252,87057,6,0,P|507:188|500:124,1,130,4|8,0:0|0:0,0:0:0:0:
396,44,88189,2,0,B|336:20|304:60|272:100|212:76,2,195,4|2|8,0:3|0:0|0:0,0:0:0:0:
379,172,90453,2,0,P|326:207|262:208,1,130,2|8,0:0|0:0,0:0:0:0:
160,124,91585,5,4,0:0:0:0:
138,253,92151,2,0,P|130:316|151:377,2,130,8|2|8,0:0|0:0|0:0,0:0:0:0:
238,173,93849,2,8,P|158:125|58:157,2,195,4|2|8,0:3|0:0|0:0,0:0:0:0:
348,244,96113,5,4,0:3:0:0:
456,308,96679,2,0,P|512:196|456:84,1,260,8|8,0:0|0:0,0:0:0:0:
328,64,98377,1,4,0:3:0:0:
216,128,98943,2,0,P|166:169|104:187,2,130,8|2|8,0:0|0:0|0:0,0:0:0:0:
328,192,100641,6,0,P|237:283|115:323,1,260,4|2,0:0|0:0,0:0:0:0:
40,216,102339,2,0,B|58:174|58:174|79:147|79:147|100:101,1,130,8|4,0:0|0:3,0:0:0:0:
200,20,103471,1,8,0:0:0:0:
248,140,104037,2,0,P|260:202|229:258,1,130,8|0,0:0|0:0,0:0:0:0:
100,260,105169,6,0,P|106:322|152:366,1,130,4|8,0:3|0:0,0:0:0:0:
280,343,106301,2,0,P|370:318|449:371,2,195,4|2|8,0:3|0:0|0:0,0:0:0:0:
164,280,108565,2,0,P|191:221|231:169,1,130,2|10,0:0|0:0,0:0:0:0:
360,148,109696,6,0,P|342:85|312:28,1,130,4|8,0:0|0:0,0:0:0:0:
182,28,110828,2,0,P|164:90|134:147,1,130,4|8,0:3|0:0,0:0:0:0:
76,264,111960,2,0,P|154:316|245:290,2,195,4|2|8,0:3|0:0|0:0,0:0:0:0:
88,136,114224,6,0,P|178:109|257:162,2,195,4|2|8,0:3|0:0|0:0,0:0:0:0:
0,228,116488,1,4,0:3:0:0:
84,328,117054,2,0,B|136:368|136:368|198:352,1,130,8|2,0:0|0:0,0:0:0:0:
296,264,118186,1,8,0:0:0:0:
392,180,118752,6,0,P|337:143|273:135,1,130,4|8,0:3|0:0,0:0:0:0:
156,84,119884,1,2,0:0:0:0:
36,28,120450,1,10,0:0:0:0:
32,160,121016,1,4,0:0:0:0:
32,159,123280,6,0,P|44:223|86:271,1,130,4|8,0:0|0:0,0:0:0:0:
184,360,124412,2,0,B|232:340|256:297|256:297|280:340|328:360,2,195,2|2|8,0:0|0:0|0:0,0:0:0:0:
172,232,126676,2,0,P|256:189|340:232,2,195,2|2|8,0:0|0:0|0:0,0:0:0:0:
94,334,128940,2,0,P|148:363|214:350,1,130,2|8,0:0|0:0,0:0:0:0:
300,252,130072,6,0,P|356:281|419:268,1,130,4|8,0:3|0:0,0:0:0:0:
428,140,131204,2,0,B|392:106|384:54|384:54|361:101|317:122,2,195,2|2|8,0:0|0:0|0:0,0:0:0:0:
440,268,133468,2,0,P|349:295|273:240,2,195,2|4|8,0:0|0:0|0:0,0:0:0:0:
500,152,135732,1,2,0:0:0:0:
432,44,136298,1,8,0:0:0:0:
316,104,136864,6,0,P|256:125|196:104,1,130,4|8,0:0|0:0,0:0:0:0:
67,128,137996,2,0,P|43:220|78:310,2,195,2|2|8,0:0|0:0|0:0,0:0:0:0:
164,40,140260,2,0,B|224:16|256:56|288:96|348:72,2,195,2|2|8,0:0|0:0|0:0,0:0:0:0:
156,172,142524,2,0,P|213:200|277:198,1,130,2|8,0:0|0:0,0:0:0:0:
408,220,143656,6,0,P|421:283|410:346,1,130,4|8,0:3|0:0,0:0:0:0:
296,288,144788,2,0,P|211:248|131:296,2,195,2|2|8,0:0|0:0|0:0,0:0:0:0:
412,232,147051,2,0,B|421:168|375:145|329:123|339:59,2,195,2|2|8,0:0|0:0|0:0,0:0:0:0:
320,324,149315,1,2,0:0:0:0:
256,216,149881,1,8,0:0:0:0:
192,324,150447,5,4,0:0:0:0:
96,240,151013,2,0,P|149:204|213:197,2,130,8|2|8,0:0|0:0|0:0,0:0:0:0:
192,324,152711,1,4,0:3:0:0:
312,379,153277,2,0,P|321:315|303:253,2,130,8|2|8,0:0|0:0|0:0,0:0:0:0:
192,324,154975,6,0,P|166:264|119:220,1,130,4|8,0:3|0:0,0:0:0:0:
60,103,156107,2,0,P|109:62|168:34,1,130,2|8,0:0|0:0,0:0:0:0:
280,100,157239,2,0,P|325:145|386:168,2,130,4|8|2,0:3|0:0|0:0,0:0:0:0:
168,36,158937,1,8,0:0:0:0:
60,108,159503,6,0,P|47:171|65:232,1,130,4|8,0:3|0:0,0:0:0:0:
180,300,160635,2,0,B|232:320|256:358|256:358|280:320|332:300,2,195,4|4|12,0:3|0:0|0:0,0:0:0:0:
77,60,163465,1,8,0:0:0:0:
52,188,164031,5,4,0:0:0:0:
124,296,164597,2,0,P|187:284|234:241,2,130,8|2|8,0:0|0:0|0:0,0:0:0:0:
52,188,166295,2,0,B|64:144|64:144|64:108|64:108|75:61,2,130,4|8|2,0:3|0:0|0:0,0:0:0:0:
12,312,167993,1,8,0:0:0:0:
140,288,168559,6,0,P|256:238|372:288,2,260,4|2|4,0:0|0:0|0:3,0:0:0:0:
16,256,171389,2,0,P|0:193|16:131,2,130,8|2|8,0:0|0:0|0:0,0:0:0:0:
124,331,173087,6,0,P|175:292|236:272,1,130,4|8,0:0|0:0,0:0:0:0:
349,205,174219,2,0,P|442:194|487:112,1,195,2|4,0:0|0:0,0:0:0:0:
320,96,175917,6,0,P|244:244|412:300,1,390,12|2,0:0|0:0,0:0:0:0:
416,292,194028,6,0,P|360:324|319:374,2,130,2|2|2,0:0|0:0|0:0,0:0:0:0:
460,168,195726,6,0,P|430:110|385:63,1,130,4|8,0:0|0:0,0:0:0:0:
308,168,196858,2,0,B|276:192|256:249|256:249|236:192|204:168,2,195,2|2|8,0:0|0:0|0:0,0:0:0:0:
348,48,199122,2,0,P|256:21|164:48,2,195,2|2|8,0:0|0:0|0:0,0:0:0:0:
444,136,201386,2,0,P|478:190|498:251,1,130,2|8,0:0|0:0,0:0:0:0:
380,308,202518,6,0,P|345:253|324:191,1,130,4|8,0:3|0:0,0:0:0:0:
236,96,203650,2,0,P|207:188|155:271,2,195,2|2|8,0:0|0:0|0:0,0:0:0:0:
360,48,205914,2,0,P|389:140|441:223,2,195,2|4|8,0:0|0:0|0:0,0:0:0:0:
240,100,208178,1,2,0:0:0:0:
120,148,208744,1,8,0:0:0:0:
20,228,209310,6,0,P|50:285|96:330,1,130,4|8,0:0|0:0,0:0:0:0:
224,312,210442,2,0,B|261:275|267:226|267:226|305:257|357:258,2,195,2|2|8,0:0|0:0|0:0,0:0:0:0:
164,197,212706,2,0,P|225:125|319:134,2,195,2|2|8,0:0|0:0|0:0,0:0:0:0:
31,195,214970,2,0,P|16:133|28:68,1,130,2|8,0:0|0:0,0:0:0:0:
144,128,216102,6,0,P|159:190|148:254,1,130,4|8,0:3|0:0,0:0:0:0:
40,325,217234,2,0,P|118:379|212:364,2,195,2|2|8,0:0|0:0|0:0,0:0:0:0:
40,194,219497,2,0,P|118:136|174:57,2,195,2|4|8,0:0|0:0|0:0,0:0:0:0:
132,284,221761,1,2,0:0:0:0:
228,372,222327,1,8,0:0:0:0:
320,280,222893,6,0,P|354:225|401:180,1,130,4|8,0:0|0:0,0:0:0:0:
508,108,224025,2,0,P|467:57|417:16,1,130,2|8,0:0|0:0,0:0:0:0:
291,47,225157,2,0,P|246:95|192:131,1,130,4|8,0:3|0:0,0:0:0:0:
112,28,226289,2,0,P|57:63|13:111,1,130,2|8,0:0|0:0,0:0:0:0:
84,220,227421,5,4,0:0:0:0:
204,272,227987,1,8,0:0:0:0:
292,176,228553,2,0,P|377:135|465:172,2,195,2|2|8,0:0|0:0|0:0,0:0:0:0:
332,300,230817,2,0,P|392:318|450:291,1,130,2|8,0:0|0:0,0:0:0:0:
496,172,231949,6,0,P|448:127|414:72,1,130,4|8,0:3|0:0,0:0:0:0:
296,20,233081,2,0,B|231:26|222:77|212:127|148:134,1,195,2|4,0:0|0:0,0:0:0:0:
136,320,234779,2,0,B|188:296|252:312|228:344|256:378|284:344|260:312|324:296|376:320,1,260,12|8,0:0|0:0,0:0:0:0:
487,252,236477,6,0,P|496:187|482:125,1,130,4|8,0:0|0:0,0:0:0:0:
404,20,237609,2,0,P|356:64|321:119,1,130,2|8,0:0|0:0,0:0:0:0:
190,119,238741,2,0,P|155:64|108:20,1,130,4|8,0:0|0:0,0:0:0:0:
29,125,239873,2,0,P|15:187|24:252,1,130,2|8,0:0|0:0,0:0:0:0:
104,356,241005,5,4,0:0:0:0:
172,244,241571,2,0,P|256:201|340:244,2,195,8|2|4,0:0|0:0|0:3,0:0:0:0:
104,356,243835,1,8,0:0:0:0:
27,247,244401,2,0,P|0:155|22:62,2,195,2|2|8,0:0|0:0|0:0,0:0:0:0:
104,356,246665,6,0,B|164:380|196:340|228:300|288:324,1,195,2|4,0:0|0:0,0:0:0:0:
256,192,248363,12,0,251759,0:0:0:0:
