osu file format v14

[General]
AudioFilename: El Instante Paso.mp3
AudioLeadIn: 0
PreviewTime: 53098
Countdown: 0
SampleSet: Soft
StackLeniency: 0.7
Mode: 0
LetterboxInBreaks: 0
WidescreenStoryboard: 0

[Editor]
DistanceSpacing: 0.5
BeatDivisor: 4
GridSize: 4
TimelineZoom: 1

[Metadata]
Title:El Instante Paso
TitleUnicode:El Instante Pasó
Artist:Caramelos de Cianuro
ArtistUnicode:Caramelos de Cianuro
Creator:mancuso_JM_
Version:Dificil
Source:
Tags:spanish español punk cdc Ocho 8 Pepsi Sonografica Traffic Records Alternative Alternativo Soft Rock Pop mancusojuanmattos
BeatmapID:2370689
BeatmapSetID:1135116

[Difficulty]
HPDrainRate:6
CircleSize:4
OverallDifficulty:6
ApproachRate:7.3
SliderMultiplier:2.1
SliderTickRate:1

[Events]
//Background and Video events
0,0,"Paso.jpg",0,0
//Break Periods
2,177814,193174
//Storyboard Layer 0 (Background)
//Storyboard Layer 1 (Fail)
//Storyboard Layer 2 (Pass)
//Storyboard Layer 3 (Foreground)
//Storyboard Sound Samples

[TimingPoints]
1028,565.984341099896,4,2,1,50,1,0
1028,-100,4,2,1,65,0,0
55362,-100,4,2,1,65,0,1
68946,-100,4,2,1,65,0,0
123280,-100,4,2,1,65,0,1
136298,-100,4,2,1,65,0,0
136864,-100,4,2,1,65,0,1
150447,-100,4,2,1,65,0,0
176058,-100,4,2,1,15,0,0
177615,-100,4,2,1,35,0,0
194594,-100,4,2,1,45,0,0
195160,-100,4,2,1,55,0,0
195726,-100,4,2,1,65,0,1
208744,-100,4,2,1,65,0,0
209310,-100,4,2,1,65,0,1
222893,-100,4,2,1,65,0,0
249495,-100,4,2,1,50,0,0
250061,-100,4,2,1,40,0,0
250627,-100,4,2,1,30,0,0
251193,-100,4,2,1,20,0,0
251759,-100,4,2,1,10,0,0

[Colours]
Combo1 : 255,174,94
Combo2 : 255,147,201
Combo3 : 89,164,255

[HitObjects]
149,128,179,5,8,0:0:0:0:
90,214,461,1,8,0:0:0:0:
90,214,603,1,8,0:0:0:0:
90,214,744,1,4,0:3:0:0:
164,290,1028,6,0,P|256:333|348:290,1,210,4|8,0:0|0:0,0:0:0:0:
428,220,1876,1,2,0:0:0:0:
499,147,2159,2,0,P|403:121|331:192,1,210,4|8,0:3|0:0,0:0:0:0:
256,268,3008,1,2,0:0:0:0:
160,312,3291,5,4,0:3:0:0:
63,267,3574,2,0,P|53:216|63:165,1,105,2|8,0:0|0:0,0:0:0:0:
136,88,4140,2,0,B|189:73|187:101|238:91,1,105,2|2,0:0|0:0,0:0:0:0:
328,36,4706,1,4,0:3:0:0:
424,84,4989,1,8,0:0:0:0:
424,84,5555,6,0,P|460:181|437:282,1,210,4|8,0:3|0:0,0:0:0:0:
352,344,6404,1,2,0:0:0:0:
308,248,6687,2,0,B|264:220|256:161|256:161|248:220|204:248,1,210,4|8,0:3|0:0,0:0:0:0:
160,344,7536,1,2,0:0:0:0:
60,376,7819,5,4,0:3:0:0:
7,283,8102,2,0,P|-3:233|9:182,1,105,2|8,0:0|0:0,0:0:0:0:
84,104,8668,2,0,L|188:92,1,105,2|2,0:0|0:0,0:0:0:0:
276,36,9234,1,4,0:3:0:0:
352,116,9517,1,8,0:0:0:0:
352,115,10083,6,0,P|292:195|196:172,1,210,4|8,0:3|0:0,0:0:0:0:
100,128,10932,1,2,0:0:0:0:
136,228,11215,2,0,P|224:279|327:270,1,210,4|8,0:3|0:0,0:0:0:0:
424,224,12064,1,2,0:0:0:0:
468,128,12347,5,4,0:3:0:0:
408,44,12630,2,0,L|307:74,1,105,2|8,0:0|0:0,0:0:0:0:
204,74,13196,2,0,L|104:44,1,105,2|2,0:0|0:0,0:0:0:0:
44,128,13762,1,4,0:3:0:0:
72,232,14045,1,8,0:0:0:0:
72,232,14611,6,0,P|150:295|245:262,1,210,4|8,0:3|0:0,0:0:0:0:
332,200,15460,1,2,0:0:0:0:
428,155,15743,2,0,P|350:92|255:124,1,210,4|8,0:3|0:0,0:0:0:0:
152,156,16592,1,2,0:0:0:0:
76,228,16875,5,4,0:3:0:0:
7,147,17158,2,0,P|-4:97|7:47,1,105,2|8,0:0|0:0,0:0:0:0:
108,96,17724,2,0,P|120:146|108:196,1,105,2|2,0:0|0:0,0:0:0:0:
24,264,18290,1,8,0:0:0:0:
103,338,18573,1,8,0:0:0:0:
128,339,18715,1,8,0:0:0:0:
151,331,18856,1,4,0:3:0:0:
228,256,19139,6,0,P|322:223|399:288,1,210,4|8,0:0|0:0,0:0:0:0:
500,256,19988,2,0,L|476:153,2,105,2|0|2,0:0|0:0|0:0,0:0:0:0:
436,340,20837,2,0,B|383:329|385:357|332:342,1,105,8|0,0:0|0:0,0:0:0:0:
276,252,21403,5,4,0:3:0:0:
240,156,21686,1,0,0:0:0:0:
240,156,21827,1,2,0:0:0:0:
154,207,22110,1,0,0:0:0:0:
154,207,22252,2,0,P|82:278|-12:247,1,210,2|4,0:0|0:3,0:0:0:0:
0,144,23101,2,0,B|19:109|19:109|24:80|24:80|42:48,1,105,8|0,0:0|0:0,0:0:0:0:
144,28,23667,5,4,0:3:0:0:
232,88,23950,1,2,0:0:0:0:
316,152,24233,2,0,B|296:186|296:186|274:206|274:206|256:238,1,105,8|0,0:0|0:0,0:0:0:0:
284,340,24799,2,0,P|329:364|380:354,2,105,4|2|8,0:3|0:0|0:0,0:0:0:0:
188,292,25648,1,2,0:0:0:0:
104,228,25931,6,0,P|75:128|106:29,1,210,4|8,0:3|0:0,0:0:0:0:
204,72,26780,2,0,B|248:100|256:159|256:159|264:100|308:72,1,210,2|4,0:0|0:3,0:0:0:0:
406,29,27629,2,0,P|429:75|436:127,1,105,8|0,0:0|0:0,0:0:0:0:
436,232,28195,6,0,P|387:288|316:265,1,157.5,4|0,0:3|0:0,0:0:0:0:
300,284,28761,1,8,0:0:0:0:
235,199,29044,2,0,P|140:173|79:251,1,210,2|0,0:0|0:0,0:0:0:0:
120,348,29893,1,8,0:0:0:0:
224,360,30176,1,0,0:0:0:0:
328,380,30459,6,0,P|359:282|317:188,1,210,4|8,0:3|0:0,0:0:0:0:
224,144,31308,2,0,P|211:93|225:43,2,105,2|0|2,0:0|0:0|0:0,0:0:0:0:
317,188,32157,1,8,0:0:0:0:
404,244,32440,1,0,0:0:0:0:
348,332,32723,6,0,P|256:375|164:332,1,210,4|8,0:0|0:0,0:0:0:0:
108,244,33572,1,4,0:3:0:0:
112,139,33855,2,0,P|192:74|294:59,1,210,4|8,0:3|0:0,0:0:0:0:
380,120,34704,1,0,0:0:0:0:
368,224,34987,6,0,P|287:289|185:304,1,210,4|8,0:3|0:0,0:0:0:0:
160,292,35694,1,2,0:0:0:0:
136,280,35836,1,0,0:0:0:0:
59,207,36119,2,0,P|48:157|58:106,1,105,8|0,0:0|0:0,0:0:0:0:
183,202,36685,2,0,P|194:252|184:303,1,105,8|8,0:0|0:0,0:0:0:0:
92,356,37250,5,4,0:0:0:0:
19,280,37533,2,0,P|63:254|115:253,1,105,2|8,0:0|0:0,0:0:0:0:
184,176,38099,2,0,B|167:139|167:139|147:118|147:118|132:84,2,105,0|2|0,0:0|0:0|0:0,0:0:0:0:
256,256,38948,1,8,0:0:0:0:
340,316,39231,1,4,0:3:0:0:
340,316,39514,6,0,P|375:220|340:124,1,210,4|8,0:3|0:0,0:0:0:0:
324,108,40222,1,2,0:0:0:0:
308,96,40363,1,0,0:0:0:0:
228,28,40646,2,0,P|177:15|128:32,1,105,2|4,0:0|0:3,0:0:0:0:
206,148,41212,2,0,P|256:160|305:143,1,105,8|0,0:0|0:0,0:0:0:0:
456,56,41778,6,0,P|487:126|464:199,1,157.5,4|0,0:0|0:0,0:0:0:0:
448,216,42344,1,8,0:0:0:0:
380,296,42627,2,0,P|399:344|434:383,2,105,4|2|0,0:3|0:0|0:0,0:0:0:0:
448,216,43476,1,8,0:0:0:0:
400,124,43759,1,4,0:3:0:0:
340,44,44042,6,0,B|284:52|256:100|256:100|228:52|172:44,1,210,4|8,0:3|0:0,0:0:0:0:
168,144,44891,2,0,P|256:192|344:144,1,210,2|4,0:0|0:3,0:0:0:0:
424,76,45740,1,8,0:0:0:0:
490,154,46023,1,0,0:0:0:0:
396,199,46306,6,0,P|387:251|400:301,1,105,4|0,0:0|0:0,0:0:0:0:
496,257,46872,2,0,P|504:205|491:155,2,105,8|4|2,0:0|0:3|0:0,0:0:0:0:
408,316,47721,2,0,B|332:300|306:344|280:384|212:360,1,210,0|2,0:0|0:0,0:0:0:0:
120,312,48570,5,4,0:3:0:0:
27,259,48853,2,0,P|15:209|29:159,1,105,2|8,0:0|0:0,0:0:0:0:
128,120,49419,2,0,P|141:69|129:19,2,105,2|0|2,0:0|0:0|0:0,0:0:0:0:
29,159,50268,1,8,0:0:0:0:
72,256,50551,1,8,0:0:0:0:
72,256,50693,1,8,0:0:0:0:
72,256,50834,6,0,P|143:325|237:291,1,210,4|8,0:3|0:0,0:0:0:0:
280,196,51683,2,0,L|257:93,1,105,2|4,0:0|0:3,0:0:0:0:
48,52,52532,2,0,L|70:154,1,105,8|4,0:0|0:3,0:0:0:0:
12,244,53098,1,4,0:0:0:0:
164,312,55362,6,0,P|256:355|348:312,1,210,4|8,0:0|0:0,0:0:0:0:
412,228,56211,1,2,0:0:0:0:
412,228,56352,1,0,0:0:0:0:
412,228,56494,2,0,P|419:176|406:125,1,105,2|2,0:0|0:0,0:0:0:0:
344,40,57060,1,8,0:0:0:0:
276,120,57343,6,0,P|200:186|103:156,1,210,2|4,0:0|0:3,0:0:0:0:
36,76,58192,1,8,0:0:0:0:
0,172,58475,1,2,0:0:0:0:
0,172,58616,1,0,0:0:0:0:
0,172,58758,2,0,P|-7:223|4:274,1,105,2|2,0:0|0:0,0:0:0:0:
76,352,59324,1,8,0:0:0:0:
164,296,59607,6,0,P|256:253|348:296,1,210,2|2,0:0|0:0,0:0:0:0:
448,264,60456,2,0,P|441:213|425:163,1,105,8|2,0:0|0:0,0:0:0:0:
320,140,61022,2,0,P|331:88|349:39,1,105,4|2,0:3|0:0,0:0:0:0:
452,28,61588,1,8,0:0:0:0:
491,120,61871,6,0,P|410:180|319:139,1,210,2|4,0:0|0:3,0:0:0:0:
256,56,62720,1,8,0:0:0:0:
152,80,63003,1,2,0:0:0:0:
132,60,63144,1,0,0:0:0:0:
116,40,63286,2,0,L|130:143,1,105,2|2,0:0|0:0,0:0:0:0:
112,248,63852,1,8,0:0:0:0:
204,296,64135,6,0,B|248:324|256:383|256:383|264:324|308:296,1,210,2|4,0:0|0:3,0:0:0:0:
380,220,64984,1,8,0:0:0:0:
340,124,65267,1,2,0:0:0:0:
256,60,65550,1,4,0:3:0:0:
172,124,65833,1,2,0:0:0:0:
132,220,66116,1,8,0:0:0:0:
204,296,66399,6,0,B|248:268|256:209|256:209|264:268|308:296,1,210,4|4,0:0|0:3,0:0:0:0:
408,259,67248,2,0,P|420:209|406:159,1,105,12|0,0:0|0:0,0:0:0:0:
304,132,67814,2,0,P|290:81|302:31,2,105,2|0|2,0:0|0:0|0:0,0:0:0:0:
316,152,68946,6,0,P|233:212|133:192,1,210,4|8,0:0|0:0,0:0:0:0:
36,156,69795,1,2,0:0:0:0:
120,92,70078,2,0,P|202:31|302:51,1,210,4|8,0:3|0:0,0:0:0:0:
400,92,70927,1,2,0:0:0:0:
480,160,71210,5,4,0:3:0:0:
399,228,71493,2,0,P|387:278|401:328,1,105,2|8,0:0|0:0,0:0:0:0:
492,276,72059,2,0,P|504:225|490:175,1,105,2|2,0:0|0:0,0:0:0:0:
432,88,72625,1,4,0:3:0:0:
336,40,72908,1,8,0:0:0:0:
336,40,73473,6,0,P|240:12|162:76,1,210,4|8,0:3|0:0,0:0:0:0:
196,176,74322,1,2,0:0:0:0:
240,272,74605,2,0,P|162:336|65:307,1,210,4|8,0:3|0:0,0:0:0:0:
20,212,75454,1,2,0:0:0:0:
48,112,75737,5,4,0:3:0:0:
120,36,76020,2,0,P|171:29|219:49,1,105,2|8,0:0|0:0,0:0:0:0:
300,120,76586,2,0,P|350:105|387:69,2,105,2|2|4,0:0|0:0|0:3,0:0:0:0:
204,165,77435,1,8,0:0:0:0:
204,165,78001,6,0,P|156:252|206:339,1,210,4|8,0:3|0:0,0:0:0:0:
256,252,78850,1,2,0:0:0:0:
304,339,79133,2,0,P|355:251|305:164,1,210,4|8,0:3|0:0,0:0:0:0:
256,72,79982,1,2,0:0:0:0:
164,20,80265,5,4,0:3:0:0:
71,72,80548,2,0,P|55:121|48:173,1,105,2|8,0:0|0:0,0:0:0:0:
100,264,81114,2,0,P|128:308|147:357,2,105,2|2|4,0:0|0:0|0:3,0:0:0:0:
0,228,81963,1,8,0:0:0:0:
0,228,82529,6,0,B|48:236|72:216|72:216|124:232|124:232|160:208|200:211,1,210,4|8,0:3|0:0,0:0:0:0:
292,260,83378,1,2,0:0:0:0:
368,332,83661,2,0,B|415:315|471:327|471:327|472:270|500:228,1,210,4|8,0:3|0:0,0:0:0:0:
480,124,84510,1,2,0:0:0:0:
412,44,84793,5,4,0:3:0:0:
323,104,85076,2,0,P|275:122|225:110,1,105,2|8,0:0|0:0,0:0:0:0:
76,28,85642,2,0,P|124:8|174:20,1,105,2|2,0:0|0:0,0:0:0:0:
225,110,86208,1,8,0:0:0:0:
144,176,86491,1,8,0:0:0:0:
120,190,86633,1,8,0:0:0:0:
104,208,86774,1,4,0:3:0:0:
52,300,87057,5,4,0:0:0:0:
152,336,87340,2,0,P|197:310|234:273,1,105,2|8,0:0|0:0,0:0:0:0:
272,176,87906,1,2,0:0:0:0:
212,92,88189,2,0,P|260:73|311:80,1,105,2|0,0:0|0:0,0:0:0:0:
412,116,88755,1,8,0:0:0:0:
424,220,89038,1,2,0:0:0:0:
332,268,89321,6,0,P|232:280|168:202,1,210,4|8,0:3|0:0,0:0:0:0:
132,104,90170,1,2,0:0:0:0:
212,36,90453,2,0,L|316:28,1,105,2|4,0:0|0:3,0:0:0:0:
316,133,91019,2,0,L|212:141,1,105,8|0,0:0|0:0,0:0:0:0:
168,264,91585,6,0,L|384:248,1,210,4|8,0:0|0:0,0:0:0:0:
456,320,92434,1,2,0:0:0:0:
356,352,92717,2,0,P|307:371|257:361,1,105,2|0,0:0|0:0,0:0:0:0:
184,288,93283,1,8,0:0:0:0:
100,348,93566,1,4,0:3:0:0:
20,284,93849,6,0,P|-12:185|20:87,1,210,4|8,0:3|0:0,0:0:0:0:
112,36,94698,2,0,P|192:97|290:72,1,210,2|4,0:0|0:3,0:0:0:0:
392,100,95547,2,0,P|407:149|401:201,1,105,8|0,0:0|0:0,0:0:0:0:
320,268,96113,6,0,B|268:256|268:256|221:277,1,105,4|0,0:3|0:0,0:0:0:0:
136,340,96679,2,0,B|92:288|104:248|140:216|155:192|140:168|104:136|92:96|136:44,1,315,8|2,0:0|0:0,0:0:0:0:
236,12,97811,2,0,L|340:4,1,105,8|2,0:0|0:0,0:0:0:0:
436,48,98377,5,4,0:3:0:0:
356,115,98660,2,0,P|308:135|258:124,1,105,2|8,0:0|0:0,0:0:0:0:
164,76,99226,1,2,0:0:0:0:
164,76,99509,2,0,P|113:64|66:84,2,105,2|0|8,0:0|0:0|0:0,0:0:0:0:
112,168,100358,1,0,0:0:0:0:
32,232,100641,6,0,P|52:280|63:331,1,105,4|2,0:0|0:0,0:0:0:0:
156,384,101207,2,0,P|169:333|192:286,1,105,8|0,0:0|0:0,0:0:0:0:
284,236,101773,2,0,B|309:187|332:210|358:164,1,105,2|0,0:0|0:0,0:0:0:0:
444,104,102339,1,8,0:0:0:0:
392,12,102622,1,2,0:0:0:0:
292,36,102905,6,0,B|248:40|220:48|220:48|188:36|168:20|168:20|136:36|93:39,1,210,4|8,0:3|0:0,0:0:0:0:
32,124,103754,1,4,0:3:0:0:
96,208,104037,2,0,P|146:220|196:206,1,105,8|4,0:0|0:3,0:0:0:0:
276,136,104603,1,0,0:0:0:0:
360,76,104886,1,10,0:0:0:0:
452,124,105169,6,0,P|487:221|466:322,1,210,4|8,0:3|0:0,0:0:0:0:
364,344,106018,1,2,0:0:0:0:
264,320,106301,2,0,P|252:269|262:218,2,105,4|0|8,0:3|0:0|0:0,0:0:0:0:
364,344,107150,1,4,0:3:0:0:
444,276,107433,6,0,B|440:232|432:204|432:204|444:172|460:152|460:152|444:120|441:77,1,210,4|8,0:3|0:0,0:0:0:0:
360,12,108282,1,0,0:0:0:0:
272,68,108565,2,0,L|167:56,1,105,2|4,0:0|0:3,0:0:0:0:
64,160,109131,2,0,L|168:171,1,105,8|2,0:0|0:0,0:0:0:0:
256,264,109696,5,4,0:0:0:0:
336,332,109979,2,0,P|383:309|408:264,2,105,2|8|4,0:0|0:0|0:3,0:0:0:0:
256,264,110828,2,0,P|227:222|182:195,1,105,4|2,0:3|0:0,0:0:0:0:
112,116,111394,2,0,P|135:69|172:33,1,105,8|4,0:0|0:3,0:0:0:0:
280,32,111960,6,0,B|313:77|317:127|317:127|344:86|402:68,1,210,4|8,0:3|0:0,0:0:0:0:
500,108,112809,2,0,P|528:208|505:309,1,210,2|4,0:0|0:3,0:0:0:0:
404,352,113658,1,8,0:0:0:0:
312,296,113941,1,2,0:0:0:0:
208,328,114224,6,0,P|162:351|110:344,1,105,4|0,0:3|0:0,0:0:0:0:
6,309,114790,1,8,0:0:0:0:
6,309,115073,2,0,P|-16:208|11:108,1,210,2|2,0:0|0:0,0:0:0:0:
104,60,115922,1,8,0:0:0:0:
204,88,116205,1,2,0:0:0:0:
304,105,116488,6,0,P|244:183|140:170,1,210,4|8,0:3|0:0,0:0:0:0:
68,96,117337,1,2,0:0:0:0:
51,200,117620,2,0,P|43:251|57:301,1,105,4|2,0:3|0:0,0:0:0:0:
144,364,118186,1,8,0:0:0:0:
240,324,118469,1,8,0:0:0:0:
260,340,118611,1,8,0:0:0:0:
280,356,118752,6,0,L|252:148,1,210,4|8,0:3|0:0,0:0:0:0:
316,64,119601,1,0,0:0:0:0:
408,116,119884,2,0,P|446:151|475:194,1,105,2|0,0:0|0:0,0:0:0:0:
376,304,120450,2,0,P|337:268|308:225,1,105,10|0,0:0|0:0,0:0:0:0:
308,76,121016,1,4,0:0:0:0:
348,312,123280,6,0,P|256:355|164:312,1,210,4|8,0:0|0:0,0:0:0:0:
112,220,124129,1,2,0:0:0:0:
112,220,124271,1,0,0:0:0:0:
112,220,124412,2,0,B|108:178|108:178|104:162|104:162|100:115,1,105,2|2,0:0|0:0,0:0:0:0:
164,32,124978,1,8,0:0:0:0:
256,80,125261,6,0,B|293:118|320:156|320:156|372:120|423:113,1,210,2|4,0:0|0:3,0:0:0:0:
504,180,126110,1,8,0:0:0:0:
484,284,126393,1,2,0:0:0:0:
484,284,126535,1,0,0:0:0:0:
484,284,126676,2,0,P|444:317|393:321,1,105,2|2,0:0|0:0,0:0:0:0:
292,288,127242,1,8,0:0:0:0:
211,219,127525,6,0,P|113:194|30:253,1,210,2|2,0:0|0:0,0:0:0:0:
68,352,128374,1,8,0:0:0:0:
172,364,128657,2,0,B|224:372|224:372|267:342,2,105,2|0|2,0:0|0:0|0:0,0:0:0:0:
68,352,129506,1,8,0:0:0:0:
29,253,129789,6,0,P|112:194|211:219,1,210,2|4,0:0|0:3,0:0:0:0:
300,276,130638,1,8,0:0:0:0:
388,332,130921,1,2,0:0:0:0:
388,332,131062,1,0,0:0:0:0:
388,332,131204,2,0,P|410:284|417:232,1,105,2|2,0:0|0:0,0:0:0:0:
432,128,131770,1,8,0:0:0:0:
348,68,132053,6,0,P|256:25|164:68,1,210,2|2,0:0|0:0,0:0:0:0:
107,156,132902,2,0,P|96:206|109:256,1,105,8|2,0:0|0:0,0:0:0:0:
217,368,133468,2,0,P|229:318|216:268,1,105,4|2,0:3|0:0,0:0:0:0:
109,256,134034,1,8,0:0:0:0:
19,311,134317,6,0,P|-3:210|19:108,1,210,4|2,0:0|0:0,0:0:0:0:
92,32,135166,1,8,0:0:0:0:
180,92,135449,2,0,P|220:124|271:133,2,105,2|4|2,0:0|0:3|0:0,0:0:0:0:
92,32,136298,1,8,0:0:0:0:
91,32,136864,6,0,P|68:132|102:230,1,210,4|8,0:0|0:0,0:0:0:0:
180,304,137713,1,2,0:0:0:0:
196,324,137854,1,0,0:0:0:0:
212,343,137996,2,0,L|200:240,1,105,2|2,0:0|0:0,0:0:0:0:
256,152,138562,1,8,0:0:0:0:
316,63,138845,6,0,P|410:27|498:77,1,210,2|4,0:0|0:3,0:0:0:0:
504,184,139694,1,8,0:0:0:0:
416,244,139977,1,2,0:0:0:0:
416,244,140118,1,0,0:0:0:0:
416,244,140260,2,0,B|364:252|364:252|320:222,1,105,2|2,0:0|0:0,0:0:0:0:
256,140,140826,1,8,0:0:0:0:
176,72,141109,1,2,0:0:0:0:
71,92,141392,6,0,P|44:191|69:292,1,210,4|8,0:3|0:0,0:0:0:0:
152,360,142241,1,2,0:0:0:0:
224,284,142524,2,0,B|232:232|232:232|217:181,1,105,0|2,0:0|0:0,0:0:0:0:
140,108,143090,1,8,0:0:0:0:
42,87,143373,6,0,P|108:11|208:32,1,210,2|4,0:0|0:3,0:0:0:0:
300,80,144222,1,8,0:0:0:0:
256,176,144505,1,2,0:0:0:0:
256,176,144646,1,0,0:0:0:0:
256,176,144788,2,0,P|246:227|256:278,1,105,2|2,0:0|0:0,0:0:0:0:
356,300,145354,1,8,0:0:0:0:
356,300,145636,6,0,P|288:374|190:354,1,210,2|2,0:0|0:0,0:0:0:0:
112,280,146485,1,8,0:0:0:0:
112,280,146768,1,2,0:0:0:0:
52,192,147051,1,4,0:3:0:0:
52,192,147334,1,2,0:0:0:0:
112,104,147617,1,8,0:0:0:0:
112,104,147900,6,0,P|192:42|288:72,1,210,4|2,0:0|0:0,0:0:0:0:
327,168,148749,2,0,P|316:218|326:269,1,105,8|4,0:0|0:3,0:0:0:0:
464,196,149315,2,0,P|475:145|465:94,1,105,4|0,0:3|0:0,0:0:0:0:
348,36,149881,1,8,0:0:0:0:
348,36,150447,6,0,P|256:79|164:36,1,210,4|8,0:0|0:0,0:0:0:0:
112,128,151296,2,0,P|155:157|204:173,1,105,2|4,0:0|0:3,0:0:0:0:
307,173,151862,2,0,P|356:157|400:127,1,105,2|8,0:0|0:0,0:0:0:0:
456,40,152428,1,2,0:0:0:0:
352,32,152711,6,0,B|296:20|256:48|256:48|212:76|150:51,1,210,4|8,0:0|0:0,0:0:0:0:
51,88,153560,2,0,P|43:139|55:190,1,105,2|4,0:0|0:3,0:0:0:0:
144,248,154126,2,0,P|177:208|225:187,1,105,2|8,0:0|0:0,0:0:0:0:
328,208,154692,1,0,0:0:0:0:
420,260,154975,6,0,B|460:292|460:292|512:280,2,105,4|2|8,0:3|0:0|0:0,0:0:0:0:
328,208,155824,1,0,0:0:0:0:
253,133,156107,2,0,P|158:97|74:153,1,210,4|8,0:3|0:0,0:0:0:0:
116,252,156956,1,0,0:0:0:0:
164,343,157239,6,0,P|199:305|215:256,1,105,4|2,0:3|0:0,0:0:0:0:
215,149,157805,2,0,P|186:105|143:76,1,105,8|0,0:0|0:0,0:0:0:0:
40,104,158371,2,0,P|21:152|24:204,1,105,4|2,0:3|0:0,0:0:0:0:
60,304,158937,1,8,0:0:0:0:
160,332,159220,1,0,0:0:0:0:
255,292,159503,6,0,P|351:257|439:308,1,210,4|8,0:3|0:0,0:0:0:0:
508,228,160352,2,0,B|520:176|520:176|504:126,1,105,2|4,0:0|0:3,0:0:0:0:
440,44,160918,1,2,0:0:0:0:
348,96,161201,1,8,0:0:0:0:
348,200,161484,6,0,P|256:243|164:200,1,210,4|2,0:0|0:0,0:0:0:0:
72,252,162333,2,0,P|256:338|440:252,1,420,12|8,0:0|0:0,0:0:0:0:
476,152,163748,1,4,0:3:0:0:
404,76,164031,6,0,B|356:52|356:52|305:59,1,105,4|0,0:0|0:0,0:0:0:0:
206,59,164597,2,0,B|156:52|156:52|108:76,1,105,8|0,0:0|0:0,0:0:0:0:
36,152,165163,1,4,0:3:0:0:
52,256,165446,2,0,P|96:288|148:300,1,105,2|8,0:0|0:0,0:0:0:0:
232,240,166012,1,2,0:0:0:0:
232,240,166295,6,0,P|276:272|328:284,1,105,4|0,0:0|0:0,0:0:0:0:
392,204,166861,2,0,B|380:165|380:165|363:141|363:141|353:106,2,105,8|4|4,0:0|0:3|0:3,0:0:0:0:
444,296,167710,1,2,0:0:0:0:
351,348,167993,2,0,P|306:372|255:362,1,105,8|0,0:0|0:0,0:0:0:0:
168,304,168559,6,0,L|187:94,1,210,4|8,0:0|0:0,0:0:0:0:
256,16,169408,1,0,0:0:0:0:
324,94,169691,2,0,L|344:304,1,210,2|8,0:0|0:0,0:0:0:0:
256,368,170540,1,0,0:0:0:0:
163,316,170823,6,0,P|120:343|68:345,1,105,2|0,0:0|0:0,0:0:0:0:
92,244,171389,2,0,P|135:216|187:214,1,105,8|0,0:0|0:0,0:0:0:0:
292,232,171955,1,2,0:0:0:0:
376,292,172238,1,0,0:0:0:0:
464,236,172521,2,0,P|471:184|460:133,1,105,8|0,0:0|0:0,0:0:0:0:
380,68,173087,6,0,B|326:68|326:68|283:95,2,105,4|2|8,0:0|0:0|0:0,0:0:0:0:
448,148,173936,1,2,0:0:0:0:
448,148,174219,1,4,0:3:0:0:
412,248,174502,1,8,0:0:0:0:
412,248,174785,1,0,0:0:0:0:
348,332,175068,6,0,P|256:375|164:332,1,210,4|4,0:0|0:3,0:0:0:0:
196,232,175917,2,0,B|236:176|236:176|308:148|372:120|372:0|256:-85|140:0|140:120|204:148|276:176|276:176|316:232,1,630,12|2,0:0|0:0,0:0:0:0:
20,144,194028,6,0,P|8:194|17:246,1,105,2|0,0:0|0:0,0:0:0:0:
76,331,194594,2,0,P|115:297|166:286,1,105,2|0,0:0|0:0,0:0:0:0:
260,235,195160,2,0,P|268:183|258:132,1,105,2|2,0:0|0:0,0:0:0:0:
159,104,195726,6,0,P|233:35|331:59,1,210,4|8,0:0|0:0,0:0:0:0:
416,124,196575,1,2,0:0:0:0:
416,124,196717,1,0,0:0:0:0:
416,124,196858,2,0,P|437:173|448:224,1,105,2|2,0:0|0:0,0:0:0:0:
444,328,197424,1,8,0:0:0:0:
356,268,197707,6,0,B|304:244|264:252|256:332|248:252|208:244|156:268,1,210,2|4,0:0|0:3,0:0:0:0:
68,328,198556,1,8,0:0:0:0:
28,232,198839,1,2,0:0:0:0:
28,232,198981,1,0,0:0:0:0:
28,232,199122,2,0,P|15:181|28:130,1,105,2|2,0:0|0:0,0:0:0:0:
108,64,199688,1,8,0:0:0:0:
164,152,199971,6,0,P|256:195|348:152,1,210,2|2,0:0|0:0,0:0:0:0:
440,200,200820,2,0,B|454:247|454:247|448:302,2,105,8|2|0,0:0|0:0|0:0,0:0:0:0:
396,104,201669,1,2,0:0:0:0:
316,32,201952,1,8,0:0:0:0:
244,108,202235,6,0,P|183:190|82:198,1,210,2|4,0:0|0:3,0:0:0:0:
0,132,203084,1,8,0:0:0:0:
72,56,203367,1,2,0:0:0:0:
72,56,203508,1,0,0:0:0:0:
72,56,203650,2,0,B|116:28|116:28|168:28,1,105,2|2,0:0|0:0,0:0:0:0:
244,108,204216,1,8,0:0:0:0:
311,187,204499,6,0,P|404:228|489:173,1,210,2|2,0:0|0:0,0:0:0:0:
440,80,205348,2,0,P|389:67|340:84,1,105,8|2,0:0|0:0,0:0:0:0:
212,192,205914,2,0,P|262:204|312:188,1,105,4|2,0:3|0:0,0:0:0:0:
340,84,206480,1,8,0:0:0:0:
215,43,206763,6,0,P|121:7|35:60,1,210,4|2,0:0|0:0,0:0:0:0:
52,164,207612,1,8,0:0:0:0:
52,164,207895,1,2,0:0:0:0:
160,228,208178,1,4,0:3:0:0:
160,228,208461,1,2,0:0:0:0:
220,120,208744,1,8,0:0:0:0:
220,119,209310,6,0,P|305:63|404:88,1,210,4|8,0:0|0:0,0:0:0:0:
480,160,210159,1,2,0:0:0:0:
480,160,210300,1,0,0:0:0:0:
480,160,210442,2,0,P|496:216|488:264,1,105,2|2,0:0|0:0,0:0:0:0:
424,348,211008,1,8,0:0:0:0:
336,292,211291,6,0,P|238:263|155:321,1,210,2|4,0:0|0:3,0:0:0:0:
68,380,212140,1,8,0:0:0:0:
12,292,212423,1,2,0:0:0:0:
12,292,212564,1,0,0:0:0:0:
12,292,212706,2,0,L|24:188,1,105,2|2,0:0|0:0,0:0:0:0:
128,164,213272,2,0,L|140:60,1,105,8|2,0:0|0:0,0:0:0:0:
244,56,213838,6,0,L|216:269,1,210,4|8,0:3|0:0,0:0:0:0:
311,308,214687,2,0,P|350:272|396:247,2,105,2|0|2,0:0|0:0|0:0,0:0:0:0:
228,372,215536,1,8,0:0:0:0:
176,280,215819,6,0,L|203:71,1,210,2|4,0:0|0:3,0:0:0:0:
292,16,216668,1,8,0:0:0:0:
388,60,216951,1,2,0:0:0:0:
412,52,217092,1,0,0:0:0:0:
436,44,217234,2,0,B|428:88|428:88|428:106|428:106|420:147,1,105,2|2,0:0|0:0,0:0:0:0:
440,252,217800,1,8,0:0:0:0:
500,335,218082,6,0,P|401:347|338:269,1,210,2|2,0:0|0:0,0:0:0:0:
348,164,218931,2,0,P|327:115|297:73,1,105,8|2,0:0|0:0,0:0:0:0:
204,124,219497,2,0,P|224:172|254:214,2,105,4|2|8,0:3|0:0|0:0,0:0:0:0:
100,128,220346,6,0,P|132:226|203:303,1,210,4|2,0:0|0:0,0:0:0:0:
288,368,221195,2,0,P|324:330|370:306,1,105,8|2,0:0|0:0,0:0:0:0:
428,152,221761,2,0,P|391:189|345:213,1,105,4|2,0:3|0:0,0:0:0:0:
204,124,222327,1,8,0:0:0:0:
204,124,222893,6,0,P|124:64|28:96,1,210,4|8,0:0|0:0,0:0:0:0:
16,200,223742,2,0,B|48:244|48:244|98:244,1,105,2|4,0:0|0:3,0:0:0:0:
200,212,224308,1,2,0:0:0:0:
292,160,224591,1,8,0:0:0:0:
344,68,224874,1,2,0:0:0:0:
448,52,225157,6,0,P|483:149|460:252,1,210,4|8,0:0|0:0,0:0:0:0:
384,324,226006,2,0,P|351:283|307:253,1,105,2|4,0:0|0:3,0:0:0:0:
204,253,226572,2,0,P|160:283|128:324,2,105,2|8|0,0:0|0:0|0:0,0:0:0:0:
256,164,227421,6,0,P|200:76|111:22,1,210,4|8,0:0|0:0,0:0:0:0:
16,64,228270,1,0,0:0:0:0:
44,164,228553,1,2,0:0:0:0:
52,188,228695,1,0,0:0:0:0:
64,212,228836,2,0,P|114:224|162:205,1,105,2|8,0:0|0:0,0:0:0:0:
255,164,229402,6,0,P|311:76|400:22,1,210,2|2,0:0|0:0,0:0:0:0:
496,64,230251,2,0,B|491:102|491:102|484:120|484:120|480:168,1,105,8|0,0:0|0:0,0:0:0:0:
468,272,230817,1,2,0:0:0:0:
460,296,230959,1,0,0:0:0:0:
447,320,231100,2,0,P|396:332|348:313,1,105,2|8,0:0|0:0,0:0:0:0:
268,248,231666,1,2,0:0:0:0:
192,176,231949,6,0,B|144:204|144:204|96:192,1,105,4|2,0:0|0:0,0:0:0:0:
28,112,232515,1,8,0:0:0:0:
28,112,232798,2,0,P|43:62|67:15,2,105,2|4|2,0:0|0:3|0:0,0:0:0:0:
64,212,233647,1,8,0:0:0:0:
164,244,233930,6,0,P|256:287|348:244,1,210,4|2,0:0|0:0,0:0:0:0:
440,292,234779,2,0,P|256:378|72:292,1,420,12|8,0:0|0:0,0:0:0:0:
72,188,236194,1,4,0:3:0:0:
164,140,236477,6,0,P|256:97|348:140,1,210,4|8,0:0|0:0,0:0:0:0:
395,236,237326,2,0,P|387:287|403:336,1,105,2|4,0:0|0:3,0:0:0:0:
492,280,237892,2,0,P|500:228|484:179,1,105,2|8,0:0|0:0,0:0:0:0:
416,100,238458,1,2,0:0:0:0:
324,52,238741,6,0,B|280:88|256:131|256:131|232:88|188:52,1,210,4|8,0:0|0:0,0:0:0:0:
96,100,239590,2,0,P|122:145|139:194,1,105,2|4,0:0|0:3,0:0:0:0:
200,280,240156,2,0,P|228:236|265:199,1,105,2|8,0:0|0:0,0:0:0:0:
368,172,240722,1,2,0:0:0:0:
468,143,241005,6,0,P|475:92|464:41,2,105,4|2|8,0:0|0:0|0:0,0:0:0:0:
368,172,241854,2,0,P|360:223|371:274,1,105,2|4,0:0|0:3,0:0:0:0:
396,376,242420,1,2,0:0:0:0:
300,328,242703,2,0,P|265:288|223:257,1,105,8|2,0:0|0:0,0:0:0:0:
132,204,243269,6,0,P|96:242|49:265,2,105,4|2|8,0:3|0:0|0:0,0:0:0:0:
208,124,244118,1,2,0:0:0:0:
296,68,244401,2,0,B|336:60|356:36|392:27,1,105,4|2,0:3|0:0,0:0:0:0:
496,52,244967,2,0,P|503:103|499:156,1,105,8|2,0:0|0:0,0:0:0:0:
455,252,245533,6,0,P|377:316|279:291,1,210,4|8,0:0|0:0,0:0:0:0:
200,220,246382,2,0,P|158:251|107:258,2,105,2|4|4,0:0|0:3|0:3,0:0:0:0:
256,132,247231,1,8,0:0:0:0:
324,48,247514,2,0,P|422:23|500:87,1,210,4|8,0:0|0:0,0:0:0:0:
488,192,248363,5,12,0:0:0:0:
256,192,248504,12,0,251759,0:0:0:0:
