osu file format v7

[General]
AudioFilename: Caramelldansen (Speedcake Remix).mp3
AudioLeadIn: 0
PreviewTime: 51270
Countdown: 1
SampleSet: Normal
StackLeniency: 0.3
Mode: 0
LetterboxInBreaks: 1

[Editor]
Bookmarks: 27961,33424,39615,51270,62925,74580,86234,97889,109544,115371,121198,127026,135767,141594,147422,153249,159076,164904,170731
DistanceSpacing: 0.800000011920929
BeatDivisor: 2
GridSize: 8

[Metadata]
Title:Caramelldansen (Speedycake Remix)
Artist:Caramell
Creator:ztrot
Version:Collab Easy
Source:
Tags:Gladi Azure_Kyte MarioBros777 JarJarJacob

[Difficulty]
HPDrainRate:1
CircleSize:3
OverallDifficulty:3
SliderMultiplier:1.4
SliderTickRate:2

[Events]
//Background and Video events
0,0,"BG.png"
Video,0,"BG.avi"
//Break Periods
2,62809,73188
2,109428,113980
//Storyboard Layer 0 (Background)
//Storyboard Layer 1 (Fail)
//Storyboard Layer 2 (Pass)
//Storyboard Layer 3 (Foreground)
Sprite,Foreground,Centre,"MarioBros777.png",320,240 M,0,27596,27961,200,450,200,380 F,0,27596,27961,0,1 M,0,33060,33424,200,380,200,450 F,0,33060,33424,1,0 M,0,39251,39615,200,450,200,380 F,0,39251,39615,0,1 M,0,50906,51270,200,380,200,450 F,0,50906,51270,1,0 M,0,74215,74580,200,450,200,380 F,0,74215,74580,0,1 M,0,85870,86234,200,380,200,450 F,0,85870,86234,1,0 M,0,97525,97889,200,450,200,380 F,0,97525,97889,0,1 M,0,109180,109544,200,380,200,450 F,0,109180,109544,1,0 M,0,120834,121198,200,450,200,380 F,0,120834,121198,0,1 M,0,126662,127026,200,380,200,450 F,0,126662,127026,1,0 M,0,135403,135767,200,450,200,380 F,0,135403,135767,0,1 M,0,141230,141594,200,380,200,450 F,0,141230,141594,1,0 M,0,147057,147422,200,450,200,380 F,0,147057,147422,0,1 M,0,152885,153249,200,380,200,450 F,0,152885,153249,1,0 M,0,158712,159076,200,450,200,380 F,0,158712,159076,0,1 M,0,164539,164904,200,380,200,450 F,0,164539,164904,1,0
Sprite,Foreground,Centre,"JarJarJacob.png",320,240 M,0,33424,33788,200,450,200,380 F,0,33424,33788,0,1 M,0,39251,39615,200,380,200,450 F,0,39251,39615,1,0 M,0,50906,51270,200,450,200,380 F,0,50906,51270,0,1 M,0,62561,62925,200,380,200,450 F,0,62561,62925,1,0 M,0,85870,86234,200,450,200,380 F,0,85870,86234,0,1 M,0,97525,97889,200,380,200,450 F,0,97525,97889,1,0 M,0,115007,115371,200,450,200,380 F,0,115007,115371,0,1 M,0,120834,121198,200,380,200,450 F,0,120834,121198,1,0 M,0,126662,127026,200,450,200,380 F,0,126662,127026,0,1 M,0,135403,135767,200,380,200,450 F,0,135403,135767,1,0 M,0,141230,141594,200,450,200,380 F,0,141230,141594,0,1 M,0,147057,147422,200,380,200,450 F,0,147057,147422,1,0 M,0,152885,153249,200,450,200,380 F,0,152885,153249,0,1 M,0,158712,159076,200,380,200,450 F,0,158712,159076,1,0 M,0,164539,164904,200,450,200,380 F,0,164539,164904,0,1 M,0,170367,170731,200,380,200,450 F,0,170367,170731,1,0
//Storyboard Sound Samples
//Background Colour Transformations
3,100,163,162,255

[TimingPoints]
330,364.210270729635,4,1,1,80,1,0
51319,-100,4,1,1,80,0,1
62974,-100,4,1,1,80,0,0
97938,-100,4,1,1,80,0,1
109593,-100,4,1,1,80,0,0
121012,-100,4,2,1,80,0,0
126662,-100,4,1,1,80,0,0
127208,-100,4,2,1,80,0,0
135581,-100,4,1,1,80,0,0
147470,-100,4,1,1,80,0,1
170780,-100,4,1,0,0,0,0

[Colours]
Combo1 : 124,0,249
Combo2 : 32,213,36
Combo3 : 244,0,122
Combo4 : 0,107,215

[HitObjects]
129,322,28009,2,0,B|189:390|337:390|392:310,1,280,4|8
296,272,29102,1,0
383,228,29466,2,2,B|323:160|175:160|120:240,1,280,6|2
256,16,30923,5,4
208,104,31287,1,0
304,104,31652,1,8
138,193,32380,2,0,B|191:280|337:281|386:173,1,280,4|0
184,108,33837,5,4
328,108,34383,1,2
480,256,35840,6,2,B|400:336|272:320,1,210,2|8
192,320,36751,1,4
48,304,37297,1,2
96,112,38207,6,0,B|256:-24|416:112,1,350,0|2
360,224,39664,5,4
152,224,40393,1,2
256,344,41121,2,0,B|256:112,2,210
352,344,42578,6,0,B|552:352|512:144,1,280
416,176,43671,1,0
466,92,44035,2,0,B|34:92,1,420
16,184,45492,5,0
160,184,46038,1,0
88,283,47313,2,0,B|134:419|393:424|431:266,1,420
186,28,49862,6,0,B|331:28,3,140
413,122,51319,6,0,B|413:266,2,140,4|8|2
304,176,52594,5,2
208,176,52958,1,0
208,176,53140,1,8
240,80,53504,2,2,B|176:32|96:64,1,140,2|8
64,128,54233,6,0,B|64:272,2,140,4|8|2
208,176,55507,5,2
304,176,55872,1,0
304,176,56054,1,10
336,80,56418,2,2,B|416:64|480:96,1,140,2|8
400,160,57146,6,0,B|96:160,1,280,4|2
304,224,58603,5,2
304,320,58967,1,8
208,320,59332,1,2
208,224,59696,1,8
176,144,60060,6,0,B|176:16|336:8|336:160,1,280,4|8
432,304,61517,5,4
320,256,61881,1,4
192,256,62245,1,4
80,304,62609,1,4
16,160,74628,6,2,B|96:44|264:36,1,280
256,136,75721,1,8
256,232,76085,2,0,B|368:232|472:296,1,210,4|0
456,40,77542,5,4
256,40,78270,1,4
426,137,78999,2,0,B|362:185|290:133,2,140,8|0|8
256,232,80456,5,2
256,328,80820,1,0
256,328,81002,1,4
40,192,82095,5,4
90,108,82459,2,2,B|162:46|378:43|447:131,1,350,6|2
472,192,83734,1,0
472,192,83916,1,4
320,248,85008,6,0,B|320:336,2,70,0|8|0
240,248,85555,1,0
400,248,85919,1,8
400,128,86283,6,0,B|208:64,1,140,4|8
288,176,87012,2,2,B|144:128,1,140,2|8
64,104,87740,1,2
64,104,88286,1,2
112,256,89197,6,0,B|304:320,1,140,4|8
224,208,89925,2,2,B|368:256,1,140,2|8
448,280,90654,1,2
448,280,91200,1,2
336,64,92110,5,4
192,64,92657,1,2
112,192,93932,5,8
112,192,94114,1,2
208,304,94660,2,0,B|256:400|304:304,1,140,8|4
288,128,96481,5,8
176,176,96845,1,4
240,272,97209,1,4
352,240,97574,1,4
384,144,97938,6,6,B|413:46|280:-38|204:46|182:103,2,280
352,240,99759,1,8
256,272,100123,1,0
160,240,100487,1,8
128,144,100852,6,6,B|99:46|232:-38|308:46|330:103,2,280
224,120,102673,2,0,B|312:264,1,140,8|0
352,320,103401,1,8
458,330,103765,6,0,B|505:173|439:-8,1,280,4|0
368,168,105040,1,2
304,32,105586,1,0
208,32,105950,1,2
256,120,106315,1,2
326,206,106679,6,0,B|142:206,3,140
256,296,108136,5,0
352,208,108500,1,0
256,120,108864,1,0
160,208,109228,1,0
160,48,115420,6,2,B|144:112|192:144,3,105
188,141,116513,1,8
288,144,116877,6,2,B|304:208|256:240,3,105
259,237,117969,1,8
160,240,118334,6,2,B|144:304|192:336,3,105
188,333,119426,1,8
256,256,119790,6,0,B|176:192|352:80|240:-16,2,280,4|0|4
256,352,121612,1,8
352,352,121976,2,0,B|456:352|448:224,1,140,0|8
448,72,123068,1,8
256,64,123797,1,8
160,64,124161,5,0
192,160,124525,1,8
256,344,125254,1,8
312,160,125982,1,8
344,64,126346,2,0,B|408:8|480:72,2,140,0|12|4
256,96,127439,6,0,B|192:152|120:88,1,140,8|0
128,192,128167,1,8
256,352,128896,1,8
368,192,129624,1,8
320,112,129988,6,0,B|256:56|192:112,2,140,0|8|0
360,256,131263,2,0,B|120:256,1,210,0|8
160,160,132174,1,0
256,160,132538,1,8
352,160,132902,1,4
448,96,134359,5,4
320,96,134723,1,4
192,96,135087,1,4
64,96,135452,1,4
88,208,135816,6,0,B|232:208,1,140,6|2
336,208,136544,2,0,B|399:156|488:240|424:336|336:304,2,210,4|4|2
256,360,138183,1,2
256,360,138365,1,2
256,248,138729,6,0,B|256:80,1,140,0|8
184,192,139458,2,0,B|40:205|68:366,2,210,4|0|0
448,144,141643,5,2
352,176,142007,1,8
368,80,142372,2,0,B|256:16|176:128,1,210,0|2
352,256,143464,1,8
160,256,144193,1,8
80,192,144557,5,2
176,160,144921,1,8
160,256,145285,2,0,B|240:256|304:208,1,140,0|8
384,176,146014,5,4
256,144,146378,1,4
128,112,146742,2,4,B|128:208,4,70
188,15,147835,6,0,B|263:-16|348:25,1,140,8|0
256,168,148745,1,2
176,360,149292,1,8
64,360,149656,1,0
120,264,150020,1,8
48,187,150384,6,2,B|265:138|498:195,1,420
464,277,151841,2,4,B|247:326|14:269,1,420,4|0
112,192,153298,6,0,B|112:112|208:112,1,140,2|8
304,112,154026,2,0,B|400:112|400:192,1,140,2|8
400,288,154755,6,0,B|80:288,1,280,0|2
120,288,155847,1,8
176,208,156211,5,2
256,160,156576,1,8
336,208,156940,1,2
432,24,157668,5,4
320,80,158033,1,4
192,80,158397,1,4
80,24,158761,1,12
120,136,159125,5,0
120,248,159489,1,8
80,360,159854,2,0,B|160:288|336:312,1,210,2|0
448,312,160946,1,2
336,208,161310,2,2,B|380:130|316:39,1,140
256,8,162039,6,2,B|256:296,1,280
332,209,163314,2,0,B|388:270|401:403|209:487|79:324|184:206,1,490,2|8
144,134,164953,6,0,B|256:38,1,140,2|8
250,42,165681,2,0,B|367:133,1,140,2|8
368,230,166409,6,0,B|262:331,1,140,2|8
267,327,167138,2,0,B|150:235,1,140,2|8
256,192,167866,12,4,170780
