osu file format v5

[General]
AudioFilename: Caramell Dansen SpeedyCake ReMix.mp3
AudioLeadIn: 0
PreviewTime: -1
Countdown: 1
SampleSet: Normal
EditorBookmarks: 13668,27369,39426,49565,72856,94322,110946,120719,142276,156433

[Metadata]
Title:Caramelldansen (Speedycake Remix)
Artist:Caramell
Creator:MaxwellDemon
Version:Easy

[Difficulty]
HPDrainRate:1
CircleSize:4
OverallDifficulty:3
SliderMultiplier:1.4
SliderTickRate:2

[Events]
//Background and Video events
1,0,"CaramellDansen Remix.flv"
//Break Periods
2,109950,120517
//Storyboard Layer 0 (Background)
//Storyboard Layer 1 (Failing)
//Storyboard Layer 2 (Passing)
//Storyboard Layer 3 (Foreground)
//Storyboard Sound Samples
//Background Colour Transformations
3,100,255,132,193

[TimingPoints]
16591,365.363536719035,4,1,0,100

[HitObjects]
104,128,28282,5,0
272,128,29013,1,0
360,128,29378,1,0
392,256,29926,1,0
304,256,30292,1,6
216,256,30657,6,0,B|144:256,3,70
72,216,31570,5,0
176,80,32301,1,0
280,160,32849,1,0
368,160,33215,1,6
432,216,33580,6,0,B|432:304,2,70
336,304,34493,5,0
96,200,36137,5,0
160,144,36503,1,0
288,144,37051,1,0
352,200,37416,1,0
360,304,39974,5,0
288,240,40339,1,0
248,160,40704,1,0
304,96,41070,1,0
376,56,41435,1,0
248,56,41983,1,6
96,208,42897,5,0
160,264,43262,1,0
248,256,43627,1,0
304,192,43993,1,0
288,104,44358,1,0
416,104,44906,1,6
256,240,45820,5,4
184,184,46185,1,4
136,112,47646,5,0
264,136,48194,1,0
384,176,48742,1,0
56,184,50387,6,0,B|72:160|96:40|264:-16|432:92|448:160|464:216,1,490
392,240,52031,1,0
312,272,52396,1,0
192,224,52944,5,0
128,280,53310,2,0,B|80:240|64:128|144:64|280:48,1,350
360,48,54588,1,0
360,136,54954,2,0,B|360:296,1,140
280,312,55684,2,0,B|307:221|320:97|328:24|264:8|144:16|64:56|80:240,1,560
112,264,57511,5,0
64,336,57877,2,0,B|256:336,1,140
280,232,58790,5,0
336,168,59155,1,0
400,56,59703,1,0
312,56,60069,1,0
224,56,60435,1,0
200,136,60799,2,0,B|32:136,1,140
48,224,61530,1,0
48,224,61713,1,0
120,264,62078,2,0,B|160:320|320:360|352:240|328:120,1,350
248,176,63357,5,0
160,152,63722,1,0
224,96,64088,2,0,B|258:43|384:31|416:128,1,210
168,304,66280,5,0
240,256,66645,1,0
176,192,67011,2,0,B|280:152|400:160,1,210
384,240,67924,2,0,B|384:328,1,70
160,176,69203,5,0
176,88,69568,1,0
256,120,69934,2,0,B|320:152|392:216|232:288,1,210
208,272,72126,5,0
160,200,72491,1,0
208,128,72856,2,0,B|304:96|416:168,1,210
424,248,73770,2,0,B|424:328,1,70
176,184,74866,6,0,B|256:184,5,70
320,224,76145,1,0
320,136,76510,1,0
408,224,77058,1,6
240,120,77972,5,0
168,72,78337,1,0
96,120,78702,1,0
96,208,79068,1,0
168,256,79433,1,0
240,208,79798,1,6
328,208,80164,6,0,B|328:128,3,70
328,144,80894,1,0
392,80,81260,1,0
64,184,82904,5,4
128,128,83269,1,0
208,112,83635,1,0
336,104,84183,1,6
400,128,85462,6,0,B|352:72|224:32|136:72|96:152,1,350
136,224,86740,5,0
192,288,87106,1,0
272,312,87471,1,0
360,304,87836,1,0
432,256,88202,1,0
344,160,88750,1,6
176,104,89481,5,0
216,176,89846,1,0
264,104,90211,1,0
328,216,90759,1,0
416,216,91125,2,0,B|432:264|424:336|360:352|280:352|224:344,1,280
96,240,92586,5,0
144,168,92951,1,0
80,256,94413,2,0,B|184:352|336:392|440:344|432:224,1,420
168,176,97336,5,0
256,184,97701,1,0
344,192,98067,1,0
432,200,98432,5,0
384,128,98797,1,0
344,48,99163,1,0
224,96,99711,5,0
144,136,100076,2,0,B|72:200|112:288|160:352,1,210
56,328,100989,1,0
40,240,101355,5,0
64,160,101720,1,0
136,112,102086,1,0
216,88,102451,2,0,B|296:88,1,70
368,112,102999,2,0,B|440:168|416:256|320:280,1,210
248,288,103912,1,0
160,264,104278,5,0
160,176,104643,2,0,B|96:176|48:272,1,140
160,336,105557,5,0
232,296,105922,2,0,B|304:288|344:176|312:112,1,210
392,88,106835,1,0
312,56,107201,1,0
224,72,107566,2,0,B|144:112|136:200,1,140
248,240,108479,1,0
336,224,108845,2,0,B|336:296|232:360|64:352|56:224,1,350
104,168,121815,5,0
192,168,122181,1,0
280,168,122546,1,0
280,40,123094,5,0
360,64,123459,2,0,B|400:168|392:256|344:312|248:312|168:304,1,350
136,288,124738,1,0
80,224,125103,1,0
104,136,125469,1,0
176,88,125834,5,0
264,96,126200,1,0
216,168,126565,1,0
280,224,126930,1,0
352,264,127296,1,0
424,216,127661,5,0
352,160,128026,1,0
376,80,128392,1,0
272,160,128940,5,0
272,248,129305,2,0,B|192:304|48:312|-32:224|144:128,1,350
184,120,130584,5,0
264,136,130949,1,0
336,96,131315,1,0
456,144,131863,5,0
416,216,132228,1,0
328,312,132776,1,0
256,264,133141,1,0
256,192,133507,12,0,135882
88,104,136430,1,0
176,96,136795,1,0
256,112,137160,2,0,B|352:136|384:280,1,210
168,200,139353,5,0
104,136,139718,1,0
176,96,140083,2,0,B|264:112|272:272,1,210
184,264,140997,2,0,B|128:264,1,70
336,112,142276,5,0
408,160,142641,1,0
384,240,143006,2,0,B|352:312|216:272|216:200,1,210
144,232,145198,5,0
232,232,145564,1,0
304,184,145929,2,0,B|248:136|152:128|48:144,1,210
160,72,146843,1,0
288,72,147391,5,0
368,104,147756,1,0
408,176,148121,1,0
360,248,148487,2,0,B|272:248,2,70
296,136,149400,5,0
336,56,149766,2,0,B|416:64|464:160|456:264|456:336|376:360,1,350
328,304,151044,5,0
248,272,151410,1,0
192,208,151775,1,0
240,136,152140,1,0
176,72,152506,2,0,B|104:72|24:176|48:288|104:360|184:352|256:344,1,420
288,296,153967,5,0
344,232,154333,1,0
336,144,154698,1,0
128,64,155246,5,0
216,48,155611,2,0,B|320:48|392:144|408:264|296:304,1,350
240,328,156890,1,0
192,256,157255,2,0,B|104:120,1,140
192,96,157986,6,0,B|208:64|352:16|448:152,1,280
440,224,159082,2,0,B|280:224,1,140
216,224,159813,5,0
144,272,160178,2,0,B|88:176|144:80|272:40|288:80,1,280
256,64,161092,1,0
336,88,161457,2,0,B|424:96|440:200|376:296|296:312|208:304,1,350
200,232,162736,5,0
112,232,163101,2,0,B|24:232,2,70
176,176,163832,1,0
240,112,164197,1,0
296,176,164563,2,0,B|376:176,2,70
360,112,165293,1,0
432,72,165659,5,0
464,152,166024,2,0,B|464:232,2,70
432,280,166938,5,0
344,272,167303,2,0,B|224:248|160:136|256:48|360:32,1,350
416,56,168582,1,0
424,144,168947,2,0,B|424:224,2,70
336,240,169861,5,0
256,208,170226,1,0
256,208,170409,1,0
176,176,170774,1,0
112,120,171139,1,0
