osu file format v5

[General]
AudioFilename: 03 Caramelldansen (Ryu Remix).ogg
AudioLeadIn: 0
PreviewTime: 26779
Countdown: 3
SampleSet: Normal
StackLeniency: 0.7
Mode: 0
LetterboxInBreaks: 0
EditorBookmarks: 28121,136519

[Metadata]
Title:Caramelldansen (Ryu* Remix)
Artist:Caramell
Creator:silasw
Version:Normal
Source:
Tags:

[Difficulty]
HPDrainRate:3
CircleSize:2
OverallDifficulty:3
SliderMultiplier:0.999999999999999
SliderTickRate:1

[Events]
//Background and Video events
0,0,"Uu Uu Uma Uma.jpg"
//Break Periods
2,22685,26681
2,81178,91637
//Storyboard Layer 0 (Background)
//Storyboard Layer 1 (Failing)
//Storyboard Layer 2 (Passing)
//Storyboard Layer 3 (Foreground)
//Storyboard Sound Samples
//Background Colour Transformations
3,100,163,162,255

[TimingPoints]
1586,331.491712707182,4,1,0,100

[HitObjects]
280,192,14845,1,0
360,192,15177,1,0
440,192,15508,2,0,C|264:56|80:88,1,400
176,224,17497,5,0
320,288,18160,1,0
400,152,18823,1,0
256,80,19486,1,0
112,144,20149,1,0
248,224,20812,1,0
376,128,21475,6,0,C|376:232,1,99.9999999999999
296,224,22138,2,0,C|296:104,1,99.9999999999999
160,80,28105,6,0,C|272:80,1,99.9999999999999
336,80,28768,2,0,C|266:328|152:248,1,400
240,112,30757,6,0,C|128:112,1,99.9999999999999
56,112,31420,2,0,C|161:338|280:240,1,400
112,296,33409,5,0
192,296,33740,1,0
272,296,34072,2,0,C|84:186|280:161,1,400
344,296,36061,5,2
264,296,36392,1,2
184,296,36724,2,2,C|240:144,1,150
256,56,38713,6,0,C|104:200|144:288,1,300
208,312,40039,6,0,C|301:134,1,200
456,184,41365,2,2,C|400:336,1,150
416,120,42690,6,0,C|304:120,2,99.9999999999999
400,280,44016,2,2,C|248:216,1,150
152,48,45342,6,0,B|96:120|128:208,1,150
424,80,47166,5,0
304,80,47663,1,0
224,80,47994,1,0
104,80,48492,1,0
88,320,50646,5,0
88,240,50978,1,0
168,240,51309,1,0
328,240,51972,2,2,B|400:160|344:96,1,150
152,64,53298,5,0
232,64,53630,1,0
232,144,53961,1,0
392,144,54624,2,2,B|456:200|424:288,1,150
224,296,55950,5,0
136,208,56447,1,0
424,80,57773,5,0
312,120,58271,1,0
344,192,58602,1,0
88,192,60260,6,0,B|200:192,2,99.9999999999999
88,112,61254,5,0
168,112,61585,1,0
248,112,61917,1,0
328,112,62248,1,0
328,192,62580,5,0
328,272,62911,1,0
248,272,63243,1,0
168,272,63574,1,0
168,192,63906,5,0
168,112,64237,1,0
248,112,64569,1,0
328,112,64900,6,2,B|392:112,1,50
368,192,65398,1,2
448,192,65729,1,2
448,272,66061,2,2,B|448:344,3,50
368,320,66889,5,0
288,320,67221,1,0
208,320,67552,1,0
128,320,67884,1,0
128,240,68215,5,0
128,160,68547,1,0
128,80,68878,1,0
48,80,69210,1,0
48,160,69541,6,0,B|48:272,1,99.9999999999999
168,288,70370,2,0,B|312:288|296:224,1,150
296,160,71199,1,0
296,80,71530,1,0
216,80,71862,2,0,B|-29:178|160:344,1,350
392,64,74514,6,0,B|120:72|360:280,1,350
64,56,77166,6,0,B|64:280|312:144,1,350
432,320,79818,6,2,B|432:208,2,99.9999999999999
312,320,80978,1,2
104,80,93077,5,0
184,80,93409,1,0
264,80,93740,2,0,B|264:192,1,99.9999999999999
344,184,94403,2,0,B|344:84,1,99.9999999999999
424,80,95066,1,0
424,240,95729,5,0
344,240,96061,1,0
264,240,96392,2,0,B|264:352,1,99.9999999999999
184,336,97055,2,0,B|184:236,1,99.9999999999999
104,240,97718,1,0
104,80,98381,5,0
184,80,98713,1,0
264,80,99044,2,0,B|264:184,1,99.9999999999999
264,256,99707,2,2,B|336:256,1,50
392,256,100204,2,2,B|448:256,3,50
256,192,101033,12,0,102193
376,144,103685,2,0,B|422:203|400:240,1,99.9999999999999
320,240,104348,2,0,B|264:288|288:336,1,99.9999999999999
200,328,105011,5,0
200,208,105508,1,0
400,208,106337,1,0
400,88,106834,1,0
320,88,107166,1,0
200,88,107663,5,0
200,208,108160,1,0
120,208,108492,1,0
240,312,109155,1,6
320,312,109486,1,6
400,312,109818,1,6
400,192,110315,5,0
280,192,110812,1,0
280,112,111144,1,0
200,112,111475,1,0
200,192,111806,1,0
120,192,112138,5,0
120,112,112469,1,0
40,112,112801,1,0
40,192,113132,5,0
40,272,113464,1,0
120,272,113795,1,0
200,272,114127,1,4
280,272,114458,6,0,B|218:36|163:245|336:136,1,250
344,64,115619,6,0,B|196:19|40:80,1,300
96,136,116945,1,2
136,248,117442,1,2
328,312,118271,6,0,B|400:208|432:104|264:80,1,300
208,104,119597,1,2
176,216,120094,1,2
256,192,120923,12,0,123574
256,56,125232,6,0,B|256:176,2,99.9999999999999
336,56,126226,6,0,B|456:56,3,99.9999999999999
440,136,127552,2,0,B|320:136,3,99.9999999999999
344,216,128878,2,0,B|448:216,3,99.9999999999999
448,256,130039,5,0
392,312,130370,1,0
312,312,130702,1,0
232,312,131033,2,0,B|232:144,1,150
232,80,131862,6,0,B|112:80,2,99.9999999999999
312,80,132856,2,0,B|424:80,3,99.9999999999999
416,160,134182,5,0
360,216,134514,1,0
304,160,134845,1,0
184,160,135342,5,0
184,280,135840,1,4
264,280,136171,1,4
344,280,136503,1,4
