osu file format v5

[General]
AudioFilename: 03 Caramelldansen (Ryu Remix).ogg
AudioLeadIn: 0
PreviewTime: 26779
Countdown: 3
SampleSet: Normal
StackLeniency: 0.7
Mode: 0
LetterboxInBreaks: 0
EditorBookmarks: 28121,136519

[Metadata]
Title:Caramelldansen (Ryu* Remix)
Artist:Caramell
Creator:silasw
Version:Hard
Source:
Tags:

[Difficulty]
HPDrainRate:4
CircleSize:3
OverallDifficulty:4
SliderMultiplier:1.3
SliderTickRate:1

[Events]
//Background and Video events
0,0,"Uu Uu Uma Uma.jpg"
//Break Periods
2,22685,26681
2,71730,81149
//Storyboard Layer 0 (Background)
//Storyboard Layer 1 (Failing)
//Storyboard Layer 2 (Passing)
//Storyboard Layer 3 (Foreground)
//Storyboard Sound Samples
//Background Colour Transformations
3,100,163,162,255

[TimingPoints]
1586,331.491712707182,4,1,0,100

[HitObjects]
192,192,14845,1,0
296,192,15177,1,0
400,192,15508,2,0,C|304:80,1,130
208,96,16171,2,0,B|120:208,1,130
64,280,16834,1,0
248,192,17497,5,0
248,192,17663,1,0
320,264,17994,1,0
400,200,18326,1,0
400,96,18657,1,0
400,96,18823,1,0
400,96,18989,1,0
296,96,19320,5,0
192,96,19652,2,0,B|104:96,2,65
192,96,20149,2,0,B|192:184,1,65
192,264,20646,1,0
296,264,20978,6,0,B|376:264,2,65
296,264,21475,2,0,B|296:120,1,130
400,136,22138,2,0,B|400:296,1,130
112,80,28105,6,0,C|248:80,1,130
344,80,28768,1,0
344,128,28934,1,0
392,128,29099,1,0
392,176,29265,1,0
392,224,29431,5,0
344,224,29597,1,0
344,272,29762,1,0
288,272,29928,1,0
288,320,30094,1,0
264,112,30757,6,0,C|120:112,1,130
136,216,31420,1,0
184,216,31586,1,0
184,168,31751,1,0
232,168,31917,1,0
280,168,32083,5,0
280,216,32249,1,0
328,216,32414,1,0
328,272,32580,1,0
376,272,32746,1,0
112,296,33409,5,0
192,296,33740,1,0
296,296,34072,1,0
296,248,34238,1,0
248,248,34403,1,0
248,200,34569,1,0
248,152,34735,5,0
296,152,34901,1,0
296,104,35066,1,0
352,104,35232,1,0
352,56,35398,1,0
368,264,36061,5,2
264,264,36392,1,2
160,264,36724,2,2,C|232:64,1,195
248,56,38713,6,0,C|168:176,1,130
272,208,39376,2,0,B|352:88,1,130
440,136,40039,6,0,C|310:175|347:314,1,260
152,184,41365,2,0,C|136:256,1,65
232,288,41862,1,0
408,96,42690,5,0
304,96,43022,1,0
304,96,43188,1,0
304,96,43353,1,0
304,200,43685,1,0
304,304,44016,2,0,C|96:224,1,195
344,96,45342,6,2,B|272:40|144:96,1,195
424,80,47166,5,0
336,136,47497,1,0
336,136,47663,1,0
336,136,47829,1,0
336,136,47994,1,0
232,136,48326,1,0
232,136,48492,1,0
88,320,50646,5,0
88,272,50812,1,0
88,224,50978,1,0
88,176,51144,1,0
88,136,51309,1,0
296,136,51972,2,2,B|352:64,1,65
416,144,52469,1,2
152,64,53298,5,0
200,64,53464,1,0
248,64,53630,1,0
296,64,53795,1,0
344,64,53961,1,0
392,144,54624,2,2,B|408:232,1,65
296,216,55121,1,2
224,296,55950,5,2
136,208,56447,1,2
424,80,57773,5,2
312,120,58271,1,2
344,192,58602,1,2
256,280,60094,5,0
200,280,60259,1,0
256,280,60425,1,0
200,280,60591,1,0
200,176,60923,1,0
256,176,61088,1,0
304,176,61254,5,0
304,72,61585,1,0
408,72,61917,1,0
408,176,62248,1,0
408,280,62580,5,0
304,280,62911,1,0
304,176,63243,1,0
200,176,63574,1,0
200,280,63906,5,0
96,280,64237,1,0
96,176,64569,1,0
96,72,64900,6,0,B|176:72,1,65
264,72,65398,1,0
344,72,65729,1,0
448,72,66061,1,0
448,120,66226,1,0
448,168,66392,1,0
448,216,66558,1,0
448,320,66889,5,0
344,320,67221,1,0
240,320,67552,1,0
136,320,67884,1,0
136,216,68215,5,0
136,112,68547,1,0
240,112,68878,1,0
240,216,69210,1,0
344,224,69541,6,0,B|420:283|344:336,1,130
200,288,70370,2,0,B|344:288|344:184,1,195
344,88,71199,1,0
240,88,71530,1,0
256,120,82469,5,0
256,120,82635,1,0
360,120,82967,1,0
360,224,83298,1,0
360,328,83630,1,0
360,328,83795,1,0
360,328,83961,1,0
256,328,84293,5,0
256,224,84624,2,0,B|152:216|224:56,1,195
218,68,85287,1,0
120,64,85619,5,0
120,168,85950,2,0,B|112:288|240:328,1,195
320,320,86779,1,0
320,216,87110,1,0
320,112,87442,1,0
216,112,87773,5,0
400,296,89099,5,0
400,296,89265,1,0
296,296,89597,1,0
192,296,89928,1,0
192,248,90094,1,0
192,200,90260,1,0
192,152,90425,1,0
392,88,91751,5,0
392,136,91917,1,0
392,184,92083,1,0
392,232,92248,1,0
136,184,93077,5,0
136,80,93409,1,0
240,80,93740,1,0
240,128,93906,1,0
240,176,94072,1,0
240,224,94237,1,0
288,224,94403,5,0
336,224,94569,1,0
336,272,94735,1,0
336,320,94900,1,0
384,320,95066,1,0
176,320,95729,5,0
280,320,96061,1,0
280,216,96392,1,0
232,216,96558,1,0
184,216,96724,1,0
136,216,96889,1,0
136,168,97055,5,0
136,120,97221,1,0
88,120,97387,1,0
40,120,97552,1,0
40,72,97718,1,0
208,192,98381,5,0
208,88,98713,1,0
312,88,99044,2,0,B|312:232,1,130
312,312,99707,2,0,B|384:312,1,65
376,208,100204,2,0,B|376:128,3,65
256,192,101033,12,0,102193
376,144,103685,2,0,B|422:203|384:280,1,130
296,224,104348,2,0,B|240:272|296:344,1,130
184,328,105011,5,0
184,168,105508,1,0
440,168,106337,1,0
280,168,106834,1,0
384,168,107166,1,0
240,104,107663,5,0
240,256,108160,1,0
136,256,108492,1,0
136,48,109155,1,4
136,152,109486,1,4
136,256,109818,1,4
288,256,110315,5,0
440,256,110812,1,0
440,152,111144,1,0
336,152,111475,1,0
232,152,111806,1,0
232,256,112138,5,0
336,256,112469,1,0
440,256,112801,1,0
440,152,113132,5,2
336,152,113464,1,2
232,152,113795,1,2
128,152,114127,1,2
128,256,114458,6,0,B|344:179|156:30|264:312,1,325
360,312,115619,6,0,B|405:164|352:32,1,260
256,56,116613,1,0
168,112,116945,1,2
168,112,117110,1,2
136,208,117442,1,2
368,320,118271,6,0,B|440:216|472:112|368:96,1,260
280,96,119265,1,0
184,136,119597,1,2
184,136,119762,1,2
80,112,120094,1,2
256,192,120923,12,0,123574
112,56,125232,5,0
112,160,125563,1,0
200,104,125895,1,0
336,56,126226,6,0,B|472:56,3,130
464,160,127552,2,0,B|320:160,3,130
336,264,128878,2,0,B|480:264,3,130
464,264,130039,5,0
400,344,130370,1,0
296,344,130702,1,0
192,344,131033,1,0
192,296,131199,1,0
192,248,131365,1,0
192,200,131530,1,0
192,96,131862,6,0,B|48:96,2,130
296,96,132856,2,0,B|440:96,3,130
416,160,134182,5,0
344,232,134514,1,0
272,160,134845,1,0
168,160,135177,5,0
168,160,135342,1,0
168,264,135674,1,0
168,264,135840,1,4
272,264,136171,1,4
376,264,136503,1,4
